<?xml version="1.0" standalone="no"?>
<!DOCTYPE svg PUBLIC "-//W3C//DTD SVG 1.1//EN" "http://www.w3.org/Graphics/SVG/1.1/DTD/svg11.dtd" >
<svg xmlns="http://www.w3.org/2000/svg" xmlns:xlink="http://www.w3.org/1999/xlink" version="1.1">
<metadata>
Created by FontForge 20170731 at Tue Jan 26 16:34:56 2021
 By Aleksey,,,
Copyright (c) 2016 by Chris Simpson.
</metadata>
<defs>
<font id="Metropolis-SemiBoldItalic" horiz-adv-x="1241" >
  <font-face 
    font-family="Metropolis Semi Bold"
    font-weight="700"
    font-style="italic"
    font-stretch="normal"
    units-per-em="2048"
    panose-1="0 0 8 0 0 0 0 0 0 0"
    ascent="1628"
    descent="-420"
    x-height="1059"
    cap-height="1407"
    bbox="-610 -592 2355 1995"
    underline-thickness="40"
    underline-position="-312"
    slope="-11.75"
    unicode-range="U+0020-2212"
  />
<missing-glyph horiz-adv-x="1024" 
d="M840 1628v-2048h-650v2048h650zM682 1491h-338v-68h133v-75h-135v-68h340v68h-135v75h135v68zM547 1227h-205v-213h340v69h-135v144zM477 1157v-74h-67v74h67zM682 958h-340v-67h135v-76h-135v-67h205v143h135v67zM682 836h-68v-136h-272v-69h340v205zM682 586h-205v-115
h70v47h67v-96h-204v164h-68v-232h340v232zM682 231h-340v-231h340v231zM614 164v-96h-204v96h204zM682 -47h-340v-68h143l-143 -96v-68h340v68h-209l143 96h66v68z" />
    <glyph glyph-name=".notdef" horiz-adv-x="1024" 
d="M840 1628v-2048h-650v2048h650zM682 1491h-338v-68h133v-75h-135v-68h340v68h-135v75h135v68zM547 1227h-205v-213h340v69h-135v144zM477 1157v-74h-67v74h67zM682 958h-340v-67h135v-76h-135v-67h205v143h135v67zM682 836h-68v-136h-272v-69h340v205zM682 586h-205v-115
h70v47h67v-96h-204v164h-68v-232h340v232zM682 231h-340v-231h340v231zM614 164v-96h-204v96h204zM682 -47h-340v-68h143l-143 -96v-68h340v68h-209l143 96h66v68z" />
    <glyph glyph-name=".null" horiz-adv-x="0" 
 />
    <glyph glyph-name="nonmarkingreturn" horiz-adv-x="682" 
 />
    <glyph glyph-name="space" unicode=" " horiz-adv-x="579" 
 />
    <glyph glyph-name="exclam" unicode="!" horiz-adv-x="602" 
d="M197 461l137 946h289l-254 -946h-172zM207 -25q-65 0 -105.5 41.5t-40.5 104.5q0 74 54.5 125t124.5 51q62 0 101.5 -40.5t39.5 -100.5q0 -72 -53 -126.5t-121 -54.5z" />
    <glyph glyph-name="quotedbl" unicode="&#x22;" horiz-adv-x="987" 
d="M274 829q-9 207 -6 285q11 293 183 293q47 0 77.5 -31.5t30.5 -79.5q0 -40 -58 -189t-116 -278h-111zM727 829q-9 207 -6 285q11 293 182 293q47 0 78 -32t31 -79q0 -40 -58 -189t-116 -278h-111z" />
    <glyph glyph-name="numbersign" unicode="#" horiz-adv-x="1386" 
d="M1341 879h-213l-161 -355h213l-86 -184h-213l-156 -340h-195l156 340h-256l-156 -340h-196l155 340h-204l86 184h204l162 355h-209l84 184h211l158 344h197l-158 -344h256l158 344h194l-158 -344h213zM772 524l162 355h-256l-162 -355h256z" />
    <glyph glyph-name="dollar" unicode="$" horiz-adv-x="1284" 
d="M786 811q209 -54 298.5 -130.5t89.5 -211.5q0 -207 -158 -341t-404 -148l-26 -132h-187l29 140q-130 24 -243.5 82.5t-186.5 142.5l174 166q58 -64 137.5 -108.5t163.5 -61.5l86 407q-179 50 -263.5 122.5t-84.5 201.5q0 197 142.5 333.5t373.5 156.5l27 124h186
l-27 -131q110 -19 210 -69.5t173 -124.5l-166 -174q-103 109 -264 149zM471 983q0 -40 32.5 -68.5t106.5 -54.5l72 344q-97 -22 -154 -82t-57 -139zM659 203q116 17 184 80t68 149q0 46 -39.5 77t-136.5 60z" />
    <glyph glyph-name="percent" unicode="%" horiz-adv-x="1685" 
d="M479 707q-135 0 -213 80t-78 206q0 172 119.5 299t286.5 127q136 0 213.5 -80.5t77.5 -208.5q0 -112 -54 -209.5t-148 -155.5t-204 -58zM150 0l1265 1407h195l-1264 -1407h-196zM477 860q95 0 164.5 85.5t69.5 187.5q0 62 -31 97.5t-86 35.5q-95 0 -164.5 -88t-69.5 -187
q0 -60 32 -95.5t85 -35.5zM1161 -20q-135 0 -214 80t-79 208q0 110 54 208t148.5 158t205.5 60q134 0 211.5 -82t77.5 -209q0 -110 -54 -207.5t-147.5 -156.5t-202.5 -59zM1159 133q97 0 166.5 88t69.5 187q0 61 -32.5 96t-86.5 35q-95 0 -164.5 -86t-69.5 -189
q0 -61 31 -96t86 -35z" />
    <glyph glyph-name="ampersand" unicode="&#x26;" horiz-adv-x="1380" 
d="M1315 631q-135 -199 -271 -340q9 -12 73.5 -95.5t101.5 -134.5l-220 -81q-31 41 -118 161q-215 -166 -449 -166q-181 0 -291 89.5t-110 242.5q0 177 106 293t303 197q-61 116 -61 204q0 120 63 218t165 151t220 53q145 0 233.5 -82t88.5 -211q0 -65 -21 -119t-54.5 -94
t-90.5 -78t-112 -65t-136 -61q59 -87 191 -264q125 138 213 288zM825 1237q-90 0 -157.5 -65.5t-67.5 -155.5q0 -73 39 -150q70 25 117.5 47t90.5 53.5t64 72t21 91.5q0 47 -29 77t-78 30zM465 174q143 0 303 125q-148 207 -229 336q-260 -118 -260 -305q0 -73 52 -114.5
t134 -41.5z" />
    <glyph glyph-name="quotesingle" unicode="'" horiz-adv-x="534" 
d="M274 829q-9 207 -6 285q11 293 183 293q47 0 77.5 -31.5t30.5 -79.5q0 -40 -58 -189t-116 -278h-111z" />
    <glyph glyph-name="parenleft" unicode="(" horiz-adv-x="774" 
d="M387 -342q-141 127 -217 299t-76 371q0 324 174.5 619.5t470.5 492.5l115 -148q-514 -435 -514 -989q0 -279 192 -520z" />
    <glyph glyph-name="parenright" unicode=")" horiz-adv-x="772" 
d="M39 -354l-113 149q512 432 512 989q0 144 -46.5 270t-143.5 251l145 122q141 -127 216 -297.5t75 -369.5q0 -326 -174.5 -621.5t-470.5 -492.5z" />
    <glyph glyph-name="asterisk" unicode="*" horiz-adv-x="821" 
d="M453 729q-29 0 -46 18.5t-12 43.5q9 44 45 128.5t45 112.5q-27 -17 -102.5 -74t-118.5 -79q-25 -14 -49 -6t-33 34q-9 25 2.5 51.5t36.5 38.5q42 22 130.5 48.5t115.5 37.5q-19 9 -98 37t-113 51q-19 12 -20 38.5t18 52.5q21 24 49.5 32t46.5 -4q34 -23 88 -82.5
t68 -72.5q3 28 2.5 120.5t9.5 120.5q5 25 28.5 43.5t51.5 18.5q29 0 45.5 -18.5t11.5 -43.5q-10 -46 -49.5 -139t-42.5 -102q26 17 103 74t120 79q23 14 48 6t34 -34q9 -25 -2.5 -52t-36.5 -39q-42 -22 -130 -48.5t-115 -37.5q21 -10 99 -38t112 -50q19 -12 20 -38t-18 -52
q-21 -24 -50 -32t-47 4q-34 22 -86.5 80.5t-70.5 74.5q-2 -44 0 -80t0.5 -81.5t-8.5 -79.5q-5 -25 -29 -43.5t-53 -18.5z" />
    <glyph glyph-name="plus" unicode="+" horiz-adv-x="1228" 
d="M1155 791l-45 -213h-373l-80 -379h-223l80 379h-377l45 213h375l80 380h223l-80 -380h375z" />
    <glyph glyph-name="comma" unicode="," horiz-adv-x="591" 
d="M102 -297l-94 86q104 86 170 197q-55 0 -91 37t-36 96q0 73 53.5 125.5t122.5 52.5q68 0 107 -47.5t39 -126.5q0 -109 -71.5 -209t-199.5 -211z" />
    <glyph glyph-name="hyphen" unicode="-" horiz-adv-x="753" 
d="M84 453l47 219h551l-47 -219h-551z" />
    <glyph glyph-name="period" unicode="." horiz-adv-x="565" 
d="M188 -25q-65 0 -105 41.5t-40 104.5q0 74 54 125t124 51q62 0 101.5 -40.5t39.5 -100.5q0 -72 -53 -126.5t-121 -54.5z" />
    <glyph glyph-name="slash" unicode="/" horiz-adv-x="919" 
d="M-184 -152l1056 1674h275l-1057 -1674h-274z" />
    <glyph glyph-name="zero" unicode="0" horiz-adv-x="1437" 
d="M618 -25q-230 0 -363.5 149t-133.5 398q0 171 58.5 335.5t159 291.5t245 205t305.5 78q230 0 365 -148.5t135 -396.5q0 -172 -58.5 -337t-159 -292t-246 -205t-307.5 -78zM635 209q104 0 198 61.5t158 158t101.5 215.5t37.5 233q0 149 -67.5 235t-188.5 86
q-104 0 -198.5 -61.5t-158 -158t-101 -214.5t-37.5 -232q0 -149 68 -236t188 -87z" />
    <glyph glyph-name="one" unicode="1" horiz-adv-x="804" 
d="M270 0l234 1112l-271 -154l-69 181l448 268h205l-293 -1407h-254z" />
    <glyph glyph-name="two" unicode="2" 
d="M-10 0l39 209l600 420q332 230 332 418q0 73 -53 114t-134 41q-110 0 -208 -53t-199 -152l-144 170q259 265 572 265q191 0 308.5 -100t117.5 -263q0 -94 -32.5 -178.5t-95.5 -159.5t-135.5 -136.5t-173.5 -129.5l-348 -232h633l-49 -233h-1030z" />
    <glyph glyph-name="three" unicode="3" horiz-adv-x="1224" 
d="M508 -25q-181 0 -310 67t-200 177l178 156q57 -83 143.5 -127.5t192.5 -44.5q140 0 241 75.5t101 186.5q0 135 -264 135l-166 -2l45 221h149q136 -2 231 64t99 170q3 69 -54 109t-157 40q-190 0 -389 -180l-129 168q242 242 553 242q203 0 321.5 -90t118.5 -238
q0 -143 -93 -243.5t-247 -143.5q98 -22 166 -93t68 -182q0 -103 -49.5 -192t-132 -148.5t-191 -93t-225.5 -33.5z" />
    <glyph glyph-name="four" unicode="4" horiz-adv-x="1310" 
d="M670 0l63 305h-690l12 199l854 903h308l-183 -883h195l-45 -219h-195l-65 -305h-254zM338 524h442l129 604z" />
    <glyph glyph-name="five" unicode="5" horiz-adv-x="1251" 
d="M514 -25q-322 0 -496 224l181 170q136 -172 331 -172q144 0 251.5 94t107.5 219q0 80 -59.5 127t-163.5 47q-156 0 -318 -104l-164 79l174 748h899l-47 -233h-661l-92 -359q132 82 291 82q175 0 286 -94.5t111 -259.5q0 -162 -85 -293t-229 -203t-317 -72z" />
    <glyph glyph-name="six" unicode="6" horiz-adv-x="1304" 
d="M788 899q179 0 292.5 -96.5t113.5 -261.5q0 -156 -84.5 -287t-225.5 -205t-304 -74q-121 0 -212 35t-147 100t-84 153.5t-28 199.5q0 121 27 241t75.5 227t120 199t156.5 159t189.5 105t215.5 38q238 0 399 -164l-151 -183q-58 61 -118.5 91t-143.5 30q-78 0 -151.5 -36
t-132 -98.5t-104.5 -142.5t-77 -173q77 69 175.5 106t198.5 37zM580 193q139 0 246.5 98t107.5 223q0 83 -62 129.5t-161 46.5q-108 0 -202.5 -59.5t-146.5 -155.5v-24q0 -258 218 -258z" />
    <glyph glyph-name="seven" unicode="7" horiz-adv-x="1236" 
d="M137 0l817 1174h-714l47 233h1016l-37 -193l-834 -1214h-295z" />
    <glyph glyph-name="eight" unicode="8" horiz-adv-x="1267" 
d="M535 -25q-215 0 -350.5 92.5t-135.5 249.5q0 148 101.5 255t265.5 163q-85 38 -137 105t-52 159q0 100 50.5 183.5t133 137t184.5 83t208 29.5q196 0 326.5 -89t130.5 -239q0 -134 -88 -230.5t-238 -154.5q99 -40 159 -116t60 -177q0 -104 -52.5 -191t-139.5 -143
t-197 -86.5t-229 -30.5zM676 819q77 4 152 37t125.5 90.5t50.5 122.5t-58 105t-153 40q-125 0 -223.5 -72.5t-98.5 -172.5q0 -67 61.5 -106t143.5 -44zM547 195q88 0 169.5 32.5t134 92t52.5 129.5q0 72 -72 117t-163 48q-82 -3 -163.5 -37.5t-138.5 -97t-57 -133.5
q0 -70 65.5 -110.5t172.5 -40.5z" />
    <glyph glyph-name="nine" unicode="9" horiz-adv-x="1306" 
d="M799 1432q121 0 212 -35t147 -100t84 -153.5t28 -199.5q0 -145 -37.5 -287.5t-109 -264.5t-166 -216t-217.5 -147.5t-255 -53.5q-238 0 -399 164l152 183q58 -61 118.5 -91t143.5 -30q78 0 151.5 36t132 98.5t104.5 142.5t77 173q-77 -68 -175.5 -105.5t-199.5 -37.5
q-179 0 -292.5 96.5t-113.5 261.5q0 117 50 222.5t133.5 180.5t196.5 119t235 44zM668 717q107 0 201.5 59.5t146.5 155.5v24q0 258 -217 258q-139 0 -247 -98t-108 -223q0 -83 62.5 -129.5t161.5 -46.5z" />
    <glyph glyph-name="colon" unicode=":" horiz-adv-x="567" 
d="M350 752q-65 0 -105 41t-40 104q0 74 54 125t124 51q62 0 101.5 -41t39.5 -102q0 -70 -53 -124t-121 -54zM188 -25q-65 0 -105 41.5t-40 104.5q0 74 54.5 125t125.5 51q61 0 100 -41t39 -100q0 -72 -53 -126.5t-121 -54.5z" />
    <glyph glyph-name="semicolon" unicode=";" horiz-adv-x="595" 
d="M373 825q-65 0 -105.5 41.5t-40.5 104.5q0 74 54.5 125t124.5 51q62 0 101.5 -40.5t39.5 -100.5q0 -72 -53 -126.5t-121 -54.5zM106 -297l-94 86q104 86 170 197q-55 0 -91 37t-36 96q0 73 53.5 125.5t122.5 52.5q68 0 107 -47.5t39 -126.5q0 -109 -71.5 -209
t-199.5 -211z" />
    <glyph glyph-name="less" unicode="&#x3c;" horiz-adv-x="1212" 
d="M989 172l-858 432l39 199l1038 432l-41 -209l-809 -321l672 -322z" />
    <glyph glyph-name="equal" unicode="=" horiz-adv-x="1228" 
d="M186 813l45 213h973l-45 -213h-973zM90 350l45 213h973l-45 -213h-973z" />
    <glyph glyph-name="greater" unicode="&#x3e;" horiz-adv-x="1210" 
d="M76 172l43 211l807 322l-672 321l41 209l858 -432l-39 -199z" />
    <glyph glyph-name="question" unicode="?" horiz-adv-x="1040" 
d="M340 453l70 354q100 5 193 37t155.5 89.5t62.5 125.5q0 65 -47 104t-133 39q-171 0 -330 -155l-129 165q233 220 508 220q180 0 285.5 -91.5t105.5 -238.5q0 -114 -65 -213t-167.5 -162.5t-223.5 -89.5l-39 -184h-246zM401 -25q-65 0 -105 41.5t-40 104.5q0 74 54 125
t124 51q62 0 101.5 -40.5t39.5 -100.5q0 -72 -53 -126.5t-121 -54.5z" />
    <glyph glyph-name="at" unicode="@" horiz-adv-x="1804" 
d="M711 -238q-186 0 -332 80.5t-225.5 220.5t-79.5 314q0 126 41.5 252.5t114 236.5t173.5 206t216 164t245.5 107t259.5 39q140 0 259 -45t200.5 -123t127.5 -185t46 -228q0 -117 -41 -234t-110 -208t-166.5 -148t-202.5 -57q-99 0 -153 44.5t-60 123.5
q-75 -77 -164.5 -121.5t-181.5 -44.5q-129 0 -204 73.5t-75 198.5q0 107 51.5 217.5t133 195t188 138t209.5 53.5q97 0 157.5 -42t84.5 -109l51 123l207 -17q-30 -74 -73 -177.5t-66.5 -159.5t-47.5 -119t-34.5 -99.5t-10.5 -56.5q0 -41 26 -64.5t73 -23.5q91 0 168 82
t117 196.5t40 225.5q0 223 -158 368.5t-411 145.5q-176 0 -350 -78.5t-304 -204.5t-211 -294.5t-81 -338.5q0 -156 71.5 -281t203 -197.5t300.5 -72.5q124 0 232.5 29.5t232.5 95.5l29 -59q-257 -142 -516 -142zM784 334q89 0 172 59.5t131 148.5t48 177q0 64 -38 99.5
t-110 35.5q-88 0 -172 -55.5t-135 -142t-51 -175.5q0 -69 41 -108t114 -39z" />
    <glyph glyph-name="A" unicode="A" horiz-adv-x="1562" 
d="M1135 0l-58 266h-671l-166 -266h-289l880 1407h289l-2 -4l293 -1403h-276zM537 475h497l-127 592z" />
    <glyph glyph-name="B" unicode="B" horiz-adv-x="1421" 
d="M53 0l293 1407h684q156 0 254 -83t98 -214q0 -116 -71.5 -215.5t-196.5 -159.5q85 -44 137 -124.5t52 -168.5q0 -125 -72 -227t-191.5 -158.5t-259.5 -56.5h-727zM481 831h365q113 0 191.5 66.5t78.5 161.5q-2 59 -49.5 93t-128.5 34h-383zM354 221h404q123 0 210 74.5
t87 181.5q0 66 -53.5 106t-143.5 40h-420z" />
    <glyph glyph-name="C" unicode="C" horiz-adv-x="1421" 
d="M729 -25q-122 0 -234.5 48.5t-194.5 130.5t-130.5 196t-48.5 238q0 166 72.5 321.5t193 270t284 183.5t337.5 69q144 0 278 -65.5t215 -170.5l-207 -154q-48 70 -133.5 113t-179.5 43q-119 0 -230.5 -50t-193.5 -132t-131 -194t-49 -230q0 -161 113.5 -272t267.5 -111
q91 0 199.5 47.5t187.5 122.5l155 -182q-115 -97 -274.5 -159.5t-296.5 -62.5z" />
    <glyph glyph-name="D" unicode="D" horiz-adv-x="1560" 
d="M53 0l293 1407h488q194 0 346 -72.5t236.5 -202.5t84.5 -296q0 -167 -76 -321.5t-202.5 -267t-301 -180t-362.5 -67.5h-506zM358 231h256q126 0 242.5 48t201 128t135 189.5t50.5 228.5q0 154 -116.5 252.5t-297.5 98.5h-274z" />
    <glyph glyph-name="E" unicode="E" horiz-adv-x="1304" 
d="M1339 1174h-804l-66 -340h723l-47 -234h-729l-72 -367h799l-49 -233h-1059l293 1407h1058z" />
    <glyph glyph-name="F" unicode="F" horiz-adv-x="1282" 
d="M1339 1174h-804l-70 -357h723l-47 -233h-729l-121 -584h-256l293 1407h1058z" />
    <glyph glyph-name="G" unicode="G" horiz-adv-x="1517" 
d="M795 559l43 207h602l-119 -569q-121 -102 -280.5 -162t-305.5 -60q-127 0 -241.5 48t-196.5 129.5t-130 194t-48 235.5q0 169 75 326.5t198 272t288 183t338 68.5q148 0 285 -64.5t219 -171.5l-207 -154q-49 71 -138.5 113.5t-187.5 42.5q-96 0 -188.5 -32.5t-168 -90.5
t-133.5 -134t-90 -168t-32 -187q0 -156 112 -266.5t273 -110.5q80 0 169 31.5t167 85.5l47 233h-350z" />
    <glyph glyph-name="H" unicode="H" horiz-adv-x="1505" 
d="M1286 1407h256l-293 -1407h-254l121 600h-702l-123 -600h-256l293 1407h256l-117 -573h704z" />
    <glyph glyph-name="I" unicode="I" horiz-adv-x="552" 
d="M39 0l293 1407h254l-293 -1407h-254z" />
    <glyph glyph-name="J" unicode="J" horiz-adv-x="1110" 
d="M385 -25q-132 0 -248 68.5t-168 173.5l199 152q20 -73 82.5 -117.5t140.5 -44.5q107 0 194.5 79t112.5 199l191 922h254l-199 -958q-44 -210 -200 -342t-359 -132z" />
    <glyph glyph-name="K" unicode="K" horiz-adv-x="1396" 
d="M51 0l293 1407h256l-141 -666l743 666h332l-698 -625l434 -782h-301l-338 606l-238 -205l-86 -401h-256z" />
    <glyph glyph-name="L" unicode="L" horiz-adv-x="1171" 
d="M330 233h719l-50 -233h-976l292 1407h254z" />
    <glyph glyph-name="M" unicode="M" horiz-adv-x="1767" 
d="M53 0l293 1407h252l285 -858l645 858h256l-293 -1407h-254l199 940l-639 -858l-289 858l-199 -940h-256z" />
    <glyph glyph-name="N" unicode="N" horiz-adv-x="1581" 
d="M53 0l293 1407h252l539 -989l209 989h253l-292 -1407h-250l-539 989l-209 -989h-256z" />
    <glyph glyph-name="O" unicode="O" horiz-adv-x="1658" 
d="M727 -25q-168 0 -308.5 81t-221 219.5t-80.5 302.5q0 170 74 328.5t196 273t285.5 183.5t335.5 69q175 0 314.5 -79.5t216.5 -216.5t77 -305q0 -170 -74 -328.5t-195.5 -273.5t-285 -184.5t-334.5 -69.5zM754 209q119 0 231.5 52.5t194 137.5t131 196.5t49.5 225.5
q0 161 -106.5 269t-272.5 108q-158 0 -298.5 -85.5t-224 -226t-83.5 -296.5q0 -158 111 -269.5t268 -111.5z" />
    <glyph glyph-name="P" unicode="P" horiz-adv-x="1339" 
d="M35 0l293 1407h604q196 0 320 -110t124 -283q0 -149 -85 -273.5t-229 -196t-314 -71.5h-357l-100 -473h-256zM438 709h334q138 0 242 87t104 203q0 77 -66 124.5t-173 47.5h-344z" />
    <glyph glyph-name="Q" unicode="Q" horiz-adv-x="1662" 
d="M1616 831q0 -159 -63 -305.5t-175 -263.5l107 -112l-156 -150l-119 123q-227 -148 -483 -148q-168 0 -308.5 81t-221 219.5t-80.5 302.5q0 170 74 328.5t196 273t285.5 183.5t335.5 69q175 0 314.5 -79.5t216.5 -216.5t77 -305zM754 209q152 0 295 86l-162 168l155 149
l170 -176q148 179 148 385q0 161 -106.5 269t-272.5 108q-158 0 -298.5 -85.5t-224 -226t-83.5 -296.5q0 -158 111 -269.5t268 -111.5z" />
    <glyph glyph-name="R" unicode="R" horiz-adv-x="1388" 
d="M1376 1014q0 -182 -123 -323t-317 -193l301 -498h-283l-288 473h-275l-100 -473h-256l293 1407h604q196 0 320 -110t124 -283zM535 1171l-97 -462h334q138 0 242 87t104 203q0 77 -66 124.5t-173 47.5h-344z" />
    <glyph glyph-name="S" unicode="S" horiz-adv-x="1284" 
d="M561 -23q-163 0 -316.5 65t-246.5 171l174 166q75 -84 187.5 -133t220.5 -49q149 0 240 67t91 168q0 55 -59 90t-211 74q-89 22 -152.5 43t-119 49.5t-88.5 63t-51.5 81.5t-18.5 107q0 214 165 354t425 140q137 0 270 -55t225 -150l-166 -174q-69 74 -168 116.5
t-186 42.5q-136 0 -220.5 -66.5t-84.5 -164.5q0 -54 61 -89t213 -73q232 -56 330.5 -133.5t98.5 -218.5q0 -144 -80 -256.5t-219.5 -174t-313.5 -61.5z" />
    <glyph glyph-name="T" unicode="T" horiz-adv-x="1302" 
d="M414 0l245 1174h-450l47 233h1155l-47 -233h-451l-245 -1174h-254z" />
    <glyph glyph-name="U" unicode="U" horiz-adv-x="1540" 
d="M666 -25q-182 0 -309.5 81.5t-178 226.5t-12.5 327l166 797h254l-168 -809q-35 -174 41 -282.5t233 -108.5q165 0 295.5 116t167.5 295l162 789h256l-170 -817q-57 -273 -262.5 -444t-474.5 -171z" />
    <glyph glyph-name="V" unicode="V" horiz-adv-x="1542" 
d="M1395 1407h288l-880 -1407h-289l2 4l-293 1403h277l227 -1067z" />
    <glyph glyph-name="W" unicode="W" horiz-adv-x="2209" 
d="M387 0l-154 1407h277l90 -1008l545 1008h278l119 -1008l514 1008h285l-737 -1407h-256l-131 1044l-576 -1044h-254z" />
    <glyph glyph-name="X" unicode="X" horiz-adv-x="1464" 
d="M1597 1407l-677 -713l370 -694h-293l-266 498l-475 -498h-317l677 713l-370 694h293l266 -498l475 498h317z" />
    <glyph glyph-name="Y" unicode="Y" horiz-adv-x="1404" 
d="M459 0l114 528l-374 879h245l285 -657l545 657h297l-737 -879l-115 -528h-260z" />
    <glyph glyph-name="Z" unicode="Z" horiz-adv-x="1333" 
d="M0 0l35 195l979 979h-758l49 233h1110l-39 -195l-977 -979h781l-50 -233h-1130z" />
    <glyph glyph-name="bracketleft" unicode="[" horiz-adv-x="778" 
d="M-14 -272l362 1738h531l-35 -170h-330l-293 -1398h330l-33 -170h-532z" />
    <glyph glyph-name="backslash" unicode="\" horiz-adv-x="907" 
d="M547 -152l-361 1674h263l362 -1674h-264z" />
    <glyph glyph-name="bracketright" unicode="]" horiz-adv-x="776" 
d="M-74 -272l35 170h330l291 1398h-330l35 170h532l-360 -1738h-533z" />
    <glyph glyph-name="asciicircum" unicode="^" horiz-adv-x="999" 
d="M162 846l432 561h178l199 -561h-180l-134 399l-305 -399h-190z" />
    <glyph glyph-name="underscore" unicode="_" horiz-adv-x="1212" 
d="M-178 -305l35 164h1220l-35 -164h-1220z" />
    <glyph glyph-name="grave" unicode="`" horiz-adv-x="724" 
d="M563 1178l-244 266l236 45l176 -311h-168z" />
    <glyph glyph-name="a" unicode="a" horiz-adv-x="1339" 
d="M1057 1059h250l-222 -1059h-249l32 158q-165 -183 -389 -183q-171 0 -286 122.5t-115 303.5q0 134 48 259t129 218t194.5 149t238.5 56q109 0 196 -58.5t132 -158.5zM553 188q108 0 201.5 62t147.5 165.5t54 219.5q0 98 -70 166.5t-171 68.5q-104 0 -194 -61
t-143.5 -163.5t-53.5 -219.5q0 -100 65.5 -169t163.5 -69z" />
    <glyph glyph-name="b" unicode="b" horiz-adv-x="1341" 
d="M862 1083q171 0 286.5 -122t115.5 -302t-81 -337.5t-222.5 -252t-307.5 -94.5q-109 0 -195.5 59.5t-131.5 160.5l-41 -195h-250l297 1432h250l-111 -533q78 87 179 135.5t212 48.5zM627 188q103 0 193.5 61t144 164t53.5 220q0 100 -66 168.5t-164 68.5
q-107 0 -200.5 -62t-148 -165t-54.5 -219q0 -99 70 -167.5t172 -68.5z" />
    <glyph glyph-name="c" unicode="c" horiz-adv-x="1124" 
d="M543 -25q-129 0 -237 62.5t-170 169t-62 231.5q0 129 57 249t150 206t217.5 138t255.5 52q112 0 211 -49.5t163 -130.5l-188 -133q-30 45 -90 72.5t-121 27.5q-107 0 -202 -59.5t-151.5 -157.5t-56.5 -207q0 -106 73 -182t175 -76q146 0 271 119l147 -162
q-194 -170 -442 -170z" />
    <glyph glyph-name="d" unicode="d" horiz-adv-x="1341" 
d="M1133 1432h249l-297 -1432h-249l32 158q-165 -183 -389 -183q-171 0 -286 122.5t-115 303.5q0 134 48 259t129 218t194.5 149t238.5 56q107 0 194 -58.5t134 -156.5zM553 188q108 0 201.5 62t147.5 165.5t54 219.5q0 98 -70 166.5t-171 68.5q-104 0 -194 -61
t-143.5 -163.5t-53.5 -219.5q0 -100 65.5 -169t163.5 -69z" />
    <glyph glyph-name="e" unicode="e" horiz-adv-x="1157" 
d="M604 444h-295v-20q0 -110 59.5 -168.5t170.5 -58.5q82 0 166 31t145 83l135 -178q-83 -74 -208.5 -116t-250.5 -42q-203 0 -327.5 123t-124.5 322q0 176 89.5 329.5t239.5 243.5t320 90t281.5 -80.5t111.5 -209.5q0 -165 -136 -258.5t-376 -90.5zM711 862
q-118 0 -211 -61.5t-144 -165.5h285q109 0 169 31t60 88q0 49 -44.5 78.5t-114.5 29.5z" />
    <glyph glyph-name="f" unicode="f" horiz-adv-x="753" 
d="M688 1475q130 0 225 -91l-94 -147q-26 33 -80 33q-59 0 -102.5 -39.5t-54.5 -93.5l-17 -78h242l-45 -207h-240l-176 -852h-244l179 852h-154l43 207h154l24 121q28 132 122.5 213.5t217.5 81.5z" />
    <glyph glyph-name="g" unicode="g" horiz-adv-x="1300" 
d="M1016 1059h252l-201 -957q-42 -207 -218.5 -330.5t-412.5 -123.5q-136 0 -250 41t-184 106l117 168q43 -49 122.5 -75.5t172.5 -26.5q158 0 271 74.5t138 195.5l23 113q-78 -80 -177 -123t-206 -43q-179 0 -286 110.5t-107 294.5q0 114 44.5 223t120 192t182 134
t222.5 51q123 0 212.5 -53.5t129.5 -140.5zM549 291q125 0 227 79.5t137 194.5l13 60q2 12 2 34q0 98 -59.5 154.5t-161.5 56.5q-152 0 -265.5 -110.5t-113.5 -255.5q0 -99 59.5 -156t161.5 -57z" />
    <glyph glyph-name="h" unicode="h" 
d="M811 1083q152 0 243 -89t91 -232q0 -15 -1 -30t-3.5 -32t-8 -47.5t-12 -62.5t-19.5 -92.5t-26 -121.5t-35.5 -165.5t-44.5 -210.5h-241q35 167 80 386q41 195 50 242.5t9 73.5q0 78 -44 123t-120 45q-113 0 -207.5 -71.5t-113.5 -167.5v8l-134 -639h-249l297 1432h249
l-104 -506q62 73 153.5 115t190.5 42z" />
    <glyph glyph-name="i" unicode="i" horiz-adv-x="526" 
d="M416 1221q-56 0 -92.5 37t-36.5 92q0 61 46.5 107t108.5 46q55 0 91 -37t36 -92q0 -61 -46.5 -107t-106.5 -46zM27 0l221 1059h250l-222 -1059h-249z" />
    <glyph glyph-name="j" unicode="j" horiz-adv-x="526" 
d="M426 1219q-58 0 -94.5 38.5t-36.5 94.5q0 58 47 104.5t109 46.5q56 0 91.5 -38t35.5 -93q0 -60 -46.5 -106.5t-105.5 -46.5zM-86 -365q-115 0 -199 43l54 183q49 -17 104 -17q53 0 96 39t54 94l225 1082h250l-234 -1120q-28 -137 -125 -220.5t-225 -83.5z" />
    <glyph glyph-name="k" unicode="k" horiz-adv-x="1150" 
d="M1251 1059l-536 -473l297 -586h-285l-209 422l-190 -162l-54 -260h-249l297 1432h249l-182 -875l561 502h301z" />
    <glyph glyph-name="l" unicode="l" horiz-adv-x="526" 
d="M29 0l297 1432h249l-296 -1432h-250z" />
    <glyph glyph-name="m" unicode="m" horiz-adv-x="1880" 
d="M1456 1083q149 0 239.5 -89.5t90.5 -231.5q0 -37 -13 -107t-69 -333q-13 -60 -20.5 -96.5t-21 -101t-26.5 -124.5h-243q138 652 142 689q1 9 1 16q-2 80 -40.5 122.5t-115.5 42.5q-101 0 -187 -67t-103 -164q-8 -40 -23.5 -113t-47.5 -225.5t-63 -300.5h-243
q33 157 78 372q43 207 53.5 261.5t9.5 71.5q0 77 -37.5 121t-116.5 44q-99 0 -181 -62t-107 -155l-138 -653h-249l221 1059h250l-29 -133q54 75 136 116t177 41q111 0 191.5 -54.5t113.5 -147.5q55 94 156 148t215 54z" />
    <glyph glyph-name="n" unicode="n" 
d="M811 1083q152 0 243 -89t91 -232q0 -15 -1 -30t-3.5 -32t-8 -47.5t-12 -62.5t-19.5 -92.5t-26 -121.5t-35.5 -165.5t-44.5 -210.5h-241q35 167 80 386q41 195 50 242.5t9 73.5q0 78 -44 123t-120 45q-106 0 -198 -64.5t-119 -154.5l-136 -651h-249l221 1059h250l-27 -127
q62 70 152.5 110.5t187.5 40.5z" />
    <glyph glyph-name="o" unicode="o" horiz-adv-x="1298" 
d="M543 -25q-129 0 -237 62.5t-170 169t-62 231.5q0 129 57 249t150 206t217 138t254 52q197 0 335 -135t138 -325q0 -129 -57 -249.5t-150.5 -207t-218.5 -139t-256 -52.5zM567 188q107 0 203.5 59.5t154.5 158t58 206.5q0 106 -74.5 182t-179.5 76q-107 0 -203 -59.5
t-153.5 -157.5t-57.5 -207q0 -106 74 -182t178 -76z" />
    <glyph glyph-name="p" unicode="p" horiz-adv-x="1341" 
d="M862 1083q171 0 286.5 -122t115.5 -302t-81 -337.5t-222.5 -252t-307.5 -94.5q-108 0 -195 60t-134 160l-113 -547h-250l293 1411h250l-33 -160q78 87 179 135.5t212 48.5zM627 188q103 0 193.5 61t144 164t53.5 220q0 100 -66 168.5t-164 68.5q-107 0 -200.5 -62
t-148 -165t-54.5 -219q0 -99 70 -167.5t172 -68.5z" />
    <glyph glyph-name="q" unicode="q" horiz-adv-x="1341" 
d="M1057 1059h250l-293 -1411h-250l106 512q-79 -87 -179.5 -136t-211.5 -49q-171 0 -286 122.5t-115 303.5q0 134 48 259t129 218t194.5 149t238.5 56q109 0 196 -58.5t132 -158.5zM553 188q108 0 201.5 62t147.5 165.5t54 219.5q0 98 -70 166.5t-171 68.5q-104 0 -194 -61
t-143.5 -163.5t-53.5 -219.5q0 -100 65.5 -169t163.5 -69z" />
    <glyph glyph-name="r" unicode="r" horiz-adv-x="858" 
d="M463 864q71 103 180.5 161t237.5 58l-29 -213q-170 0 -298.5 -96.5t-160.5 -247.5v2l-110 -528h-250l221 1059h250z" />
    <glyph glyph-name="s" unicode="s" horiz-adv-x="1024" 
d="M428 -25q-126 0 -243.5 44t-200.5 120l137 162q65 -56 149 -85.5t166 -29.5q95 0 159 39.5t64 98.5q0 32 -37 59t-137 57q-90 25 -144 45.5t-101.5 51.5t-68.5 73t-21 101q0 161 129.5 266.5t326.5 105.5q210 0 391 -133l-131 -172q-122 92 -266 92q-89 0 -148 -35
t-59 -90q0 -29 39.5 -54t142.5 -58q68 -21 112 -37t88.5 -40t69.5 -50.5t40.5 -65t15.5 -86.5q0 -161 -135.5 -270t-337.5 -109z" />
    <glyph glyph-name="t" unicode="t" horiz-adv-x="802" 
d="M762 852h-238q-118 -562 -118 -586q0 -38 18 -58t49 -20q35 0 69 14t54 31l49 -180q-108 -78 -235 -78q-114 0 -183 68.5t-69 177.5q0 33 12.5 99.5t75.5 364.5q22 105 35 167h-154l43 207h154l61 291h244l-62 -291h240z" />
    <glyph glyph-name="u" unicode="u" 
d="M965 1059h249l-221 -1059h-250l27 127q-62 -70 -152.5 -111t-187.5 -41q-152 0 -243 89.5t-91 232.5q0 15 1 30t3.5 32t8 47.5t12 62.5t19.5 92.5t26 121.5t35.5 165.5t44.5 210.5h241q-33 -161 -78 -375q-43 -203 -52 -252.5t-9 -75.5q0 -78 44 -123t120 -45
q106 0 198 65t119 155z" />
    <glyph glyph-name="v" unicode="v" horiz-adv-x="1212" 
d="M383 0l-236 1059h261l143 -770l465 770h270l-670 -1059h-233z" />
    <glyph glyph-name="w" unicode="w" horiz-adv-x="1718" 
d="M297 0l-137 1059h243l70 -723l389 723h209l84 -723l373 723h254l-578 -1059h-227l-74 725l-379 -725h-227z" />
    <glyph glyph-name="x" unicode="x" horiz-adv-x="1148" 
d="M1206 1059l-489 -520l280 -539h-268l-184 354l-334 -354h-281l514 545l-268 514h268l172 -330l312 330h278z" />
    <glyph glyph-name="y" unicode="y" horiz-adv-x="1226" 
d="M176 -369q-120 0 -227 60l76 172q57 -35 122 -35q101 0 158 78l70 86l-223 1067h258l143 -791l457 791h264l-686 -1143q-172 -285 -412 -285z" />
    <glyph glyph-name="z" unicode="z" horiz-adv-x="1079" 
d="M-12 0l35 182l698 658h-547l45 219h879l-35 -182l-701 -658h566l-47 -219h-893z" />
    <glyph glyph-name="braceleft" unicode="{" horiz-adv-x="841" 
d="M561 -340q-210 19 -303.5 85.5t-93.5 191.5q0 53 37 217t37 206q0 58 -36.5 81.5t-123.5 23.5l16 158q106 0 166 48t80 146l51 258q24 116 80.5 186.5t161 110t276.5 55.5l6 -157q-120 -17 -185.5 -43.5t-97.5 -69t-48 -119.5l-54 -272q-20 -92 -67.5 -145t-136.5 -82
q114 -43 114 -170q0 -46 -37.5 -208.5t-37.5 -207.5q0 -63 48 -89.5t183 -45.5z" />
    <glyph glyph-name="bar" unicode="|" horiz-adv-x="598" 
d="M68 -152l348 1674h180l-348 -1674h-180z" />
    <glyph glyph-name="braceright" unicode="}" horiz-adv-x="841" 
d="M-63 -340l-5 158q173 25 240 72t92 161l53 271q20 94 67.5 147t137.5 82q-114 43 -114 170q0 45 37.5 214t37.5 202q0 62 -48 88t-185 45l37 157q209 -19 303 -85.5t94 -190.5q0 -53 -37 -218t-37 -206q0 -57 36.5 -80.5t123.5 -23.5l-14 -158q-205 0 -248 -193l-53 -260
q-34 -171 -148 -250t-370 -102z" />
    <glyph glyph-name="asciitilde" unicode="~" horiz-adv-x="923" 
d="M631 606q-43 0 -82 18t-63 39.5t-51 39.5t-48 18q-86 0 -133 -127l-125 39q41 128 103 190t151 62q42 0 81 -18t63 -39.5t51.5 -39.5t48.5 -18q83 0 131 127l127 -39q-41 -128 -103 -190t-151 -62z" />
    <glyph glyph-name="exclamdown" unicode="&#xa1;" horiz-adv-x="602" 
d="M395 1083q65 0 105.5 -41.5t40.5 -103.5q0 -74 -54.5 -125t-124.5 -51q-62 0 -101.5 40.5t-39.5 100.5q0 72 53 126t121 54zM406 598l-138 -946h-288l253 946h173z" />
    <glyph glyph-name="cent" unicode="&#xa2;" horiz-adv-x="1124" 
d="M838 307l147 -162q-173 -150 -383 -168l-27 -129h-184l29 144q-152 38 -249 162.5t-97 283.5q0 154 78.5 291.5t209 228.5t285.5 117l27 131h184l-27 -129q89 -15 167 -61.5t130 -112.5l-188 -133q-46 70 -154 94l-137 -665q106 28 189 108zM319 446q0 -77 40.5 -140.5
t107.5 -94.5l131 635q-120 -45 -199.5 -157t-79.5 -243z" />
    <glyph glyph-name="sterling" unicode="&#xa3;" horiz-adv-x="1316" 
d="M518 526l-63 -317h719l-44 -209h-1138l20 109l183 100l67 317h-137l33 154h135l59 278q44 212 197.5 343t353.5 131q147 0 265.5 -69t158.5 -173l-199 -152q-10 74 -70.5 118t-144.5 44q-110 0 -199 -79.5t-114 -198.5l-49 -242h360l-32 -154h-361z" />
    <glyph glyph-name="yen" unicode="&#xa5;" horiz-adv-x="1404" 
d="M1571 1407l-625 -743h293l-31 -154h-379l-30 -141h379l-31 -154h-381l-47 -215h-260l47 215h-375l31 154h377l30 141h-376l30 154h293l-317 743h245l285 -657l545 657h297z" />
    <glyph glyph-name="dieresis" unicode="&#xa8;" horiz-adv-x="933" 
d="M416 1204q-54 0 -86.5 34t-32.5 85q0 55 40.5 96t96.5 41q50 0 83.5 -35.5t33.5 -83.5q0 -56 -41.5 -96.5t-93.5 -40.5zM836 1204q-53 0 -86 34t-33 85q0 55 41.5 96t95.5 41q51 0 84 -35t33 -84q0 -56 -41.5 -96.5t-93.5 -40.5z" />
    <glyph glyph-name="macron" unicode="&#xaf;" horiz-adv-x="942" 
d="M268 1200l31 154h684l-31 -154h-684z" />
    <glyph glyph-name="acute" unicode="&#xb4;" horiz-adv-x="737" 
d="M264 1178l305 311l230 -45l-355 -266h-180z" />
    <glyph glyph-name="cedilla" unicode="&#xb8;" horiz-adv-x="659" 
d="M246 -90q57 -3 92 -37.5t35 -85.5q0 -85 -67.5 -135.5t-166.5 -50.5q-114 0 -188 63l57 96q44 -41 109 -41q58 0 92.5 21.5t34.5 58.5q0 21 -13 34t-34 13q-39 0 -76 -26l-41 47l96 156h141z" />
    <glyph glyph-name="questiondown" unicode="&#xbf;" horiz-adv-x="1040" 
d="M639 1083q65 0 105 -41t40 -104q0 -74 -54 -125t-124 -51q-62 0 -101.5 40.5t-39.5 100.5q0 72 53 126t121 54zM700 606l-69 -354q-100 -5 -193 -37t-156 -89.5t-63 -125.5q0 -65 47 -104t133 -39q171 0 330 155l129 -166q-232 -219 -508 -219q-180 0 -285.5 91.5
t-105.5 238.5q0 114 65.5 213t167.5 162.5t224 89.5l39 184h245z" />
    <glyph glyph-name="Agrave" unicode="&#xc0;" horiz-adv-x="1562" 
d="M1069 1526h-168l-244 266l236 45zM1135 0l-58 266h-671l-166 -266h-289l880 1407h289l-2 -4l293 -1403h-276zM537 475h497l-127 592z" />
    <glyph glyph-name="Aacute" unicode="&#xc1;" horiz-adv-x="1562" 
d="M1436 1792l-355 -266h-180l305 311zM1120 1407l-2 -4l293 -1403h-276l-58 266h-671l-166 -266h-289l880 1407h289zM1034 475l-127 592l-370 -592h497z" />
    <glyph glyph-name="Acircumflex" unicode="&#xc2;" horiz-adv-x="1562" 
d="M1047 1688l-193 -162h-168l272 295h213l154 -295h-158zM1135 0l-58 266h-671l-166 -266h-289l880 1407h289l-2 -4l293 -1403h-276zM537 475h497l-127 592z" />
    <glyph glyph-name="Atilde" unicode="&#xc3;" horiz-adv-x="1562" 
d="M915 1636q-86 0 -133 -127l-125 39q41 128 103 190t151 62q42 0 81 -18t63 -39t51.5 -39t48.5 -18q83 0 131 126l127 -38q-41 -128 -103 -190t-151 -62q-43 0 -82 18t-63 39t-51 39t-48 18zM1120 1407l-2 -4l293 -1403h-276l-58 266h-671l-166 -266h-289l880 1407h289z
M1034 475l-127 592l-370 -592h497z" />
    <glyph glyph-name="Adieresis" unicode="&#xc4;" horiz-adv-x="1562" 
d="M821 1552q-54 0 -86.5 34t-32.5 85q0 55 41 96t97 41q50 0 83 -35t33 -83q0 -56 -41.5 -97t-93.5 -41zM1241 1552q-53 0 -86 34t-33 85q0 55 42 96t96 41q51 0 83.5 -34.5t32.5 -83.5q0 -56 -41.5 -97t-93.5 -41zM1135 0l-58 266h-671l-166 -266h-289l880 1407h289l-2 -4
l293 -1403h-276zM537 475h497l-127 592z" />
    <glyph glyph-name="Aring" unicode="&#xc5;" horiz-adv-x="1562" 
d="M1012 1542q-81 0 -133 51.5t-52 130.5q0 107 86.5 189t192.5 82q81 0 131.5 -51t50.5 -127q0 -109 -85 -192t-191 -83zM1081 1882q-52 0 -94.5 -41t-42.5 -94q0 -39 25.5 -64.5t64.5 -25.5q53 0 96.5 41t43.5 94q0 38 -26.5 64t-66.5 26zM1135 0l-58 266h-671l-166 -266
h-289l880 1407h289l-2 -4l293 -1403h-276zM537 475h497l-127 592z" />
    <glyph glyph-name="AE" unicode="&#xc6;" horiz-adv-x="2170" 
d="M2206 1174h-805l-66 -340h723l-47 -234h-729l-72 -367h799l-49 -233h-1059l55 266h-516l-209 -266h-301l1106 1407h1217zM604 475h395l144 686z" />
    <glyph glyph-name="Ccedilla" unicode="&#xc7;" horiz-adv-x="1421" 
d="M1300 197q-103 -88 -244 -148t-272 -72l-43 -67q57 -3 92 -37.5t35 -85.5q0 -85 -67 -135.5t-166 -50.5q-115 0 -189 63l58 96q44 -41 108 -41q58 0 92.5 21.5t34.5 58.5q0 21 -13 34t-34 13q-39 0 -76 -26l-41 47l72 115q-223 31 -374.5 203.5t-151.5 402.5
q0 166 72.5 321.5t193 270t284 183.5t337.5 69q144 0 278 -65.5t215 -170.5l-207 -154q-48 70 -133.5 113t-179.5 43q-119 0 -230.5 -50t-193.5 -132t-131 -194t-49 -230q0 -161 113.5 -272t267.5 -111q91 0 199.5 47.5t187.5 122.5z" />
    <glyph glyph-name="Egrave" unicode="&#xc8;" horiz-adv-x="1304" 
d="M1055 1526h-168l-244 266l236 45zM1339 1174h-804l-66 -340h723l-47 -234h-729l-72 -367h799l-49 -233h-1059l293 1407h1058z" />
    <glyph glyph-name="Eacute" unicode="&#xc9;" horiz-adv-x="1304" 
d="M1202 1792l-354 -266h-180l305 311zM1339 1174h-804l-66 -340h723l-47 -234h-729l-72 -367h799l-49 -233h-1059l293 1407h1058z" />
    <glyph glyph-name="Ecircumflex" unicode="&#xca;" horiz-adv-x="1304" 
d="M922 1688l-193 -162h-168l273 295h213l153 -295h-158zM1339 1174h-804l-66 -340h723l-47 -234h-729l-72 -367h799l-49 -233h-1059l293 1407h1058z" />
    <glyph glyph-name="Edieresis" unicode="&#xcb;" horiz-adv-x="1304" 
d="M696 1552q-54 0 -86 34t-32 85q0 55 41 96t96 41q50 0 83 -35t33 -83q0 -56 -41.5 -97t-93.5 -41zM1116 1552q-53 0 -86 34t-33 85q0 55 42 96t96 41q51 0 83.5 -34.5t32.5 -83.5q0 -56 -41.5 -97t-93.5 -41zM1339 1174h-804l-66 -340h723l-47 -234h-729l-72 -367h799
l-49 -233h-1059l293 1407h1058z" />
    <glyph glyph-name="Igrave" unicode="&#xcc;" horiz-adv-x="552" 
d="M408 1526l-244 266l235 45l176 -311h-167zM39 0l293 1407h254l-293 -1407h-254z" />
    <glyph glyph-name="Iacute" unicode="&#xcd;" horiz-adv-x="552" 
d="M381 1526l305 311l229 -45l-354 -266h-180zM39 0l293 1407h254l-293 -1407h-254z" />
    <glyph glyph-name="Icircumflex" unicode="&#xce;" horiz-adv-x="552" 
d="M162 1526l272 295h213l154 -295h-158l-121 162l-192 -162h-168zM39 0l293 1407h254l-293 -1407h-254z" />
    <glyph glyph-name="Idieresis" unicode="&#xcf;" horiz-adv-x="552" 
d="M297 1552q-54 0 -86.5 34t-32.5 85q0 55 41 96t96 41q50 0 83.5 -35t33.5 -83q0 -56 -41.5 -97t-93.5 -41zM717 1552q-53 0 -86 34t-33 85q0 55 41.5 96t95.5 41q51 0 84 -34.5t33 -83.5q0 -56 -41.5 -97t-93.5 -41zM39 0l293 1407h254l-293 -1407h-254z" />
    <glyph glyph-name="Eth" unicode="&#xd0;" horiz-adv-x="1628" 
d="M901 1407q194 0 346.5 -72.5t237 -202.5t84.5 -296q0 -167 -76 -321.5t-202.5 -267t-301 -180t-362.5 -67.5h-506l125 596h-148l49 233h146l121 578h487zM682 231q126 0 242.5 48t201 128t135 189.5t50.5 228.5q0 154 -116.5 252.5t-297.5 98.5h-274l-72 -347h352
l-51 -233h-350l-76 -365h256z" />
    <glyph glyph-name="Ntilde" unicode="&#xd1;" horiz-adv-x="1581" 
d="M1147 1522q-43 0 -82 18t-63 39t-51 39t-48 18q-86 0 -133 -127l-125 39q41 128 103 190t151 62q42 0 81 -18t63 -39t51.5 -39t48.5 -18q83 0 131 126l127 -38q-41 -128 -103 -190t-151 -62zM53 0l293 1407h252l539 -989l209 989h253l-292 -1407h-250l-539 989l-209 -989
h-256z" />
    <glyph glyph-name="Ograve" unicode="&#xd2;" horiz-adv-x="1658" 
d="M952 1526l-243 266l235 45l176 -311h-168zM727 -25q-168 0 -308.5 81t-221 219.5t-80.5 302.5q0 170 74 328.5t196 273t285.5 183.5t335.5 69q175 0 314.5 -79.5t216.5 -216.5t77 -305q0 -170 -74 -328.5t-195.5 -273.5t-285 -184.5t-334.5 -69.5zM754 209
q119 0 231.5 52.5t194 137.5t131 196.5t49.5 225.5q0 161 -106.5 269t-272.5 108q-158 0 -298.5 -85.5t-224 -226t-83.5 -296.5q0 -158 111 -269.5t268 -111.5z" />
    <glyph glyph-name="Oacute" unicode="&#xd3;" horiz-adv-x="1658" 
d="M932 1526l305 311l229 -45l-354 -266h-180zM727 -25q-168 0 -308.5 81t-221 219.5t-80.5 302.5q0 170 74 328.5t196 273t285.5 183.5t335.5 69q175 0 314.5 -79.5t216.5 -216.5t77 -305q0 -170 -74 -328.5t-195.5 -273.5t-285 -184.5t-334.5 -69.5zM754 209
q119 0 231.5 52.5t194 137.5t131 196.5t49.5 225.5q0 161 -106.5 269t-272.5 108q-158 0 -298.5 -85.5t-224 -226t-83.5 -296.5q0 -158 111 -269.5t268 -111.5z" />
    <glyph glyph-name="Ocircumflex" unicode="&#xd4;" horiz-adv-x="1658" 
d="M705 1526l272 295h213l153 -295h-157l-121 162l-193 -162h-167zM727 -25q-168 0 -308.5 81t-221 219.5t-80.5 302.5q0 170 74 328.5t196 273t285.5 183.5t335.5 69q175 0 314.5 -79.5t216.5 -216.5t77 -305q0 -170 -74 -328.5t-195.5 -273.5t-285 -184.5t-334.5 -69.5z
M754 209q119 0 231.5 52.5t194 137.5t131 196.5t49.5 225.5q0 161 -106.5 269t-272.5 108q-158 0 -298.5 -85.5t-224 -226t-83.5 -296.5q0 -158 111 -269.5t268 -111.5z" />
    <glyph glyph-name="Otilde" unicode="&#xd5;" horiz-adv-x="1658" 
d="M1178 1522q-43 0 -82 18t-63 39t-51 39t-48 18q-86 0 -133 -127l-125 39q41 128 103 190t151 62q42 0 81 -18t63 -39t51.5 -39t48.5 -18q83 0 131 126l127 -38q-41 -128 -103 -190t-151 -62zM727 -25q-168 0 -308.5 81t-221 219.5t-80.5 302.5q0 170 74 328.5t196 273
t285.5 183.5t335.5 69q175 0 314.5 -79.5t216.5 -216.5t77 -305q0 -170 -74 -328.5t-195.5 -273.5t-285 -184.5t-334.5 -69.5zM754 209q119 0 231.5 52.5t194 137.5t131 196.5t49.5 225.5q0 161 -106.5 269t-272.5 108q-158 0 -298.5 -85.5t-224 -226t-83.5 -296.5
q0 -158 111 -269.5t268 -111.5z" />
    <glyph glyph-name="Odieresis" unicode="&#xd6;" horiz-adv-x="1658" 
d="M840 1552q-54 0 -86.5 34t-32.5 85q0 55 40.5 96t96.5 41q50 0 83.5 -35t33.5 -83q0 -56 -41.5 -97t-93.5 -41zM1260 1552q-53 0 -86 34t-33 85q0 55 41.5 96t95.5 41q51 0 84 -34.5t33 -83.5q0 -56 -41.5 -97t-93.5 -41zM727 -25q-168 0 -308.5 81t-221 219.5
t-80.5 302.5q0 170 74 328.5t196 273t285.5 183.5t335.5 69q175 0 314.5 -79.5t216.5 -216.5t77 -305q0 -170 -74 -328.5t-195.5 -273.5t-285 -184.5t-334.5 -69.5zM754 209q119 0 231.5 52.5t194 137.5t131 196.5t49.5 225.5q0 161 -106.5 269t-272.5 108
q-158 0 -298.5 -85.5t-224 -226t-83.5 -296.5q0 -158 111 -269.5t268 -111.5z" />
    <glyph glyph-name="multiply" unicode="&#xd7;" horiz-adv-x="1134" 
d="M1075 952l-319 -266l213 -266l-185 -158l-215 268l-317 -266l-127 152l321 268l-213 266l185 158l215 -268l317 264z" />
    <glyph glyph-name="Oslash" unicode="&#xd8;" horiz-adv-x="1658" 
d="M1743 1407l-236 -221q109 -153 109 -355q0 -170 -74 -328.5t-195.5 -273.5t-285 -184.5t-334.5 -69.5q-212 0 -375 125l-108 -100h-242l234 219q-119 157 -119 359q0 170 74 328.5t196 273t285.5 183.5t335.5 69q223 0 385 -127l108 102h242zM375 590q0 -105 51 -193
l780 733q-96 68 -225 68q-158 0 -298.5 -85.5t-224 -226t-83.5 -296.5zM1360 821q0 103 -45 185l-776 -730q95 -67 215 -67q119 0 231.5 52.5t194 137.5t131 196.5t49.5 225.5z" />
    <glyph glyph-name="Ugrave" unicode="&#xd9;" horiz-adv-x="1540" 
d="M981 1526l-244 266l236 45l176 -311h-168zM666 -25q-182 0 -309.5 81.5t-178 226.5t-12.5 327l166 797h254l-168 -809q-35 -174 41 -282.5t233 -108.5q165 0 295.5 116t167.5 295l162 789h256l-170 -817q-57 -273 -262.5 -444t-474.5 -171z" />
    <glyph glyph-name="Uacute" unicode="&#xda;" horiz-adv-x="1540" 
d="M762 1526l305 311l229 -45l-354 -266h-180zM666 -25q-182 0 -309.5 81.5t-178 226.5t-12.5 327l166 797h254l-168 -809q-35 -174 41 -282.5t233 -108.5q165 0 295.5 116t167.5 295l162 789h256l-170 -817q-57 -273 -262.5 -444t-474.5 -171z" />
    <glyph glyph-name="Ucircumflex" unicode="&#xdb;" horiz-adv-x="1540" 
d="M655 1526l273 295h213l153 -295h-157l-121 162l-193 -162h-168zM666 -25q-182 0 -309.5 81.5t-178 226.5t-12.5 327l166 797h254l-168 -809q-35 -174 41 -282.5t233 -108.5q165 0 295.5 116t167.5 295l162 789h256l-170 -817q-57 -273 -262.5 -444t-474.5 -171z" />
    <glyph glyph-name="Udieresis" unicode="&#xdc;" horiz-adv-x="1540" 
d="M791 1552q-54 0 -86.5 34t-32.5 85q0 55 41 96t96 41q50 0 83.5 -35t33.5 -83q0 -56 -41.5 -97t-93.5 -41zM1210 1552q-53 0 -85.5 34t-32.5 85q0 55 41.5 96t95.5 41q51 0 84 -34.5t33 -83.5q0 -56 -42 -97t-94 -41zM666 -25q-182 0 -309.5 81.5t-178 226.5t-12.5 327
l166 797h254l-168 -809q-35 -174 41 -282.5t233 -108.5q165 0 295.5 116t167.5 295l162 789h256l-170 -817q-57 -273 -262.5 -444t-474.5 -171z" />
    <glyph glyph-name="Yacute" unicode="&#xdd;" horiz-adv-x="1404" 
d="M670 1526l305 311l229 -45l-354 -266h-180zM459 0l114 528l-374 879h245l285 -657l545 657h297l-737 -879l-115 -528h-260z" />
    <glyph glyph-name="Thorn" unicode="&#xde;" horiz-adv-x="1341" 
d="M35 0l293 1407h254l-47 -231h350q197 0 320.5 -108t123.5 -280q0 -154 -85 -280t-227.5 -196t-309.5 -70h-365l-51 -242h-256zM391 475h318q148 0 255 86t107 209q0 81 -65 125.5t-183 44.5h-336z" />
    <glyph glyph-name="germandbls" unicode="&#xdf;" horiz-adv-x="1230" 
d="M35 0l225 1077q37 172 186 278.5t351 106.5q189 0 301 -91.5t112 -240.5q0 -129 -72 -231.5t-200 -163.5q89 -46 138.5 -122.5t49.5 -170.5q0 -128 -72.5 -230.5t-191 -157t-258.5 -54.5h-168l47 221h99q114 0 202.5 75.5t94.5 176.5q3 68 -50 109t-147 41h-115l43 208
h62q105 0 188.5 76t83.5 168q0 62 -45.5 98.5t-124.5 36.5q-100 0 -178.5 -60t-97.5 -151l-209 -999h-254z" />
    <glyph glyph-name="agrave" unicode="&#xe0;" horiz-adv-x="1339" 
d="M944 1178h-168l-244 266l236 45zM1057 1059h250l-222 -1059h-249l32 158q-165 -183 -389 -183q-171 0 -286 122.5t-115 303.5q0 134 48 259t129 218t194.5 149t238.5 56q109 0 196 -58.5t132 -158.5zM553 188q108 0 201.5 62t147.5 165.5t54 219.5q0 98 -70 166.5
t-171 68.5q-104 0 -194 -61t-143.5 -163.5t-53.5 -219.5q0 -100 65.5 -169t163.5 -69z" />
    <glyph glyph-name="aacute" unicode="&#xe1;" horiz-adv-x="1339" 
d="M1092 1444l-355 -266h-180l305 311zM1057 1059h250l-222 -1059h-249l32 158q-165 -183 -389 -183q-171 0 -286 122.5t-115 303.5q0 134 48 259t129 218t194.5 149t238.5 56q109 0 196 -58.5t132 -158.5zM553 188q108 0 201.5 62t147.5 165.5t54 219.5q0 98 -70 166.5
t-171 68.5q-104 0 -194 -61t-143.5 -163.5t-53.5 -219.5q0 -100 65.5 -169t163.5 -69z" />
    <glyph glyph-name="acircumflex" unicode="&#xe2;" horiz-adv-x="1339" 
d="M811 1339l-193 -161h-167l272 295h213l154 -295h-158zM1057 1059h250l-222 -1059h-249l32 158q-165 -183 -389 -183q-171 0 -286 122.5t-115 303.5q0 134 48 259t129 218t194.5 149t238.5 56q109 0 196 -58.5t132 -158.5zM553 188q108 0 201.5 62t147.5 165.5t54 219.5
q0 98 -70 166.5t-171 68.5q-104 0 -194 -61t-143.5 -163.5t-53.5 -219.5q0 -100 65.5 -169t163.5 -69z" />
    <glyph glyph-name="atilde" unicode="&#xe3;" horiz-adv-x="1339" 
d="M680 1288q-86 0 -133 -127l-125 39q41 128 103 190t151 62q42 0 81 -18t63 -39.5t51.5 -39.5t48.5 -18q83 0 131 127l127 -39q-41 -128 -103 -189.5t-151 -61.5q-43 0 -82 18t-63 39t-51 39t-48 18zM1057 1059h250l-222 -1059h-249l32 158q-165 -183 -389 -183
q-171 0 -286 122.5t-115 303.5q0 134 48 259t129 218t194.5 149t238.5 56q109 0 196 -58.5t132 -158.5zM553 188q108 0 201.5 62t147.5 165.5t54 219.5q0 98 -70 166.5t-171 68.5q-104 0 -194 -61t-143.5 -163.5t-53.5 -219.5q0 -100 65.5 -169t163.5 -69z" />
    <glyph glyph-name="adieresis" unicode="&#xe4;" horiz-adv-x="1339" 
d="M586 1204q-54 0 -86.5 34t-32.5 85q0 55 40.5 96t96.5 41q50 0 83.5 -35.5t33.5 -83.5q0 -56 -41.5 -96.5t-93.5 -40.5zM1006 1204q-53 0 -86 34t-33 85q0 55 41.5 96t95.5 41q51 0 84 -35t33 -84q0 -56 -41.5 -96.5t-93.5 -40.5zM1057 1059h250l-222 -1059h-249l32 158
q-165 -183 -389 -183q-171 0 -286 122.5t-115 303.5q0 134 48 259t129 218t194.5 149t238.5 56q109 0 196 -58.5t132 -158.5zM553 188q108 0 201.5 62t147.5 165.5t54 219.5q0 98 -70 166.5t-171 68.5q-104 0 -194 -61t-143.5 -163.5t-53.5 -219.5q0 -100 65.5 -169
t163.5 -69z" />
    <glyph glyph-name="aring" unicode="&#xe5;" horiz-adv-x="1339" 
d="M776 1194q-81 0 -132.5 51.5t-51.5 130.5q0 107 86 189t192 82q81 0 132 -51.5t51 -127.5q0 -109 -85.5 -191.5t-191.5 -82.5zM846 1534q-52 0 -94.5 -41t-42.5 -94q0 -39 25.5 -64.5t64.5 -25.5q53 0 96 41t43 94q0 38 -26 64t-66 26zM1057 1059h250l-222 -1059h-249
l32 158q-165 -183 -389 -183q-171 0 -286 122.5t-115 303.5q0 134 48 259t129 218t194.5 149t238.5 56q109 0 196 -58.5t132 -158.5zM553 188q108 0 201.5 62t147.5 165.5t54 219.5q0 98 -70 166.5t-171 68.5q-104 0 -194 -61t-143.5 -163.5t-53.5 -219.5q0 -100 65.5 -169
t163.5 -69z" />
    <glyph glyph-name="ae" unicode="&#xe6;" horiz-adv-x="1875" 
d="M1331 444h-295v-20q0 -110 59.5 -168.5t170.5 -58.5q82 0 166 31t145 83l135 -178q-83 -74 -208.5 -116t-250.5 -42q-129 0 -229 52t-158 145q-83 -92 -201.5 -144.5t-252.5 -52.5q-203 0 -305 98t-68 261q20 97 91.5 173.5t175 117.5t218.5 41q149 0 297 -64l10 45
q13 46 7.5 88t-24.5 74t-63.5 51t-111.5 19q-128 0 -311 -86l-68 182q236 108 420 108q127 0 213 -46t125 -130q189 176 432 176q170 0 281.5 -80.5t111.5 -209.5q0 -165 -136 -258.5t-376 -90.5zM1438 862q-118 0 -211 -61.5t-144 -165.5h285q109 0 169 31t60 88
q0 49 -44.5 78.5t-114.5 29.5zM446 158q119 0 216 69.5t116 165.5l15 66q-103 33 -236 33q-101 0 -183.5 -54.5t-99.5 -136.5q-13 -67 32.5 -105t139.5 -38z" />
    <glyph glyph-name="ccedilla" unicode="&#xe7;" horiz-adv-x="1124" 
d="M985 145q-176 -153 -389 -168l-43 -67q57 -3 92 -37.5t35 -85.5q0 -85 -67.5 -135.5t-166.5 -50.5q-114 0 -188 63l57 96q44 -41 109 -41q58 0 92.5 21.5t34.5 58.5q0 21 -13 34t-34 13q-39 0 -76 -26l-41 47l72 117q-166 29 -275.5 157.5t-109.5 296.5q0 129 57 249
t150 206t217.5 138t255.5 52q112 0 211 -49.5t163 -130.5l-188 -133q-30 45 -90 72.5t-121 27.5q-107 0 -202 -59.5t-151.5 -157.5t-56.5 -207q0 -106 73 -182t175 -76q146 0 271 119z" />
    <glyph glyph-name="egrave" unicode="&#xe8;" horiz-adv-x="1157" 
d="M920 1178h-168l-244 266l235 45zM604 444h-295v-20q0 -110 59.5 -168.5t170.5 -58.5q82 0 166 31t145 83l135 -178q-83 -74 -208.5 -116t-250.5 -42q-203 0 -327.5 123t-124.5 322q0 176 89.5 329.5t239.5 243.5t320 90t281.5 -80.5t111.5 -209.5q0 -165 -136 -258.5
t-376 -90.5zM711 862q-118 0 -211 -61.5t-144 -165.5h285q109 0 169 31t60 88q0 49 -44.5 78.5t-114.5 29.5z" />
    <glyph glyph-name="eacute" unicode="&#xe9;" horiz-adv-x="1157" 
d="M1067 1444l-354 -266h-181l306 311zM604 444h-295v-20q0 -110 59.5 -168.5t170.5 -58.5q82 0 166 31t145 83l135 -178q-83 -74 -208.5 -116t-250.5 -42q-203 0 -327.5 123t-124.5 322q0 176 89.5 329.5t239.5 243.5t320 90t281.5 -80.5t111.5 -209.5q0 -165 -136 -258.5
t-376 -90.5zM711 862q-118 0 -211 -61.5t-144 -165.5h285q109 0 169 31t60 88q0 49 -44.5 78.5t-114.5 29.5z" />
    <glyph glyph-name="ecircumflex" unicode="&#xea;" horiz-adv-x="1157" 
d="M786 1339l-192 -161h-168l272 295h213l154 -295h-158zM604 444h-295v-20q0 -110 59.5 -168.5t170.5 -58.5q82 0 166 31t145 83l135 -178q-83 -74 -208.5 -116t-250.5 -42q-203 0 -327.5 123t-124.5 322q0 176 89.5 329.5t239.5 243.5t320 90t281.5 -80.5t111.5 -209.5
q0 -165 -136 -258.5t-376 -90.5zM711 862q-118 0 -211 -61.5t-144 -165.5h285q109 0 169 31t60 88q0 49 -44.5 78.5t-114.5 29.5z" />
    <glyph glyph-name="edieresis" unicode="&#xeb;" horiz-adv-x="1157" 
d="M561 1204q-54 0 -86.5 34t-32.5 85q0 55 41 96t97 41q50 0 83 -35.5t33 -83.5q0 -56 -41.5 -96.5t-93.5 -40.5zM981 1204q-53 0 -86 34t-33 85q0 55 41.5 96t95.5 41q51 0 84 -35t33 -84q0 -56 -41.5 -96.5t-93.5 -40.5zM723 1083q170 0 281.5 -80.5t111.5 -209.5
q0 -165 -136 -258.5t-376 -90.5h-295v-20q0 -110 59.5 -168.5t170.5 -58.5q82 0 166 31t145 83l135 -178q-83 -74 -208.5 -116t-250.5 -42q-203 0 -327.5 123t-124.5 322q0 176 89.5 329.5t239.5 243.5t320 90zM641 635q109 0 169 31t60 88q0 49 -44.5 78.5t-114.5 29.5
q-118 0 -211 -61.5t-144 -165.5h285z" />
    <glyph glyph-name="igrave" unicode="&#xec;" horiz-adv-x="526" 
d="M311 1178l-243 266l235 45l176 -311h-168zM27 0l221 1059h250l-222 -1059h-249z" />
    <glyph glyph-name="iacute" unicode="&#xed;" horiz-adv-x="526" 
d="M303 1178l305 311l230 -45l-355 -266h-180zM27 0l221 1059h250l-222 -1059h-249z" />
    <glyph glyph-name="icircumflex" unicode="&#xee;" horiz-adv-x="526" 
d="M78 1178l272 295h213l154 -295h-158l-121 161l-192 -161h-168zM27 0l221 1059h250l-222 -1059h-249z" />
    <glyph glyph-name="idieresis" unicode="&#xef;" horiz-adv-x="526" 
d="M213 1204q-54 0 -86.5 34t-32.5 85q0 55 41 96t96 41q50 0 83.5 -35.5t33.5 -83.5q0 -56 -41.5 -96.5t-93.5 -40.5zM633 1204q-53 0 -86 34t-33 85q0 55 41.5 96t95.5 41q51 0 84 -35t33 -84q0 -56 -41.5 -96.5t-93.5 -40.5zM27 0l221 1059h250l-222 -1059h-249z" />
    <glyph glyph-name="eth" unicode="&#xf0;" horiz-adv-x="1292" 
d="M979 1251q119 -136 177 -265t58 -273t-50.5 -279t-137.5 -236t-211.5 -162t-263.5 -61q-211 0 -336 117.5t-125 310.5q0 118 44 230t118.5 196.5t180 135.5t222.5 51q183 0 306 -154q-39 151 -183 305l-252 -104l-39 149l170 70q-43 37 -133 107l236 84q23 -20 61 -57
t47 -46l215 88l37 -149zM563 190q103 0 193 56t142 148t52 194q0 98 -60.5 158.5t-168.5 60.5q-157 0 -272 -119.5t-115 -277.5q0 -101 61.5 -160.5t167.5 -59.5z" />
    <glyph glyph-name="ntilde" unicode="&#xf1;" 
d="M676 1288q-86 0 -133 -127l-125 39q41 128 103 190t151 62q42 0 81 -18t63 -39.5t51 -39.5t48 -18q84 0 132 127l127 -39q-41 -128 -103 -189.5t-151 -61.5q-43 0 -82 18t-63 39t-51 39t-48 18zM811 1083q152 0 243 -89t91 -232q0 -15 -1 -30t-3.5 -32t-8 -47.5
t-12 -62.5t-19.5 -92.5t-26 -121.5t-35.5 -165.5t-44.5 -210.5h-241q35 167 80 386q41 195 50 242.5t9 73.5q0 78 -44 123t-120 45q-106 0 -198 -64.5t-119 -154.5l-136 -651h-249l221 1059h250l-27 -127q62 70 152.5 110.5t187.5 40.5z" />
    <glyph glyph-name="ograve" unicode="&#xf2;" horiz-adv-x="1298" 
d="M776 1178l-244 266l236 45l176 -311h-168zM543 -25q-129 0 -237 62.5t-170 169t-62 231.5q0 129 57 249t150 206t217 138t254 52q197 0 335 -135t138 -325q0 -129 -57 -249.5t-150.5 -207t-218.5 -139t-256 -52.5zM567 188q107 0 203.5 59.5t154.5 158t58 206.5
q0 106 -74.5 182t-179.5 76q-107 0 -203 -59.5t-153.5 -157.5t-57.5 -207q0 -106 74 -182t178 -76z" />
    <glyph glyph-name="oacute" unicode="&#xf3;" horiz-adv-x="1298" 
d="M557 1178l305 311l230 -45l-355 -266h-180zM543 -25q-129 0 -237 62.5t-170 169t-62 231.5q0 129 57 249t150 206t217 138t254 52q197 0 335 -135t138 -325q0 -129 -57 -249.5t-150.5 -207t-218.5 -139t-256 -52.5zM567 188q107 0 203.5 59.5t154.5 158t58 206.5
q0 106 -74.5 182t-179.5 76q-107 0 -203 -59.5t-153.5 -157.5t-57.5 -207q0 -106 74 -182t178 -76z" />
    <glyph glyph-name="ocircumflex" unicode="&#xf4;" horiz-adv-x="1298" 
d="M451 1178l272 295h213l154 -295h-158l-121 161l-193 -161h-167zM543 -25q-129 0 -237 62.5t-170 169t-62 231.5q0 129 57 249t150 206t217 138t254 52q197 0 335 -135t138 -325q0 -129 -57 -249.5t-150.5 -207t-218.5 -139t-256 -52.5zM567 188q107 0 203.5 59.5
t154.5 158t58 206.5q0 106 -74.5 182t-179.5 76q-107 0 -203 -59.5t-153.5 -157.5t-57.5 -207q0 -106 74 -182t178 -76z" />
    <glyph glyph-name="otilde" unicode="&#xf5;" horiz-adv-x="1298" 
d="M924 1174q-43 0 -82 18t-63 39t-51 39t-48 18q-86 0 -133 -127l-125 39q41 128 103 190t151 62q42 0 81 -18t63 -39.5t51.5 -39.5t48.5 -18q83 0 131 127l127 -39q-41 -128 -103 -189.5t-151 -61.5zM543 -25q-129 0 -237 62.5t-170 169t-62 231.5q0 129 57 249t150 206
t217 138t254 52q197 0 335 -135t138 -325q0 -129 -57 -249.5t-150.5 -207t-218.5 -139t-256 -52.5zM567 188q107 0 203.5 59.5t154.5 158t58 206.5q0 106 -74.5 182t-179.5 76q-107 0 -203 -59.5t-153.5 -157.5t-57.5 -207q0 -106 74 -182t178 -76z" />
    <glyph glyph-name="odieresis" unicode="&#xf6;" horiz-adv-x="1298" 
d="M586 1204q-54 0 -86.5 34t-32.5 85q0 55 40.5 96t96.5 41q50 0 83.5 -35.5t33.5 -83.5q0 -56 -41.5 -96.5t-93.5 -40.5zM1006 1204q-53 0 -86 34t-33 85q0 55 41.5 96t95.5 41q51 0 84 -35t33 -84q0 -56 -41.5 -96.5t-93.5 -40.5zM543 -25q-129 0 -237 62.5t-170 169
t-62 231.5q0 129 57 249t150 206t217 138t254 52q197 0 335 -135t138 -325q0 -129 -57 -249.5t-150.5 -207t-218.5 -139t-256 -52.5zM567 188q107 0 203.5 59.5t154.5 158t58 206.5q0 106 -74.5 182t-179.5 76q-107 0 -203 -59.5t-153.5 -157.5t-57.5 -207q0 -106 74 -182
t178 -76z" />
    <glyph glyph-name="divide" unicode="&#xf7;" horiz-adv-x="1228" 
d="M713 905q-60 0 -97.5 38.5t-37.5 96.5q0 68 48.5 113t112.5 45q58 0 94.5 -38.5t36.5 -94.5q0 -64 -48 -112t-109 -48zM137 578l45 213h973l-45 -213h-973zM559 170q-59 0 -96 37.5t-37 95.5q0 70 48 115t112 45q57 0 94 -38t37 -93q0 -64 -48 -113t-110 -49z" />
    <glyph glyph-name="oslash" unicode="&#xf8;" horiz-adv-x="1298" 
d="M1319 1059l-182 -170q88 -122 88 -266q0 -129 -57 -249.5t-150.5 -207t-218.5 -139t-256 -52.5q-156 0 -283 93l-72 -68h-208l180 170q-86 123 -86 268q0 129 57 249t150 206t217 138t254 52q158 0 284 -92l74 68h209zM315 446q0 -56 25 -108l526 491q-62 41 -137 41
q-107 0 -203 -59.5t-153.5 -157.5t-57.5 -207zM983 612q0 57 -25 109l-526 -492q59 -41 135 -41q107 0 203.5 59.5t154.5 158t58 206.5z" />
    <glyph glyph-name="ugrave" unicode="&#xf9;" 
d="M928 1178h-168l-244 266l236 45zM965 1059h249l-221 -1059h-250l27 127q-62 -70 -152.5 -111t-187.5 -41q-152 0 -243 89.5t-91 232.5q0 15 1 30t3.5 32t8 47.5t12 62.5t19.5 92.5t26 121.5t35.5 165.5t44.5 210.5h241q-33 -161 -78 -375q-43 -203 -52 -252.5t-9 -75.5
q0 -78 44 -123t120 -45q106 0 198 65t119 155z" />
    <glyph glyph-name="uacute" unicode="&#xfa;" 
d="M1075 1444l-354 -266h-180l305 311zM965 1059h249l-221 -1059h-250l27 127q-62 -70 -152.5 -111t-187.5 -41q-152 0 -243 89.5t-91 232.5q0 15 1 30t3.5 32t8 47.5t12 62.5t19.5 92.5t26 121.5t35.5 165.5t44.5 210.5h241q-33 -161 -78 -375q-43 -203 -52 -252.5
t-9 -75.5q0 -78 44 -123t120 -45q106 0 198 65t119 155z" />
    <glyph glyph-name="ucircumflex" unicode="&#xfb;" 
d="M795 1339l-193 -161h-168l273 295h213l153 -295h-158zM965 1059h249l-221 -1059h-250l27 127q-62 -70 -152.5 -111t-187.5 -41q-152 0 -243 89.5t-91 232.5q0 15 1 30t3.5 32t8 47.5t12 62.5t19.5 92.5t26 121.5t35.5 165.5t44.5 210.5h241q-33 -161 -78 -375
q-43 -203 -52 -252.5t-9 -75.5q0 -78 44 -123t120 -45q106 0 198 65t119 155z" />
    <glyph glyph-name="udieresis" unicode="&#xfc;" 
d="M569 1204q-54 0 -86 34t-32 85q0 55 40.5 96t96.5 41q50 0 83.5 -35.5t33.5 -83.5q0 -56 -42 -96.5t-94 -40.5zM989 1204q-53 0 -86 34t-33 85q0 55 42 96t96 41q51 0 83.5 -35t32.5 -84q0 -56 -41.5 -96.5t-93.5 -40.5zM965 1059h249l-221 -1059h-250l27 127
q-62 -70 -152.5 -111t-187.5 -41q-152 0 -243 89.5t-91 232.5q0 15 1 30t3.5 32t8 47.5t12 62.5t19.5 92.5t26 121.5t35.5 165.5t44.5 210.5h241q-33 -161 -78 -375q-43 -203 -52 -252.5t-9 -75.5q0 -78 44 -123t120 -45q106 0 198 65t119 155z" />
    <glyph glyph-name="yacute" unicode="&#xfd;" horiz-adv-x="1226" 
d="M528 1178l306 311l229 -45l-354 -266h-181zM176 -369q-120 0 -227 60l76 172q57 -35 122 -35q101 0 158 78l70 86l-223 1067h258l143 -791l457 791h264l-686 -1143q-172 -285 -412 -285z" />
    <glyph glyph-name="thorn" unicode="&#xfe;" horiz-adv-x="1341" 
d="M862 1083q171 0 286.5 -122t115.5 -302t-81 -337.5t-222.5 -252t-307.5 -94.5q-108 0 -195 60t-134 160l-113 -547h-250l371 1784h250l-111 -533q78 87 179 135.5t212 48.5zM627 188q103 0 193.5 61t144 164t53.5 220q0 100 -66 168.5t-164 68.5q-107 0 -200.5 -62
t-148 -165t-54.5 -219q0 -99 70 -167.5t172 -68.5z" />
    <glyph glyph-name="ydieresis" unicode="&#xff;" horiz-adv-x="1226" 
d="M557 1204q-54 0 -86.5 34t-32.5 85q0 55 41 96t96 41q50 0 83.5 -35.5t33.5 -83.5q0 -56 -41.5 -96.5t-93.5 -40.5zM977 1204q-53 0 -86 34t-33 85q0 55 41.5 96t95.5 41q51 0 84 -35t33 -84q0 -56 -41.5 -96.5t-93.5 -40.5zM176 -369q-120 0 -227 60l76 172
q57 -35 122 -35q101 0 158 78l70 86l-223 1067h258l143 -791l457 791h264l-686 -1143q-172 -285 -412 -285z" />
    <glyph glyph-name="Amacron" unicode="&#x100;" horiz-adv-x="1562" 
d="M1384 1702l-30 -154h-684l30 154h684zM1135 0l-58 266h-671l-166 -266h-289l880 1407h289l-2 -4l293 -1403h-276zM537 475h497l-127 592z" />
    <glyph glyph-name="amacron" unicode="&#x101;" horiz-adv-x="1339" 
d="M1149 1354l-31 -154h-684l31 154h684zM1057 1059h250l-222 -1059h-249l32 158q-165 -183 -389 -183q-171 0 -286 122.5t-115 303.5q0 134 48 259t129 218t194.5 149t238.5 56q109 0 196 -58.5t132 -158.5zM553 188q108 0 201.5 62t147.5 165.5t54 219.5q0 98 -70 166.5
t-171 68.5q-104 0 -194 -61t-143.5 -163.5t-53.5 -219.5q0 -100 65.5 -169t163.5 -69z" />
    <glyph glyph-name="Abreve" unicode="&#x102;" horiz-adv-x="1562" 
d="M1018 1542q-185 0 -295 135l137 113q32 -39 80 -61.5t98 -22.5q116 0 224 90l100 -123q-158 -131 -344 -131zM1135 0l-58 266h-671l-166 -266h-289l880 1407h289l-2 -4l293 -1403h-276zM537 475h497l-127 592z" />
    <glyph glyph-name="abreve" unicode="&#x103;" horiz-adv-x="1339" 
d="M782 1194q-185 0 -295 135l138 113q32 -39 80 -61.5t98 -22.5q115 0 223 90l100 -123q-158 -131 -344 -131zM1057 1059h250l-222 -1059h-249l32 158q-165 -183 -389 -183q-171 0 -286 122.5t-115 303.5q0 134 48 259t129 218t194.5 149t238.5 56q109 0 196 -58.5
t132 -158.5zM553 188q108 0 201.5 62t147.5 165.5t54 219.5q0 98 -70 166.5t-171 68.5q-104 0 -194 -61t-143.5 -163.5t-53.5 -219.5q0 -100 65.5 -169t163.5 -69z" />
    <glyph glyph-name="Aogonek" unicode="&#x104;" horiz-adv-x="1562" 
d="M1454 -156l43 -141q-80 -57 -180 -57q-92 0 -145.5 49.5t-53.5 136.5q0 98 64 168h-47l-58 266h-671l-166 -266h-289l880 1407h289l-2 -4l293 -1399l10 -4q-60 0 -99.5 -37.5t-39.5 -93.5q0 -29 19 -46.5t51 -17.5q63 0 102 39zM537 475h497l-127 592z" />
    <glyph glyph-name="aogonek" unicode="&#x105;" horiz-adv-x="1339" 
d="M1026 -195q63 0 102 39l43 -141q-80 -57 -180 -57q-91 0 -144.5 49.5t-53.5 136.5q0 99 63 168h-20l32 158q-165 -183 -389 -183q-171 0 -286 122.5t-115 303.5q0 134 48 259t129 218t194.5 149t238.5 56q109 0 196 -58.5t132 -158.5l41 193h250l-222 -1055l11 -4
q-60 0 -100 -37.5t-40 -93.5q0 -29 19 -46.5t51 -17.5zM553 188q108 0 201.5 62t147.5 165.5t54 219.5q0 98 -70 166.5t-171 68.5q-104 0 -194 -61t-143.5 -163.5t-53.5 -219.5q0 -100 65.5 -169t163.5 -69z" />
    <glyph glyph-name="Cacute" unicode="&#x106;" horiz-adv-x="1421" 
d="M774 1526l305 311l230 -45l-355 -266h-180zM729 -25q-122 0 -234.5 48.5t-194.5 130.5t-130.5 196t-48.5 238q0 166 72.5 321.5t193 270t284 183.5t337.5 69q144 0 278 -65.5t215 -170.5l-207 -154q-48 70 -133.5 113t-179.5 43q-119 0 -230.5 -50t-193.5 -132t-131 -194
t-49 -230q0 -161 113.5 -272t267.5 -111q91 0 199.5 47.5t187.5 122.5l155 -182q-115 -97 -274.5 -159.5t-296.5 -62.5z" />
    <glyph glyph-name="cacute" unicode="&#x107;" horiz-adv-x="1124" 
d="M535 1178l305 311l229 -45l-354 -266h-180zM543 -25q-129 0 -237 62.5t-170 169t-62 231.5q0 129 57 249t150 206t217.5 138t255.5 52q112 0 211 -49.5t163 -130.5l-188 -133q-30 45 -90 72.5t-121 27.5q-107 0 -202 -59.5t-151.5 -157.5t-56.5 -207q0 -106 73 -182
t175 -76q146 0 271 119l147 -162q-194 -170 -442 -170z" />
    <glyph glyph-name="Ccaron" unicode="&#x10c;" horiz-adv-x="1421" 
d="M885 1526l-150 295h156l121 -160l192 160h170l-276 -295h-213zM729 -25q-122 0 -234.5 48.5t-194.5 130.5t-130.5 196t-48.5 238q0 166 72.5 321.5t193 270t284 183.5t337.5 69q144 0 278 -65.5t215 -170.5l-207 -154q-48 70 -133.5 113t-179.5 43q-119 0 -230.5 -50
t-193.5 -132t-131 -194t-49 -230q0 -161 113.5 -272t267.5 -111q91 0 199.5 47.5t187.5 122.5l155 -182q-115 -97 -274.5 -159.5t-296.5 -62.5z" />
    <glyph glyph-name="ccaron" unicode="&#x10d;" horiz-adv-x="1124" 
d="M645 1178l-149 295h155l121 -160l193 160h170l-277 -295h-213zM543 -25q-129 0 -237 62.5t-170 169t-62 231.5q0 129 57 249t150 206t217.5 138t255.5 52q112 0 211 -49.5t163 -130.5l-188 -133q-30 45 -90 72.5t-121 27.5q-107 0 -202 -59.5t-151.5 -157.5t-56.5 -207
q0 -106 73 -182t175 -76q146 0 271 119l147 -162q-194 -170 -442 -170z" />
    <glyph glyph-name="Dcaron" unicode="&#x10e;" horiz-adv-x="1560" 
d="M754 1526l-150 295h156l121 -160l192 160h170l-276 -295h-213zM53 0l293 1407h488q194 0 346 -72.5t236.5 -202.5t84.5 -296q0 -167 -76 -321.5t-202.5 -267t-301 -180t-362.5 -67.5h-506zM358 231h256q126 0 242.5 48t201 128t135 189.5t50.5 228.5q0 154 -116.5 252.5
t-297.5 98.5h-274z" />
    <glyph glyph-name="dcaron" unicode="&#x10f;" horiz-adv-x="1337" 
d="M1016 868l117 564h249l-297 -1432h-249l32 158q-165 -183 -389 -183q-171 0 -286 122.5t-115 303.5q0 134 48 259t129 218t194.5 149t238.5 56q107 0 194 -58.5t134 -156.5zM1632 1432q54 0 85.5 -39.5t31.5 -102.5q0 -88 -53.5 -164.5t-157.5 -167.5l-76 72
q86 72 140 158q-49 -3 -76 27.5t-27 78.5q0 54 40.5 96t92.5 42zM553 188q108 0 201.5 62t147.5 165.5t54 219.5q0 98 -70 166.5t-171 68.5q-104 0 -194 -61t-143.5 -163.5t-53.5 -219.5q0 -100 65.5 -169t163.5 -69z" />
    <glyph glyph-name="Dcroat" unicode="&#x110;" horiz-adv-x="1628" 
d="M901 1407q194 0 346.5 -72.5t237 -202.5t84.5 -296q0 -167 -76 -321.5t-202.5 -267t-301 -180t-362.5 -67.5h-506l125 596h-148l49 233h146l121 578h487zM682 231q126 0 242.5 48t201 128t135 189.5t50.5 228.5q0 154 -116.5 252.5t-297.5 98.5h-274l-72 -347h352
l-51 -233h-350l-76 -365h256z" />
    <glyph glyph-name="dcroat" unicode="&#x111;" horiz-adv-x="1386" 
d="M1483 1317l-29 -135h-123l-246 -1182h-249l32 158q-165 -183 -389 -183q-171 0 -286 122.5t-115 303.5q0 134 48 259t129 218t194.5 149t238.5 56q107 0 194 -58.5t134 -156.5l65 314h-327l28 135h326l25 115h249l-24 -115h125zM553 188q108 0 201.5 62t147.5 165.5
t54 219.5q0 98 -70 166.5t-171 68.5q-104 0 -194 -61t-143.5 -163.5t-53.5 -219.5q0 -100 65.5 -169t163.5 -69z" />
    <glyph glyph-name="Emacron" unicode="&#x112;" horiz-adv-x="1304" 
d="M1260 1702l-31 -154h-684l30 154h685zM1339 1174h-804l-66 -340h723l-47 -234h-729l-72 -367h799l-49 -233h-1059l293 1407h1058z" />
    <glyph glyph-name="emacron" unicode="&#x113;" horiz-adv-x="1157" 
d="M1124 1354l-30 -154h-684l30 154h684zM723 1083q170 0 281.5 -80.5t111.5 -209.5q0 -165 -136 -258.5t-376 -90.5h-295v-20q0 -110 59.5 -168.5t170.5 -58.5q82 0 166 31t145 83l135 -178q-83 -74 -208.5 -116t-250.5 -42q-203 0 -327.5 123t-124.5 322q0 176 89.5 329.5
t239.5 243.5t320 90zM641 635q109 0 169 31t60 88q0 49 -44.5 78.5t-114.5 29.5q-118 0 -211 -61.5t-144 -165.5h285z" />
    <glyph glyph-name="Edotaccent" unicode="&#x116;" horiz-adv-x="1304" 
d="M907 1552q-54 0 -86.5 34t-32.5 85q0 55 41 96t97 41q50 0 83 -35t33 -83q0 -56 -41.5 -97t-93.5 -41zM1339 1174h-804l-66 -340h723l-47 -234h-729l-72 -367h799l-49 -233h-1059l293 1407h1058z" />
    <glyph glyph-name="edotaccent" unicode="&#x117;" horiz-adv-x="1157" 
d="M772 1204q-54 0 -86.5 34t-32.5 85q0 55 41 96t97 41q50 0 83 -35.5t33 -83.5q0 -56 -41.5 -96.5t-93.5 -40.5zM604 444h-295v-20q0 -110 59.5 -168.5t170.5 -58.5q82 0 166 31t145 83l135 -178q-83 -74 -208.5 -116t-250.5 -42q-203 0 -327.5 123t-124.5 322
q0 176 89.5 329.5t239.5 243.5t320 90t281.5 -80.5t111.5 -209.5q0 -165 -136 -258.5t-376 -90.5zM711 862q-118 0 -211 -61.5t-144 -165.5h285q109 0 169 31t60 88q0 49 -44.5 78.5t-114.5 29.5z" />
    <glyph glyph-name="Eogonek" unicode="&#x118;" horiz-adv-x="1304" 
d="M1339 1174h-804l-66 -340h723l-47 -234h-729l-72 -367h799l-49 -233h-424q-60 0 -100 -37.5t-40 -93.5q0 -29 19 -46.5t51 -17.5q63 0 102 39l43 -141q-80 -57 -180 -57q-91 0 -144.5 49.5t-53.5 136.5q0 99 63 168h-395l293 1407h1058z" />
    <glyph glyph-name="eogonek" unicode="&#x119;" horiz-adv-x="1157" 
d="M604 444h-295v-20q0 -110 59.5 -168.5t170.5 -58.5q82 0 166 31t145 83l135 -178q-82 -72 -203.5 -114t-244.5 -44q-60 0 -100 -37.5t-40 -93.5q0 -29 19 -46t51 -17q63 0 102 39l43 -142q-80 -57 -180 -57q-92 0 -145.5 49.5t-53.5 136.5q0 125 101 203
q-122 48 -191 155.5t-69 254.5q0 176 89.5 329.5t239.5 243.5t320 90t281.5 -80.5t111.5 -209.5q0 -165 -136 -258.5t-376 -90.5zM711 862q-118 0 -211 -61.5t-144 -165.5h285q109 0 169 31t60 88q0 49 -44.5 78.5t-114.5 29.5z" />
    <glyph glyph-name="Ecaron" unicode="&#x11a;" horiz-adv-x="1304" 
d="M991 1526h-213l-149 295h155l121 -160l193 160h170zM1339 1174h-804l-66 -340h723l-47 -234h-729l-72 -367h799l-49 -233h-1059l293 1407h1058z" />
    <glyph glyph-name="ecaron" unicode="&#x11b;" horiz-adv-x="1157" 
d="M856 1178h-213l-149 295h155l121 -160l193 160h170zM723 1083q170 0 281.5 -80.5t111.5 -209.5q0 -165 -136 -258.5t-376 -90.5h-295v-20q0 -110 59.5 -168.5t170.5 -58.5q82 0 166 31t145 83l135 -178q-83 -74 -208.5 -116t-250.5 -42q-203 0 -327.5 123t-124.5 322
q0 176 89.5 329.5t239.5 243.5t320 90zM641 635q109 0 169 31t60 88q0 49 -44.5 78.5t-114.5 29.5q-118 0 -211 -61.5t-144 -165.5h285z" />
    <glyph glyph-name="Gbreve" unicode="&#x11e;" horiz-adv-x="1517" 
d="M1042 1542q-184 0 -294 135l137 113q32 -39 80 -61.5t98 -22.5q115 0 223 90l100 -123q-158 -131 -344 -131zM795 559l43 207h602l-119 -569q-121 -102 -280.5 -162t-305.5 -60q-127 0 -241.5 48t-196.5 129.5t-130 194t-48 235.5q0 169 75 326.5t198 272t288 183
t338 68.5q148 0 285 -64.5t219 -171.5l-207 -154q-49 71 -138.5 113.5t-187.5 42.5q-96 0 -188.5 -32.5t-168 -90.5t-133.5 -134t-90 -168t-32 -187q0 -156 112 -266.5t273 -110.5q80 0 169 31.5t167 85.5l47 233h-350z" />
    <glyph glyph-name="gbreve" unicode="&#x11f;" horiz-adv-x="1300" 
d="M793 1194q-185 0 -295 135l137 113q32 -39 80 -61.5t98 -22.5q115 0 223 90l101 -123q-158 -131 -344 -131zM1016 1059h252l-201 -957q-42 -207 -218.5 -330.5t-412.5 -123.5q-136 0 -250 41t-184 106l117 168q43 -49 122.5 -75.5t172.5 -26.5q158 0 271 74.5t138 195.5
l23 113q-78 -80 -177 -123t-206 -43q-179 0 -286 110.5t-107 294.5q0 114 44.5 223t120 192t182 134t222.5 51q123 0 212.5 -53.5t129.5 -140.5zM549 291q125 0 227 79.5t137 194.5l13 60q2 12 2 34q0 98 -59.5 154.5t-161.5 56.5q-152 0 -265.5 -110.5t-113.5 -255.5
q0 -99 59.5 -156t161.5 -57z" />
    <glyph glyph-name="Gcommaaccent" unicode="&#x122;" horiz-adv-x="1517" 
d="M795 559l43 207h602l-119 -569q-121 -102 -280.5 -162t-305.5 -60q-127 0 -241.5 48t-196.5 129.5t-130 194t-48 235.5q0 169 75 326.5t198 272t288 183t338 68.5q148 0 285 -64.5t219 -171.5l-207 -154q-49 71 -138.5 113.5t-187.5 42.5q-96 0 -188.5 -32.5t-168 -90.5
t-133.5 -134t-90 -168t-32 -187q0 -156 112 -266.5t273 -110.5q80 0 169 31.5t167 85.5l47 233h-350zM688 -119q54 0 85.5 -39t31.5 -102q0 -88 -53.5 -164.5t-157.5 -167.5l-76 72q84 70 139 158q-49 -3 -75.5 27.5t-26.5 78.5q0 54 40.5 95.5t92.5 41.5z" />
    <glyph glyph-name="gcommaaccent" unicode="&#x123;" horiz-adv-x="1228" 
d="M823 1204q-54 0 -85 39.5t-31 102.5q0 88 53 163.5t158 167.5l75 -71q-84 -70 -139 -158q49 3 75.5 -28t26.5 -79q0 -54 -40.5 -95.5t-92.5 -41.5zM1016 1059h252l-201 -957q-42 -207 -218.5 -330.5t-412.5 -123.5q-136 0 -250 41t-184 106l117 168q43 -49 122.5 -75.5
t172.5 -26.5q158 0 271 74.5t138 195.5l23 113q-78 -80 -177 -123t-206 -43q-179 0 -286 110.5t-107 294.5q0 114 44.5 223t120 192t182 134t222.5 51q123 0 212.5 -53.5t129.5 -140.5zM549 291q125 0 227 79.5t137 194.5l13 60q2 12 2 34q0 98 -59.5 154.5t-161.5 56.5
q-152 0 -265.5 -110.5t-113.5 -255.5q0 -99 59.5 -156t161.5 -57z" />
    <glyph glyph-name="Imacron" unicode="&#x12a;" horiz-adv-x="552" 
d="M145 1548l31 154h684l-31 -154h-684zM39 0l293 1407h254l-293 -1407h-254z" />
    <glyph glyph-name="imacron" unicode="&#x12b;" horiz-adv-x="526" 
d="M61 1200l31 154h684l-31 -154h-684zM27 0l221 1059h250l-222 -1059h-249z" />
    <glyph glyph-name="Iogonek" unicode="&#x12e;" horiz-adv-x="552" 
d="M233 -195q64 0 103 39l43 -141q-80 -57 -180 -57q-92 0 -145.5 49.5t-53.5 136.5q0 99 63 168h-24l293 1407h254l-293 -1403l10 -4q-60 0 -99.5 -37.5t-39.5 -93.5q0 -29 18.5 -46.5t50.5 -17.5z" />
    <glyph glyph-name="iogonek" unicode="&#x12f;" horiz-adv-x="526" 
d="M442 1460q50 0 83.5 -35.5t33.5 -83.5q0 -56 -41.5 -96.5t-93.5 -40.5q-54 0 -86.5 34t-32.5 85q0 55 40.5 96t96.5 41zM37 47l211 1012h250l-222 -1059h-112q-60 0 -99.5 -37.5t-39.5 -93.5q0 -29 18.5 -46.5t50.5 -17.5q64 0 103 39l43 -141q-80 -57 -181 -57
q-91 0 -144.5 49.5t-53.5 136.5q0 74 38 134t103 93z" />
    <glyph glyph-name="Idotaccent" unicode="&#x130;" horiz-adv-x="552" 
d="M508 1552q-54 0 -86.5 34t-32.5 85q0 55 40.5 96t96.5 41q50 0 83.5 -35t33.5 -83q0 -56 -41.5 -97t-93.5 -41zM39 0l293 1407h254l-293 -1407h-254z" />
    <glyph glyph-name="dotlessi" unicode="&#x131;" horiz-adv-x="526" 
d="M27 0l221 1059h250l-222 -1059h-249z" />
    <glyph glyph-name="Kcommaaccent" unicode="&#x136;" horiz-adv-x="1396" 
d="M51 0l293 1407h256l-141 -666l743 666h332l-698 -625l434 -782h-301l-338 606l-238 -205l-86 -401h-256zM489 -592l-75 72q84 70 139 158q-49 -3 -75.5 27.5t-26.5 78.5q0 54 40.5 95.5t92.5 41.5q54 0 85 -39t31 -102q0 -88 -53.5 -164.5t-157.5 -167.5z" />
    <glyph glyph-name="kcommaaccent" unicode="&#x137;" horiz-adv-x="1150" 
d="M1251 1059l-536 -473l297 -586h-285l-209 422l-190 -162l-54 -260h-249l297 1432h249l-182 -875l561 502h301zM457 -119q54 0 85 -39t31 -102q0 -88 -53.5 -164.5t-157.5 -167.5l-75 72q84 70 139 158q-49 -3 -75.5 27.5t-26.5 78.5q0 54 40.5 95.5t92.5 41.5z" />
    <glyph glyph-name="Lacute" unicode="&#x139;" horiz-adv-x="1171" 
d="M913 1792l-354 -266h-180l305 311zM330 233h719l-50 -233h-976l292 1407h254z" />
    <glyph glyph-name="lacute" unicode="&#x13a;" horiz-adv-x="526" 
d="M369 1550l305 312l229 -45l-354 -267h-180zM29 0l297 1432h249l-296 -1432h-250z" />
    <glyph glyph-name="Lcaron" unicode="&#x13d;" horiz-adv-x="1171" 
d="M653 1030q86 72 140 158q-49 -3 -76 27.5t-27 78.5q0 54 40.5 96t92.5 42q54 0 85.5 -39.5t31.5 -102.5q0 -88 -53.5 -164.5t-157.5 -167.5zM330 233h719l-50 -233h-976l292 1407h254z" />
    <glyph glyph-name="lcaron" unicode="&#x13e;" horiz-adv-x="526" 
d="M29 0l297 1432h249l-296 -1432h-250zM731 958l-76 72q86 72 140 158q-49 -3 -76 27.5t-27 78.5q0 54 40.5 96t92.5 42q54 0 85.5 -39.5t31.5 -102.5q0 -88 -53.5 -164.5t-157.5 -167.5z" />
    <glyph glyph-name="Lslash" unicode="&#x141;" horiz-adv-x="1255" 
d="M416 233h719l-50 -233h-976l106 512l-170 -78l43 228l174 79l139 666h254l-110 -537l280 129l-43 -229l-284 -129z" />
    <glyph glyph-name="lslash" unicode="&#x142;" horiz-adv-x="696" 
d="M721 950l-45 -229l-172 -78l-133 -643h-250l106 518l-182 -84l43 228l188 86l142 684h250l-117 -560z" />
    <glyph glyph-name="Nacute" unicode="&#x143;" horiz-adv-x="1581" 
d="M780 1526l305 311l230 -45l-354 -266h-181zM53 0l293 1407h252l539 -989l209 989h253l-292 -1407h-250l-539 989l-209 -989h-256z" />
    <glyph glyph-name="nacute" unicode="&#x144;" 
d="M1087 1444l-354 -266h-180l305 311zM811 1083q152 0 243 -89t91 -232q0 -15 -1 -30t-3.5 -32t-8 -47.5t-12 -62.5t-19.5 -92.5t-26 -121.5t-35.5 -165.5t-44.5 -210.5h-241q35 167 80 386q41 195 50 242.5t9 73.5q0 78 -44 123t-120 45q-106 0 -198 -64.5t-119 -154.5
l-136 -651h-249l221 1059h250l-27 -127q62 70 152.5 110.5t187.5 40.5z" />
    <glyph glyph-name="Ncommaaccent" unicode="&#x145;" horiz-adv-x="1581" 
d="M53 0l293 1407h252l539 -989l209 989h253l-292 -1407h-250l-539 989l-209 -989h-256zM547 -592l-76 72q84 70 139 158q-49 -3 -75.5 27.5t-26.5 78.5q0 54 40.5 95.5t92.5 41.5q54 0 85.5 -39t31.5 -102q0 -88 -53.5 -164.5t-157.5 -167.5z" />
    <glyph glyph-name="ncommaaccent" unicode="&#x146;" 
d="M811 1083q152 0 243 -89t91 -232q0 -15 -1 -30t-3.5 -32t-8 -47.5t-12 -62.5t-19.5 -92.5t-26 -121.5t-35.5 -165.5t-44.5 -210.5h-241q35 167 80 386q41 195 50 242.5t9 73.5q0 78 -44 123t-120 45q-106 0 -198 -64.5t-119 -154.5l-136 -651h-249l221 1059h250l-27 -127
q62 70 152.5 110.5t187.5 40.5zM481 -119q54 0 85.5 -39t31.5 -102q0 -88 -53.5 -164.5t-157.5 -167.5l-76 72q86 72 140 158q-49 -3 -76 27.5t-27 78.5q0 54 40.5 95.5t92.5 41.5z" />
    <glyph glyph-name="Ncaron" unicode="&#x147;" horiz-adv-x="1581" 
d="M891 1526l-150 295h156l121 -160l192 160h170l-276 -295h-213zM53 0l293 1407h252l539 -989l209 989h253l-292 -1407h-250l-539 989l-209 -989h-256z" />
    <glyph glyph-name="ncaron" unicode="&#x148;" 
d="M877 1178h-213l-150 295h156l121 -160l192 160h170zM811 1083q152 0 243 -89t91 -232q0 -15 -1 -30t-3.5 -32t-8 -47.5t-12 -62.5t-19.5 -92.5t-26 -121.5t-35.5 -165.5t-44.5 -210.5h-241q35 167 80 386q41 195 50 242.5t9 73.5q0 78 -44 123t-120 45q-106 0 -198 -64.5
t-119 -154.5l-136 -651h-249l221 1059h250l-27 -127q62 70 152.5 110.5t187.5 40.5z" />
    <glyph glyph-name="Omacron" unicode="&#x14c;" horiz-adv-x="1658" 
d="M688 1548l31 154h684l-31 -154h-684zM727 -25q-168 0 -308.5 81t-221 219.5t-80.5 302.5q0 170 74 328.5t196 273t285.5 183.5t335.5 69q175 0 314.5 -79.5t216.5 -216.5t77 -305q0 -170 -74 -328.5t-195.5 -273.5t-285 -184.5t-334.5 -69.5zM754 209q119 0 231.5 52.5
t194 137.5t131 196.5t49.5 225.5q0 161 -106.5 269t-272.5 108q-158 0 -298.5 -85.5t-224 -226t-83.5 -296.5q0 -158 111 -269.5t268 -111.5z" />
    <glyph glyph-name="omacron" unicode="&#x14d;" horiz-adv-x="1298" 
d="M434 1200l31 154h684l-31 -154h-684zM543 -25q-129 0 -237 62.5t-170 169t-62 231.5q0 129 57 249t150 206t217 138t254 52q197 0 335 -135t138 -325q0 -129 -57 -249.5t-150.5 -207t-218.5 -139t-256 -52.5zM567 188q107 0 203.5 59.5t154.5 158t58 206.5
q0 106 -74.5 182t-179.5 76q-107 0 -203 -59.5t-153.5 -157.5t-57.5 -207q0 -106 74 -182t178 -76z" />
    <glyph glyph-name="Ohungarumlaut" unicode="&#x150;" horiz-adv-x="1658" 
d="M778 1526l305 311l230 -45l-355 -266h-180zM1235 1526l305 309l229 -45l-352 -264h-182zM727 -25q-168 0 -308.5 81t-221 219.5t-80.5 302.5q0 170 74 328.5t196 273t285.5 183.5t335.5 69q175 0 314.5 -79.5t216.5 -216.5t77 -305q0 -170 -74 -328.5t-195.5 -273.5
t-285 -184.5t-334.5 -69.5zM754 209q119 0 231.5 52.5t194 137.5t131 196.5t49.5 225.5q0 161 -106.5 269t-272.5 108q-158 0 -298.5 -85.5t-224 -226t-83.5 -296.5q0 -158 111 -269.5t268 -111.5z" />
    <glyph glyph-name="ohungarumlaut" unicode="&#x151;" horiz-adv-x="1298" 
d="M457 1178l305 311l229 -45l-354 -266h-180zM913 1178l306 309l229 -45l-352 -264h-183zM543 -25q-129 0 -237 62.5t-170 169t-62 231.5q0 129 57 249t150 206t217 138t254 52q197 0 335 -135t138 -325q0 -129 -57 -249.5t-150.5 -207t-218.5 -139t-256 -52.5zM567 188
q107 0 203.5 59.5t154.5 158t58 206.5q0 106 -74.5 182t-179.5 76q-107 0 -203 -59.5t-153.5 -157.5t-57.5 -207q0 -106 74 -182t178 -76z" />
    <glyph glyph-name="OE" unicode="&#x152;" horiz-adv-x="2119" 
d="M2157 1174h-805l-66 -340h723l-47 -234h-729l-72 -367h799l-49 -233h-1182q-265 0 -439.5 161t-174.5 410q0 163 77 318t201 268t286.5 181.5t326.5 68.5h1198zM762 233h139l195 941h-123q-146 0 -286 -85.5t-227 -224t-87 -284.5q0 -155 109.5 -251t279.5 -96z" />
    <glyph glyph-name="oe" unicode="&#x153;" horiz-adv-x="2052" 
d="M1507 444h-295v-20q0 -110 59.5 -168.5t170.5 -58.5q82 0 166 31t145 83l135 -178q-83 -74 -208 -116t-250 -42q-133 0 -235.5 55.5t-158.5 153.5q-99 -97 -227.5 -153t-265.5 -56q-129 0 -237 62.5t-170 169t-62 231.5q0 129 57 249t150 206t217 138t254 52
q125 0 230.5 -59t170.5 -158q93 102 216 159.5t257 57.5q170 0 281.5 -80.5t111.5 -209.5q0 -165 -136 -258.5t-376 -90.5zM567 188q107 0 203.5 59.5t154.5 158t58 206.5q0 106 -74.5 182t-179.5 76q-107 0 -203 -59.5t-153.5 -157.5t-57.5 -207q0 -106 74 -182t178 -76z
M1614 862q-118 0 -210.5 -61.5t-143.5 -165.5h284q109 0 169.5 31t60.5 88q0 49 -45 78.5t-115 29.5z" />
    <glyph glyph-name="Racute" unicode="&#x154;" horiz-adv-x="1388" 
d="M1223 1792l-355 -266h-180l305 311zM1376 1014q0 -182 -123 -323t-317 -193l301 -498h-283l-288 473h-275l-100 -473h-256l293 1407h604q196 0 320 -110t124 -283zM535 1171l-97 -462h334q138 0 242 87t104 203q0 77 -66 124.5t-173 47.5h-344z" />
    <glyph glyph-name="racute" unicode="&#x155;" horiz-adv-x="858" 
d="M920 1444l-355 -266h-180l305 311zM463 864q71 103 180.5 161t237.5 58l-29 -213q-170 0 -298.5 -96.5t-160.5 -247.5v2l-110 -528h-250l221 1059h250z" />
    <glyph glyph-name="Rcommaaccent" unicode="&#x156;" horiz-adv-x="1388" 
d="M1376 1014q0 -182 -123 -323t-317 -193l301 -498h-283l-288 473h-275l-100 -473h-256l293 1407h604q196 0 320 -110t124 -283zM535 1171l-97 -462h334q138 0 242 87t104 203q0 77 -66 124.5t-173 47.5h-344zM532 -119q54 0 85.5 -39t31.5 -102q0 -88 -53.5 -164.5
t-157.5 -167.5l-76 72q86 72 140 158q-49 -3 -76 27.5t-27 78.5q0 54 40.5 95.5t92.5 41.5z" />
    <glyph glyph-name="rcommaaccent" unicode="&#x157;" horiz-adv-x="858" 
d="M463 864q71 103 180.5 161t237.5 58l-29 -213q-170 0 -298.5 -96.5t-160.5 -247.5v2l-110 -528h-250l221 1059h250zM242 -119q54 0 85 -39t31 -102q0 -88 -53.5 -164.5t-157.5 -167.5l-75 72q84 70 139 158q-49 -3 -75.5 27.5t-26.5 78.5q0 54 40.5 95.5t92.5 41.5z" />
    <glyph glyph-name="Rcaron" unicode="&#x158;" horiz-adv-x="1388" 
d="M1012 1526h-213l-150 295h156l121 -160l192 160h170zM1376 1014q0 -182 -123 -323t-317 -193l301 -498h-283l-288 473h-275l-100 -473h-256l293 1407h604q196 0 320 -110t124 -283zM535 1171l-97 -462h334q138 0 242 87t104 203q0 77 -66 124.5t-173 47.5h-344z" />
    <glyph glyph-name="rcaron" unicode="&#x159;" horiz-adv-x="858" 
d="M709 1178h-213l-150 295h156l121 -160l192 160h170zM463 864q71 103 180.5 161t237.5 58l-29 -213q-170 0 -298.5 -96.5t-160.5 -247.5v2l-110 -528h-250l221 1059h250z" />
    <glyph glyph-name="Sacute" unicode="&#x15a;" horiz-adv-x="1284" 
d="M606 1526l305 311l230 -45l-355 -266h-180zM561 -23q-163 0 -316.5 65t-246.5 171l174 166q75 -84 187.5 -133t220.5 -49q149 0 240 67t91 168q0 55 -59 90t-211 74q-89 22 -152.5 43t-119 49.5t-88.5 63t-51.5 81.5t-18.5 107q0 214 165 354t425 140q137 0 270 -55
t225 -150l-166 -174q-69 74 -168 116.5t-186 42.5q-136 0 -220.5 -66.5t-84.5 -164.5q0 -54 61 -89t213 -73q232 -56 330.5 -133.5t98.5 -218.5q0 -144 -80 -256.5t-219.5 -174t-313.5 -61.5z" />
    <glyph glyph-name="sacute" unicode="&#x15b;" horiz-adv-x="1024" 
d="M436 1178l305 311l230 -45l-355 -266h-180zM428 -25q-126 0 -243.5 44t-200.5 120l137 162q65 -56 149 -85.5t166 -29.5q95 0 159 39.5t64 98.5q0 32 -37 59t-137 57q-90 25 -144 45.5t-101.5 51.5t-68.5 73t-21 101q0 161 129.5 266.5t326.5 105.5q210 0 391 -133
l-131 -172q-122 92 -266 92q-89 0 -148 -35t-59 -90q0 -29 39.5 -54t142.5 -58q68 -21 112 -37t88.5 -40t69.5 -50.5t40.5 -65t15.5 -86.5q0 -161 -135.5 -270t-337.5 -109z" />
    <glyph glyph-name="Scedilla" unicode="&#x15e;" horiz-adv-x="1284" 
d="M745 821q232 -56 330.5 -133.5t98.5 -218.5q0 -207 -158 -341t-404 -148l-45 -70q57 -3 92 -37.5t35 -85.5q0 -85 -67 -135.5t-166 -50.5q-115 0 -189 63l58 96q44 -41 108 -41q58 0 92.5 21.5t34.5 58.5q0 21 -13 34t-34 13q-39 0 -76 -26l-41 47l72 115
q-143 17 -269.5 78.5t-205.5 152.5l174 166q75 -84 187.5 -133t220.5 -49q149 0 240 67t91 168q0 55 -59 90t-211 74q-89 22 -152.5 43t-119 49.5t-88.5 63t-51.5 81.5t-18.5 107q0 214 165 354t425 140q137 0 270 -55t225 -150l-166 -174q-69 74 -168 116.5t-186 42.5
q-136 0 -220.5 -66.5t-84.5 -164.5q0 -54 61 -89t213 -73z" />
    <glyph glyph-name="scedilla" unicode="&#x15f;" horiz-adv-x="1024" 
d="M575 633q68 -21 112 -37t88.5 -40t69.5 -50.5t40.5 -65t15.5 -86.5q0 -152 -119.5 -257.5t-304.5 -119.5l-43 -67q57 -3 92 -37.5t35 -85.5q0 -85 -67 -135.5t-166 -50.5q-115 0 -189 63l58 96q44 -41 108 -41q58 0 92.5 21.5t34.5 58.5q0 21 -13 34t-34 13
q-39 0 -76 -26l-41 47l72 115q-210 24 -356 157l137 162q65 -56 149 -85.5t166 -29.5q95 0 159 39.5t64 98.5q0 32 -37 59t-137 57q-90 25 -144 45.5t-101.5 51.5t-68.5 73t-21 101q0 161 129.5 266.5t326.5 105.5q210 0 391 -133l-131 -172q-122 92 -266 92q-89 0 -148 -35
t-59 -90q0 -29 39.5 -54t142.5 -58z" />
    <glyph glyph-name="Scaron" unicode="&#x160;" horiz-adv-x="1284" 
d="M717 1526l-150 295h156l121 -160l192 160h170l-276 -295h-213zM561 -23q-163 0 -316.5 65t-246.5 171l174 166q75 -84 187.5 -133t220.5 -49q149 0 240 67t91 168q0 55 -59 90t-211 74q-89 22 -152.5 43t-119 49.5t-88.5 63t-51.5 81.5t-18.5 107q0 214 165 354t425 140
q137 0 270 -55t225 -150l-166 -174q-69 74 -168 116.5t-186 42.5q-136 0 -220.5 -66.5t-84.5 -164.5q0 -54 61 -89t213 -73q232 -56 330.5 -133.5t98.5 -218.5q0 -144 -80 -256.5t-219.5 -174t-313.5 -61.5z" />
    <glyph glyph-name="scaron" unicode="&#x161;" horiz-adv-x="1024" 
d="M547 1178l-150 295h156l121 -160l192 160h170l-276 -295h-213zM428 -25q-126 0 -243.5 44t-200.5 120l137 162q65 -56 149 -85.5t166 -29.5q95 0 159 39.5t64 98.5q0 32 -37 59t-137 57q-90 25 -144 45.5t-101.5 51.5t-68.5 73t-21 101q0 161 129.5 266.5t326.5 105.5
q210 0 391 -133l-131 -172q-122 92 -266 92q-89 0 -148 -35t-59 -90q0 -29 39.5 -54t142.5 -58q68 -21 112 -37t88.5 -40t69.5 -50.5t40.5 -65t15.5 -86.5q0 -161 -135.5 -270t-337.5 -109z" />
    <glyph glyph-name="uni0162" unicode="&#x162;" horiz-adv-x="1302" 
d="M256 1407h1155l-47 -233h-451l-245 -1174h-56l-57 -90q57 -3 92 -37.5t35 -85.5q0 -85 -67 -135.5t-166 -50.5q-115 0 -189 63l57 96q44 -41 109 -41q58 0 92.5 21.5t34.5 58.5q0 21 -13 34t-34 13q-39 0 -76 -26l-41 47l82 133h-57l245 1174h-450z" />
    <glyph glyph-name="uni0163" unicode="&#x163;" horiz-adv-x="802" 
d="M762 852h-238q-118 -562 -118 -586q0 -38 18 -58t49 -20q35 0 69 14t54 31l49 -180q-59 -44 -133 -63l-51 -80q57 -3 92 -37.5t35 -85.5q0 -85 -67.5 -135.5t-166.5 -50.5q-114 0 -188 63l57 96q44 -41 109 -41q58 0 92.5 21.5t34.5 58.5q0 21 -13 34t-34 13
q-39 0 -76 -26l-41 47l70 113q-95 12 -151 78t-56 163q0 33 12.5 99.5t75.5 364.5q22 105 35 167h-154l43 207h154l61 291h244l-62 -291h240z" />
    <glyph glyph-name="Tcaron" unicode="&#x164;" horiz-adv-x="1302" 
d="M754 1526l-150 295h156l121 -160l192 160h170l-276 -295h-213zM414 0l245 1174h-450l47 233h1155l-47 -233h-451l-245 -1174h-254z" />
    <glyph glyph-name="tcaron" unicode="&#x165;" horiz-adv-x="802" 
d="M1137 1432q54 0 85 -39.5t31 -102.5q0 -88 -53.5 -164.5t-157.5 -167.5l-75 72q84 70 139 158q-49 -3 -75.5 27.5t-26.5 78.5q0 54 40.5 96t92.5 42zM629 1350l-62 -291h240l-45 -207h-238q-118 -562 -118 -586q0 -38 18 -58t49 -20q35 0 69 14t54 31l49 -180
q-108 -78 -235 -78q-114 0 -183 68.5t-69 177.5q0 33 12.5 99.5t75.5 364.5q22 105 35 167h-154l43 207h154l61 291h244z" />
    <glyph glyph-name="Umacron" unicode="&#x16a;" horiz-adv-x="1540" 
d="M639 1548l31 154h684l-31 -154h-684zM666 -25q-182 0 -309.5 81.5t-178 226.5t-12.5 327l166 797h254l-168 -809q-35 -174 41 -282.5t233 -108.5q165 0 295.5 116t167.5 295l162 789h256l-170 -817q-57 -273 -262.5 -444t-474.5 -171z" />
    <glyph glyph-name="umacron" unicode="&#x16b;" 
d="M1133 1354l-31 -154h-684l31 154h684zM965 1059h249l-221 -1059h-250l27 127q-62 -70 -152.5 -111t-187.5 -41q-152 0 -243 89.5t-91 232.5q0 15 1 30t3.5 32t8 47.5t12 62.5t19.5 92.5t26 121.5t35.5 165.5t44.5 210.5h241q-33 -161 -78 -375q-43 -203 -52 -252.5
t-9 -75.5q0 -78 44 -123t120 -45q106 0 198 65t119 155z" />
    <glyph glyph-name="Uring" unicode="&#x16e;" horiz-adv-x="1540" 
d="M981 1542q-81 0 -132.5 51.5t-51.5 130.5q0 107 86 189t192 82q81 0 131.5 -51t50.5 -127q0 -109 -85 -192t-191 -83zM1004 1657q53 0 96 41t43 94q0 38 -26 64t-66 26q-52 0 -95 -41t-43 -94q0 -39 25.5 -64.5t65.5 -25.5zM666 -25q-182 0 -309.5 81.5t-178 226.5
t-12.5 327l166 797h254l-168 -809q-35 -174 41 -282.5t233 -108.5q165 0 295.5 116t167.5 295l162 789h256l-170 -817q-57 -273 -262.5 -444t-474.5 -171z" />
    <glyph glyph-name="uring" unicode="&#x16f;" 
d="M760 1194q-81 0 -133 51.5t-52 130.5q0 107 86.5 189t192.5 82q80 0 131 -51.5t51 -127.5q0 -109 -85 -191.5t-191 -82.5zM829 1534q-52 0 -94.5 -41t-42.5 -94q0 -39 25.5 -64.5t64.5 -25.5q53 0 96.5 41t43.5 94q0 38 -26.5 64t-66.5 26zM965 1059h249l-221 -1059h-250
l27 127q-62 -70 -152.5 -111t-187.5 -41q-152 0 -243 89.5t-91 232.5q0 15 1 30t3.5 32t8 47.5t12 62.5t19.5 92.5t26 121.5t35.5 165.5t44.5 210.5h241q-33 -161 -78 -375q-43 -203 -52 -252.5t-9 -75.5q0 -78 44 -123t120 -45q106 0 198 65t119 155z" />
    <glyph glyph-name="Uhungarumlaut" unicode="&#x170;" horiz-adv-x="1540" 
d="M508 1526l305 311l229 -45l-354 -266h-180zM965 1526l305 309l229 -45l-352 -264h-182zM666 -25q-182 0 -309.5 81.5t-178 226.5t-12.5 327l166 797h254l-168 -809q-35 -174 41 -282.5t233 -108.5q165 0 295.5 116t167.5 295l162 789h256l-170 -817q-57 -273 -262.5 -444
t-474.5 -171z" />
    <glyph glyph-name="uhungarumlaut" unicode="&#x171;" 
d="M821 1444l-354 -266h-180l305 311zM926 1178h-183l306 309l229 -45zM829 408l136 651h249l-221 -1059h-250l27 127q-62 -70 -152.5 -111t-187.5 -41q-152 0 -243 89.5t-91 232.5q0 15 1 30t3.5 32t8 47.5t12 62.5t19.5 92.5t26 121.5t35.5 165.5t44.5 210.5h241
q-33 -161 -78 -375q-43 -203 -52 -252.5t-9 -75.5q0 -78 44 -123t120 -45q106 0 198 65t119 155z" />
    <glyph glyph-name="Uogonek" unicode="&#x172;" horiz-adv-x="1540" 
d="M1317 1407h256l-170 -817q-57 -273 -262.5 -444t-474.5 -171q-29 0 -43 2q-58 -41 -58 -108q0 -29 19 -46.5t51 -17.5q63 0 102 39l43 -141q-80 -57 -180 -57q-92 0 -145.5 49.5t-53.5 136.5q0 101 68 172q-183 61 -265.5 223t-37.5 383l166 797h254l-168 -809
q-35 -174 41 -282.5t233 -108.5q165 0 295.5 116t167.5 295z" />
    <glyph glyph-name="uogonek" unicode="&#x173;" 
d="M926 -195q63 0 102 39l43 -141q-80 -57 -180 -57q-92 0 -145.5 49.5t-53.5 136.5q0 98 64 168h-13l27 127q-62 -70 -152.5 -111t-187.5 -41q-152 0 -243 89.5t-91 232.5q0 15 1 30t3.5 32t8 47.5t12 62.5t19.5 92.5t26 121.5t35.5 165.5t44.5 210.5h241
q-33 -161 -78 -375q-43 -203 -52 -252.5t-9 -75.5q0 -78 44 -123t120 -45q106 0 198 65t119 155l136 651h249l-221 -1059h2q-60 0 -99.5 -37.5t-39.5 -93.5q0 -29 19 -46.5t51 -17.5z" />
    <glyph glyph-name="Wcircumflex" unicode="&#x174;" horiz-adv-x="2209" 
d="M987 1526l273 295h213l153 -295h-158l-120 162l-193 -162h-168zM387 0l-154 1407h277l90 -1008l545 1008h278l119 -1008l514 1008h285l-737 -1407h-256l-131 1044l-576 -1044h-254z" />
    <glyph glyph-name="wcircumflex" unicode="&#x175;" horiz-adv-x="1718" 
d="M670 1178l272 295h213l154 -295h-158l-121 161l-192 -161h-168zM297 0l-137 1059h243l70 -723l389 723h209l84 -723l373 723h254l-578 -1059h-227l-74 725l-379 -725h-227z" />
    <glyph glyph-name="Ycircumflex" unicode="&#x176;" horiz-adv-x="1404" 
d="M563 1526l273 295h213l153 -295h-158l-120 162l-193 -162h-168zM459 0l114 528l-374 879h245l285 -657l545 657h297l-737 -879l-115 -528h-260z" />
    <glyph glyph-name="ycircumflex" unicode="&#x177;" horiz-adv-x="1226" 
d="M422 1178l272 295h213l154 -295h-158l-121 161l-192 -161h-168zM176 -369q-120 0 -227 60l76 172q57 -35 122 -35q101 0 158 78l70 86l-223 1067h258l143 -791l457 791h264l-686 -1143q-172 -285 -412 -285z" />
    <glyph glyph-name="Ydieresis" unicode="&#x178;" horiz-adv-x="1404" 
d="M698 1552q-54 0 -86 34t-32 85q0 55 41 96t96 41q50 0 83.5 -35t33.5 -83q0 -56 -42 -97t-94 -41zM1118 1552q-53 0 -86 34t-33 85q0 55 42 96t96 41q51 0 83.5 -34.5t32.5 -83.5q0 -56 -41.5 -97t-93.5 -41zM459 0l114 528l-374 879h245l285 -657l545 657h297l-737 -879
l-115 -528h-260z" />
    <glyph glyph-name="Zacute" unicode="&#x179;" horiz-adv-x="1333" 
d="M668 1526l305 311l229 -45l-354 -266h-180zM0 0l35 195l979 979h-758l49 233h1110l-39 -195l-977 -979h781l-50 -233h-1130z" />
    <glyph glyph-name="zacute" unicode="&#x17a;" horiz-adv-x="1079" 
d="M475 1178l305 311l230 -45l-355 -266h-180zM-12 0l35 182l698 658h-547l45 219h879l-35 -182l-701 -658h566l-47 -219h-893z" />
    <glyph glyph-name="Zdotaccent" unicode="&#x17b;" horiz-adv-x="1333" 
d="M907 1552q-54 0 -86.5 34t-32.5 85q0 55 41 96t97 41q50 0 83 -35t33 -83q0 -56 -41.5 -97t-93.5 -41zM0 0l35 195l979 979h-758l49 233h1110l-39 -195l-977 -979h781l-50 -233h-1130z" />
    <glyph glyph-name="zdotaccent" unicode="&#x17c;" horiz-adv-x="1079" 
d="M715 1204q-54 0 -86.5 34t-32.5 85q0 55 41 96t96 41q50 0 83.5 -35.5t33.5 -83.5q0 -56 -41.5 -96.5t-93.5 -40.5zM-12 0l35 182l698 658h-547l45 219h879l-35 -182l-701 -658h566l-47 -219h-893z" />
    <glyph glyph-name="Zcaron" unicode="&#x17d;" horiz-adv-x="1333" 
d="M778 1526l-149 295h155l121 -160l193 160h170l-277 -295h-213zM0 0l35 195l979 979h-758l49 233h1110l-39 -195l-977 -979h781l-50 -233h-1130z" />
    <glyph glyph-name="zcaron" unicode="&#x17e;" horiz-adv-x="1079" 
d="M586 1178l-150 295h156l121 -160l192 160h170l-276 -295h-213zM-12 0l35 182l698 658h-547l45 219h879l-35 -182l-701 -658h566l-47 -219h-893z" />
    <glyph glyph-name="uni0237" unicode="&#x237;" horiz-adv-x="526" 
d="M-86 -365q-115 0 -199 43l54 183q49 -17 104 -17q53 0 96 39t54 94l225 1082h250l-234 -1120q-28 -137 -125 -220.5t-225 -83.5z" />
    <glyph glyph-name="circumflex" unicode="&#x2c6;" horiz-adv-x="897" 
d="M264 1178l273 295h213l153 -295h-158l-120 161l-193 -161h-168z" />
    <glyph glyph-name="caron" unicode="&#x2c7;" horiz-adv-x="897" 
d="M475 1178l-149 295h155l121 -160l193 160h170l-277 -295h-213z" />
    <glyph glyph-name="breve" unicode="&#x2d8;" horiz-adv-x="899" 
d="M592 1194q-185 0 -295 135l137 113q32 -39 80 -61.5t98 -22.5q116 0 224 90l100 -123q-158 -131 -344 -131z" />
    <glyph glyph-name="dotaccent" unicode="&#x2d9;" horiz-adv-x="512" 
d="M416 1204q-54 0 -86.5 34t-32.5 85q0 55 40.5 96t96.5 41q50 0 83.5 -35.5t33.5 -83.5q0 -56 -41.5 -96.5t-93.5 -40.5z" />
    <glyph glyph-name="ring" unicode="&#x2da;" horiz-adv-x="708" 
d="M494 1194q-81 0 -133 51.5t-52 130.5q0 107 86.5 189t192.5 82q80 0 131 -51.5t51 -127.5q0 -109 -85 -191.5t-191 -82.5zM516 1309q53 0 96 41t43 94q0 38 -26 64t-66 26q-52 0 -94.5 -41t-42.5 -94q0 -39 25.5 -64.5t64.5 -25.5z" />
    <glyph glyph-name="ogonek" unicode="&#x2db;" horiz-adv-x="669" 
d="M188 -354q-91 0 -144.5 49.5t-53.5 136.5q0 74 38 134t103 93l162 -59q-60 0 -99.5 -37.5t-39.5 -93.5q0 -29 18.5 -46.5t50.5 -17.5q64 0 103 39l43 -141q-80 -57 -181 -57z" />
    <glyph glyph-name="tilde" unicode="&#x2dc;" horiz-adv-x="827" 
d="M700 1174q-43 0 -82 18t-62.5 39t-50.5 39t-48 18q-86 0 -133 -127l-125 39q41 128 103 190t151 62q42 0 81 -18t63 -39.5t51 -39.5t48 -18q83 0 131 127l127 -39q-41 -128 -103 -189.5t-151 -61.5z" />
    <glyph glyph-name="hungarumlaut" unicode="&#x2dd;" horiz-adv-x="1196" 
d="M264 1178l305 311l230 -45l-355 -266h-180zM721 1178l305 309l229 -45l-352 -264h-182z" />
    <glyph glyph-name="uni0326" unicode="&#x326;" horiz-adv-x="0" 
d="M-535 -592l-75 72q84 70 139 158q-49 -3 -75.5 27.5t-26.5 78.5q0 54 40.5 95.5t92.5 41.5q54 0 85 -39t31 -102q0 -88 -53.5 -164.5t-157.5 -167.5z" />
    <glyph glyph-name="Wgrave" unicode="&#x1e80;" horiz-adv-x="2209" 
d="M1221 1526l-244 266l235 45l177 -311h-168zM387 0l-154 1407h277l90 -1008l545 1008h278l119 -1008l514 1008h285l-737 -1407h-256l-131 1044l-576 -1044h-254z" />
    <glyph glyph-name="wgrave" unicode="&#x1e81;" horiz-adv-x="1718" 
d="M895 1178l-244 266l236 45l176 -311h-168zM297 0l-137 1059h243l70 -723l389 723h209l84 -723l373 723h254l-578 -1059h-227l-74 725l-379 -725h-227z" />
    <glyph glyph-name="Wacute" unicode="&#x1e82;" horiz-adv-x="2209" 
d="M1227 1526l305 311l229 -45l-354 -266h-180zM387 0l-154 1407h277l90 -1008l545 1008h278l119 -1008l514 1008h285l-737 -1407h-256l-131 1044l-576 -1044h-254z" />
    <glyph glyph-name="wacute" unicode="&#x1e83;" horiz-adv-x="1718" 
d="M903 1178l305 311l230 -45l-355 -266h-180zM297 0l-137 1059h243l70 -723l389 723h209l84 -723l373 723h254l-578 -1059h-227l-74 725l-379 -725h-227z" />
    <glyph glyph-name="Wdieresis" unicode="&#x1e84;" horiz-adv-x="2209" 
d="M1122 1552q-54 0 -86 34t-32 85q0 55 41 96t96 41q50 0 83 -35t33 -83q0 -56 -41.5 -97t-93.5 -41zM1542 1552q-53 0 -86 34t-33 85q0 55 42 96t96 41q51 0 83.5 -34.5t32.5 -83.5q0 -56 -41.5 -97t-93.5 -41zM387 0l-154 1407h277l90 -1008l545 1008h278l119 -1008
l514 1008h285l-737 -1407h-256l-131 1044l-576 -1044h-254z" />
    <glyph glyph-name="wdieresis" unicode="&#x1e85;" horiz-adv-x="1718" 
d="M805 1204q-54 0 -86.5 34t-32.5 85q0 55 41 96t96 41q50 0 83.5 -35.5t33.5 -83.5q0 -56 -41.5 -96.5t-93.5 -40.5zM1225 1204q-53 0 -86 34t-33 85q0 55 41.5 96t95.5 41q51 0 84 -35t33 -84q0 -56 -41.5 -96.5t-93.5 -40.5zM297 0l-137 1059h243l70 -723l389 723h209
l84 -723l373 723h254l-578 -1059h-227l-74 725l-379 -725h-227z" />
    <glyph glyph-name="uni1EB8" unicode="&#x1eb8;" horiz-adv-x="1304" 
d="M1339 1174h-804l-66 -340h723l-47 -234h-729l-72 -367h799l-49 -233h-1059l293 1407h1058zM526 -115q50 0 83.5 -35t33.5 -83q0 -56 -41.5 -97t-93.5 -41q-54 0 -86.5 34t-32.5 85q0 56 40.5 96.5t96.5 40.5z" />
    <glyph glyph-name="uni1EB9" unicode="&#x1eb9;" horiz-adv-x="1228" 
d="M604 444h-295v-20q0 -110 59.5 -168.5t170.5 -58.5q82 0 166 31t145 83l135 -178q-83 -74 -208.5 -116t-250.5 -42q-203 0 -327.5 123t-124.5 322q0 176 89.5 329.5t239.5 243.5t320 90t281.5 -80.5t111.5 -209.5q0 -165 -136 -258.5t-376 -90.5zM711 862
q-118 0 -211 -61.5t-144 -165.5h285q109 0 169 31t60 88q0 49 -44.5 78.5t-114.5 29.5zM430 -152q50 0 83.5 -35t33.5 -83q0 -56 -41.5 -97t-93.5 -41q-54 0 -86.5 34t-32.5 85q0 55 40.5 96t96.5 41z" />
    <glyph glyph-name="uni1EBC" unicode="&#x1ebc;" horiz-adv-x="1304" 
d="M791 1636q-87 0 -134 -127l-125 39q41 128 103 190t151 62q42 0 81 -18t63 -39t51.5 -39t48.5 -18q83 0 131 126l127 -38q-41 -128 -103 -190t-151 -62q-43 0 -82 18t-62.5 39t-50.5 39t-48 18zM1339 1174h-804l-66 -340h723l-47 -234h-729l-72 -367h799l-49 -233h-1059
l293 1407h1058z" />
    <glyph glyph-name="uni1EBD" unicode="&#x1ebd;" horiz-adv-x="1157" 
d="M655 1288q-86 0 -133 -127l-125 39q41 128 103 190t151 62q42 0 81 -18t63 -39.5t51.5 -39.5t48.5 -18q83 0 131 127l127 -39q-41 -128 -103 -189.5t-151 -61.5q-43 0 -82 18t-63 39t-51 39t-48 18zM723 1083q170 0 281.5 -80.5t111.5 -209.5q0 -165 -136 -258.5
t-376 -90.5h-295v-20q0 -110 59.5 -168.5t170.5 -58.5q82 0 166 31t145 83l135 -178q-83 -74 -208.5 -116t-250.5 -42q-203 0 -327.5 123t-124.5 322q0 176 89.5 329.5t239.5 243.5t320 90zM641 635q109 0 169 31t60 88q0 49 -44.5 78.5t-114.5 29.5q-118 0 -211 -61.5
t-144 -165.5h285z" />
    <glyph glyph-name="Ygrave" unicode="&#x1ef2;" horiz-adv-x="1404" 
d="M889 1526l-244 266l236 45l176 -311h-168zM459 0l114 528l-374 879h245l285 -657l545 657h297l-737 -879l-115 -528h-260z" />
    <glyph glyph-name="ygrave" unicode="&#x1ef3;" horiz-adv-x="1226" 
d="M748 1178l-244 266l235 45l176 -311h-167zM176 -369q-120 0 -227 60l76 172q57 -35 122 -35q101 0 158 78l70 86l-223 1067h258l143 -791l457 791h264l-686 -1143q-172 -285 -412 -285z" />
    <glyph glyph-name="endash" unicode="&#x2013;" horiz-adv-x="1175" 
d="M86 455l43 215h975l-45 -215h-973z" />
    <glyph glyph-name="emdash" unicode="&#x2014;" horiz-adv-x="1800" 
d="M86 455l43 215h1600l-46 -215h-1597z" />
    <glyph glyph-name="quoteleft" unicode="&#x2018;" horiz-adv-x="579" 
d="M492 1411l94 -86q-104 -86 -170 -197q55 0 91 -37t36 -96q0 -73 -53.5 -125.5t-122.5 -52.5q-68 0 -107 47.5t-39 126.5q0 109 71.5 209t199.5 211z" />
    <glyph glyph-name="quoteright" unicode="&#x2019;" horiz-adv-x="579" 
d="M332 813l-94 86q104 86 170 197q-55 0 -91 37t-36 96q0 73 53.5 125.5t122.5 52.5q68 0 106.5 -47.5t38.5 -126.5q0 -109 -71 -209.5t-199 -210.5z" />
    <glyph glyph-name="quotedblleft" unicode="&#x201c;" horiz-adv-x="1071" 
d="M492 1403l94 -86q-104 -86 -170 -197q55 0 91 -37t36 -96q0 -73 -53.5 -125.5t-122.5 -52.5q-68 0 -107 47.5t-39 126.5q0 109 71.5 209t199.5 211zM981 1403l94 -86q-104 -86 -170 -197q55 0 91 -37t36 -96q0 -73 -53.5 -125.5t-122.5 -52.5q-68 0 -106.5 47.5
t-38.5 126.5q0 109 71 209.5t199 210.5z" />
    <glyph glyph-name="quotedblright" unicode="&#x201d;" horiz-adv-x="1071" 
d="M332 813l-94 86q104 86 170 197q-55 0 -91 37t-36 96q0 73 53.5 125.5t122.5 52.5q68 0 106.5 -47.5t38.5 -126.5q0 -109 -71 -209.5t-199 -210.5zM823 813l-94 86q104 86 170 197q-55 0 -91 37t-36 96q0 73 53.5 125.5t122.5 52.5q68 0 107 -47.5t39 -126.5
q0 -109 -71.5 -209t-199.5 -211z" />
    <glyph glyph-name="ellipsis" unicode="&#x2026;" horiz-adv-x="1552" 
d="M188 -25q-65 0 -105 41.5t-40 104.5q0 74 54 125t124 51q62 0 101.5 -40.5t39.5 -100.5q0 -72 -53 -126.5t-121 -54.5zM680 -25q-65 0 -105 41.5t-40 104.5q0 74 54 125t124 51q62 0 101.5 -40.5t39.5 -100.5q0 -72 -53 -126.5t-121 -54.5zM1171 -25q-65 0 -105 41.5
t-40 104.5q0 74 54 125t124 51q62 0 102 -41t40 -100q0 -72 -53.5 -126.5t-121.5 -54.5z" />
    <glyph glyph-name="perthousand" unicode="&#x2030;" horiz-adv-x="2476" 
d="M479 707q-135 0 -213 80t-78 206q0 172 119.5 299t286.5 127q136 0 213.5 -80.5t77.5 -208.5q0 -112 -54 -209.5t-148 -155.5t-204 -58zM150 0l1265 1407h195l-1264 -1407h-196zM477 860q95 0 164.5 85.5t69.5 187.5q0 62 -31 97.5t-86 35.5q-95 0 -164.5 -88t-69.5 -187
q0 -60 32 -95.5t85 -35.5zM1161 -20q-135 0 -214 80t-79 208q0 110 54 208t148.5 158t205.5 60q134 0 211.5 -82t77.5 -209q0 -110 -54 -207.5t-147.5 -156.5t-202.5 -59zM1950 -20q-133 0 -213 80t-80 208q0 82 32.5 160t86.5 136.5t130 94t158 35.5q135 0 213 -82t78 -209
q0 -110 -53.5 -207.5t-147.5 -156.5t-204 -59zM1159 133q97 0 166.5 88t69.5 187q0 61 -32.5 96t-86.5 35q-95 0 -164.5 -86t-69.5 -189q0 -61 31 -96t86 -35zM1950 133q64 0 119 43t84.5 106t29.5 126q0 61 -32 96t-85 35q-96 0 -164.5 -85.5t-68.5 -189.5q0 -61 31 -96
t86 -35z" />
    <glyph glyph-name="Euro" unicode="&#x20ac;" horiz-adv-x="1421" 
d="M758 209q91 0 199.5 47.5t187.5 122.5l155 -182q-115 -97 -274.5 -159.5t-296.5 -62.5q-224 0 -395 148.5t-205 368.5h-174l29 145h139q5 75 29 164h-134l31 145h162q112 216 329 351t468 135q144 0 278 -65.5t215 -170.5l-207 -154q-48 70 -133.5 113t-179.5 43
q-141 0 -268.5 -68.5t-214.5 -183.5h542l-30 -145h-592q-33 -85 -39 -164h596l-29 -145h-557q34 -124 137.5 -203.5t231.5 -79.5z" />
    <glyph glyph-name="minus" unicode="&#x2212;" horiz-adv-x="1228" 
d="M137 578l45 213h973l-45 -213h-973z" />
    <glyph glyph-name="a.alt" horiz-adv-x="1183" 
d="M696 1083q183 0 285 -92.5t102 -251.5q0 -16 -1 -30t-3 -30t-7.5 -45.5t-11.5 -59.5t-18.5 -89t-24.5 -117.5t-34 -161.5t-43 -206h-244q1 7 10 48.5t13 62.5q-68 -66 -160.5 -101t-183.5 -35q-153 0 -248.5 78.5t-95.5 206.5q0 89 41.5 166.5t110.5 129t157.5 81
t183.5 29.5q146 0 297 -62q19 93 19 115q0 74 -48 117t-153 43q-128 0 -311 -86l-68 182q236 108 436 108zM764 342l2 -6q15 70 27 123q-103 33 -236 33q-110 0 -197.5 -66t-87.5 -154q0 -54 44 -84t118 -30q102 0 198 51t132 133z" />
    <glyph glyph-name="aacute.alt" horiz-adv-x="1183" 
d="M1063 1444l-354 -266h-181l306 311zM696 1083q183 0 285 -92.5t102 -251.5q0 -16 -1 -30t-3 -30t-7.5 -45.5t-11.5 -59.5t-18.5 -89t-24.5 -117.5t-34 -161.5t-43 -206h-244q1 7 10 48.5t13 62.5q-68 -66 -160.5 -101t-183.5 -35q-153 0 -248.5 78.5t-95.5 206.5
q0 89 41.5 166.5t110.5 129t157.5 81t183.5 29.5q146 0 297 -62q19 93 19 115q0 74 -48 117t-153 43q-128 0 -311 -86l-68 182q236 108 436 108zM764 342l2 -6q15 70 27 123q-103 33 -236 33q-110 0 -197.5 -66t-87.5 -154q0 -54 44 -84t118 -30q102 0 198 51t132 133z" />
    <glyph glyph-name="abreve.alt" horiz-adv-x="1183" 
d="M754 1194q-185 0 -295 135l137 113q32 -39 80 -61.5t98 -22.5q115 0 223 90l101 -123q-158 -131 -344 -131zM696 1083q183 0 285 -92.5t102 -251.5q0 -16 -1 -30t-3 -30t-7.5 -45.5t-11.5 -59.5t-18.5 -89t-24.5 -117.5t-34 -161.5t-43 -206h-244q1 7 10 48.5t13 62.5
q-68 -66 -160.5 -101t-183.5 -35q-153 0 -248.5 78.5t-95.5 206.5q0 89 41.5 166.5t110.5 129t157.5 81t183.5 29.5q146 0 297 -62q19 93 19 115q0 74 -48 117t-153 43q-128 0 -311 -86l-68 182q236 108 436 108zM764 342l2 -6q15 70 27 123q-103 33 -236 33
q-110 0 -197.5 -66t-87.5 -154q0 -54 44 -84t118 -30q102 0 198 51t132 133z" />
    <glyph glyph-name="acircumflex.alt" horiz-adv-x="1183" 
d="M782 1339l-192 -161h-168l272 295h213l154 -295h-158zM696 1083q183 0 285 -92.5t102 -251.5q0 -16 -1 -30t-3 -30t-7.5 -45.5t-11.5 -59.5t-18.5 -89t-24.5 -117.5t-34 -161.5t-43 -206h-244q1 7 10 48.5t13 62.5q-68 -66 -160.5 -101t-183.5 -35q-153 0 -248.5 78.5
t-95.5 206.5q0 89 41.5 166.5t110.5 129t157.5 81t183.5 29.5q146 0 297 -62q19 93 19 115q0 74 -48 117t-153 43q-128 0 -311 -86l-68 182q236 108 436 108zM764 342l2 -6q15 70 27 123q-103 33 -236 33q-110 0 -197.5 -66t-87.5 -154q0 -54 44 -84t118 -30q102 0 198 51
t132 133z" />
    <glyph glyph-name="adieresis.alt" horiz-adv-x="1183" 
d="M557 1204q-54 0 -86.5 34t-32.5 85q0 55 41 96t96 41q50 0 83.5 -35.5t33.5 -83.5q0 -56 -41.5 -96.5t-93.5 -40.5zM977 1204q-53 0 -86 34t-33 85q0 55 41.5 96t95.5 41q51 0 84 -35t33 -84q0 -56 -41.5 -96.5t-93.5 -40.5zM696 1083q183 0 285 -92.5t102 -251.5
q0 -16 -1 -30t-3 -30t-7.5 -45.5t-11.5 -59.5t-18.5 -89t-24.5 -117.5t-34 -161.5t-43 -206h-244q1 7 10 48.5t13 62.5q-68 -66 -160.5 -101t-183.5 -35q-153 0 -248.5 78.5t-95.5 206.5q0 89 41.5 166.5t110.5 129t157.5 81t183.5 29.5q146 0 297 -62q19 93 19 115
q0 74 -48 117t-153 43q-128 0 -311 -86l-68 182q236 108 436 108zM764 342l2 -6q15 70 27 123q-103 33 -236 33q-110 0 -197.5 -66t-87.5 -154q0 -54 44 -84t118 -30q102 0 198 51t132 133z" />
    <glyph glyph-name="agrave.alt" horiz-adv-x="1183" 
d="M915 1178h-167l-244 266l235 45zM696 1083q183 0 285 -92.5t102 -251.5q0 -16 -1 -30t-3 -30t-7.5 -45.5t-11.5 -59.5t-18.5 -89t-24.5 -117.5t-34 -161.5t-43 -206h-244q1 7 10 48.5t13 62.5q-68 -66 -160.5 -101t-183.5 -35q-153 0 -248.5 78.5t-95.5 206.5
q0 89 41.5 166.5t110.5 129t157.5 81t183.5 29.5q146 0 297 -62q19 93 19 115q0 74 -48 117t-153 43q-128 0 -311 -86l-68 182q236 108 436 108zM764 342l2 -6q15 70 27 123q-103 33 -236 33q-110 0 -197.5 -66t-87.5 -154q0 -54 44 -84t118 -30q102 0 198 51t132 133z" />
    <glyph glyph-name="amacron.alt" horiz-adv-x="1183" 
d="M436 1354h684l-30 -154h-684zM696 1083q183 0 285 -92.5t102 -251.5q0 -16 -1 -30t-3 -30t-7.5 -45.5t-11.5 -59.5t-18.5 -89t-24.5 -117.5t-34 -161.5t-43 -206h-244q1 7 10 48.5t13 62.5q-68 -66 -160.5 -101t-183.5 -35q-153 0 -248.5 78.5t-95.5 206.5
q0 89 41.5 166.5t110.5 129t157.5 81t183.5 29.5q146 0 297 -62q19 93 19 115q0 74 -48 117t-153 43q-128 0 -311 -86l-68 182q236 108 436 108zM764 342l2 -6q15 70 27 123q-103 33 -236 33q-110 0 -197.5 -66t-87.5 -154q0 -54 44 -84t118 -30q102 0 198 51t132 133z" />
    <glyph glyph-name="aogonek.alt" horiz-adv-x="1183" 
d="M881 -195q63 0 102 39l43 -141q-80 -57 -180 -57q-92 0 -145.5 49.5t-53.5 136.5q0 98 64 168h-15q1 7 10 48.5t13 62.5q-68 -66 -160.5 -101t-183.5 -35q-153 0 -248.5 78.5t-95.5 206.5q0 89 41.5 166.5t110.5 129t157.5 81t183.5 29.5q146 0 297 -62q19 93 19 115
q0 74 -48 117t-153 43q-128 0 -311 -86l-68 182q236 108 436 108q183 0 285 -92.5t102 -251.5q0 -14 -0.5 -25t-3 -29t-5 -34t-9 -48.5t-13 -63.5t-18.5 -88.5t-24 -113.5t-31.5 -148.5t-38.5 -184.5l10 -4q-60 0 -99.5 -37.5t-39.5 -93.5q0 -29 19 -46.5t51 -17.5zM764 342
l2 -6q15 70 27 123q-103 33 -236 33q-110 0 -197.5 -66t-87.5 -154q0 -54 44 -84t118 -30q102 0 198 51t132 133z" />
    <glyph glyph-name="aring.alt" horiz-adv-x="1183" 
d="M748 1194q-81 0 -133 51.5t-52 130.5q0 107 86.5 189t192.5 82q80 0 131 -51.5t51 -127.5q0 -109 -85 -191.5t-191 -82.5zM817 1534q-52 0 -94.5 -41t-42.5 -94q0 -39 25.5 -64.5t64.5 -25.5q53 0 96 41t43 94q0 38 -26 64t-66 26zM696 1083q183 0 285 -92.5t102 -251.5
q0 -16 -1 -30t-3 -30t-7.5 -45.5t-11.5 -59.5t-18.5 -89t-24.5 -117.5t-34 -161.5t-43 -206h-244q1 7 10 48.5t13 62.5q-68 -66 -160.5 -101t-183.5 -35q-153 0 -248.5 78.5t-95.5 206.5q0 89 41.5 166.5t110.5 129t157.5 81t183.5 29.5q146 0 297 -62q19 93 19 115
q0 74 -48 117t-153 43q-128 0 -311 -86l-68 182q236 108 436 108zM764 342l2 -6q15 70 27 123q-103 33 -236 33q-110 0 -197.5 -66t-87.5 -154q0 -54 44 -84t118 -30q102 0 198 51t132 133z" />
    <glyph glyph-name="atilde.alt" horiz-adv-x="1183" 
d="M651 1288q-86 0 -133 -127l-125 39q41 128 103 190t151 62q42 0 81 -18t63 -39.5t51.5 -39.5t48.5 -18q83 0 131 127l127 -39q-41 -128 -103 -189.5t-151 -61.5q-43 0 -82 18t-63 39t-51 39t-48 18zM696 1083q183 0 285 -92.5t102 -251.5q0 -16 -1 -30t-3 -30t-7.5 -45.5
t-11.5 -59.5t-18.5 -89t-24.5 -117.5t-34 -161.5t-43 -206h-244q1 7 10 48.5t13 62.5q-68 -66 -160.5 -101t-183.5 -35q-153 0 -248.5 78.5t-95.5 206.5q0 89 41.5 166.5t110.5 129t157.5 81t183.5 29.5q146 0 297 -62q19 93 19 115q0 74 -48 117t-153 43q-128 0 -311 -86
l-68 182q236 108 436 108zM764 342l2 -6q15 70 27 123q-103 33 -236 33q-110 0 -197.5 -66t-87.5 -154q0 -54 44 -84t118 -30q102 0 198 51t132 133z" />
    <glyph glyph-name="ascender" horiz-adv-x="1341" 
d="M35 0l297 1432h250l-297 -1432h-250z" />
    <glyph glyph-name="descender" horiz-adv-x="1341" 
d="M-39 -352l293 1411h250l-293 -1411h-250z" />
    </font>
</defs>
</svg>
