<?xml version="1.0" standalone="no"?>
<!DOCTYPE svg PUBLIC "-//W3C//DTD SVG 1.1//EN" "http://www.w3.org/Graphics/SVG/1.1/DTD/svg11.dtd" >
<svg xmlns="http://www.w3.org/2000/svg" xmlns:xlink="http://www.w3.org/1999/xlink" version="1.1">
<metadata>
Created by FontForge 20170731 at Tue Jan 26 16:34:58 2021
 By Aleksey,,,
Copyright (c) 2016 by Chris Simpson.
</metadata>
<defs>
<font id="Metropolis-SemiBold" horiz-adv-x="1335" >
  <font-face 
    font-family="Metropolis Semi Bold"
    font-weight="600"
    font-stretch="normal"
    units-per-em="2048"
    panose-1="0 0 7 0 0 0 0 0 0 0"
    ascent="1628"
    descent="-420"
    x-height="1059"
    cap-height="1407"
    bbox="-414 -584 2380 1995"
    underline-thickness="40"
    underline-position="-312"
    unicode-range="U+0020-2212"
  />
<missing-glyph horiz-adv-x="1024" 
d="M840 1628v-2048h-650v2048h650zM682 1491h-338v-68h133v-75h-135v-68h340v68h-135v75h135v68zM547 1227h-205v-213h340v69h-135v144zM477 1157v-74h-67v74h67zM682 958h-340v-67h135v-76h-135v-67h205v143h135v67zM682 836h-68v-136h-272v-69h340v205zM682 586h-205v-115
h70v47h67v-96h-204v164h-68v-232h340v232zM682 231h-340v-231h340v231zM614 164v-96h-204v96h204zM682 -47h-340v-68h143l-143 -96v-68h340v68h-209l143 96h66v68z" />
    <glyph glyph-name=".notdef" horiz-adv-x="1024" 
d="M840 1628v-2048h-650v2048h650zM682 1491h-338v-68h133v-75h-135v-68h340v68h-135v75h135v68zM547 1227h-205v-213h340v69h-135v144zM477 1157v-74h-67v74h67zM682 958h-340v-67h135v-76h-135v-67h205v143h135v67zM682 836h-68v-136h-272v-69h340v205zM682 586h-205v-115
h70v47h67v-96h-204v164h-68v-232h340v232zM682 231h-340v-231h340v231zM614 164v-96h-204v96h204zM682 -47h-340v-68h143l-143 -96v-68h340v68h-209l143 96h66v68z" />
    <glyph glyph-name=".null" horiz-adv-x="0" 
 />
    <glyph glyph-name="nonmarkingreturn" horiz-adv-x="682" 
 />
    <glyph glyph-name="space" unicode=" " horiz-adv-x="579" 
 />
    <glyph glyph-name="exclam" unicode="!" horiz-adv-x="604" 
d="M221 461l-59 946h291l-60 -946h-172zM307 -25q-70 0 -117 48t-47 116q0 64 47.5 111t116.5 47q64 0 111 -47.5t47 -110.5q0 -67 -46.5 -115.5t-111.5 -48.5z" />
    <glyph glyph-name="quotedbl" unicode="&#x22;" horiz-adv-x="987" 
d="M213 829q-80 322 -80 441q0 56 40 96.5t95 40.5t95 -40.5t40 -96.5q0 -123 -79 -441h-111zM664 829q-80 322 -80 441q0 56 40 96.5t95 40.5t95 -40.5t40 -96.5q0 -119 -80 -441h-110z" />
    <glyph glyph-name="numbersign" unicode="#" horiz-adv-x="1382" 
d="M1266 879h-213l-90 -355h215l-48 -184h-212l-87 -340h-190l86 340h-260l-86 -340h-193l86 340h-204l45 184h204l91 355h-209l45 184h211l86 344h192l-86 -344h260l86 344h191l-86 -344h211zM772 524l90 355h-260l-90 -355h260z" />
    <glyph glyph-name="dollar" unicode="$" horiz-adv-x="1282" 
d="M1194 408q0 -180 -124 -296.5t-343 -131.5v-132h-186v138q-277 34 -478 219l148 182q149 -137 330 -176v399q-103 27 -174 57t-130.5 75.5t-88.5 111.5t-29 154q0 166 116.5 282.5t305.5 139.5v124h186v-127q237 -25 430 -190l-139 -188q-136 118 -291 153v-385
q113 -25 193 -56t145 -78t97 -115.5t32 -159.5zM377 1030q0 -60 39 -97t125 -67v340q-75 -19 -119.5 -67.5t-44.5 -108.5zM727 199q101 12 156 63t55 121q0 68 -48.5 107t-162.5 73v-364z" />
    <glyph glyph-name="percent" unicode="%" horiz-adv-x="1685" 
d="M426 707q-151 0 -246.5 102t-95.5 252q0 153 96 255.5t246 102.5q152 0 248 -102.5t96 -253.5q0 -154 -96.5 -255t-247.5 -101zM264 0l973 1407h188l-972 -1407h-189zM426 860q72 0 119 56t47 145q0 90 -47.5 147.5t-118.5 57.5q-73 0 -119.5 -57t-46.5 -148
q0 -87 47.5 -144t118.5 -57zM1257 -20q-149 0 -245.5 102t-96.5 254t97 255t248 103q152 0 247 -103t95 -253q0 -154 -97 -256t-248 -102zM1260 133q72 0 118.5 56.5t46.5 146.5q0 89 -48 146t-120 57t-117.5 -56.5t-45.5 -144.5q0 -90 47 -147.5t119 -57.5z" />
    <glyph glyph-name="ampersand" unicode="&#x26;" horiz-adv-x="1384" 
d="M1319 70l-213 -97l-160 166q-185 -164 -416 -164q-204 0 -333 109.5t-129 296.5q0 136 74 231.5t235 169.5q-58 82 -82.5 148.5t-24.5 144.5q0 146 111 247t274 101q162 0 268.5 -99.5t106.5 -246.5q0 -117 -77 -194t-248 -154q113 -132 249 -276q87 130 144 276l190 -90
q-100 -205 -194 -334q37 -40 116 -121.5t109 -113.5zM659 1237q-72 0 -118.5 -44.5t-46.5 -117.5q0 -95 96 -211q122 49 170.5 93.5t48.5 117.5q0 69 -43 115.5t-107 46.5zM555 174q126 0 254 109q-170 178 -317 350q-177 -95 -177 -240q0 -99 69.5 -159t170.5 -60z" />
    <glyph glyph-name="quotesingle" unicode="'" horiz-adv-x="536" 
d="M213 829q-80 322 -80 441q0 56 40 96.5t95 40.5t95 -40.5t40 -96.5q0 -123 -79 -441h-111z" />
    <glyph glyph-name="parenleft" unicode="(" horiz-adv-x="768" 
d="M559 -348q-214 164 -331 394t-117 497q0 269 116.5 497.5t331.5 393.5l129 -136q-166 -170 -244.5 -348.5t-78.5 -406.5q0 -226 79 -405t244 -349z" />
    <glyph glyph-name="parenright" unicode=")" horiz-adv-x="768" 
d="M207 -348l-129 137q167 170 246 348.5t79 405.5q0 228 -79 406.5t-246 348.5l129 136q216 -164 332 -393t116 -498q0 -268 -116.5 -497.5t-331.5 -393.5z" />
    <glyph glyph-name="asterisk" unicode="*" horiz-adv-x="821" 
d="M412 729q-29 0 -49.5 18.5t-20.5 43.5q0 45 18 131.5t21 109.5q-21 -16 -85 -73.5t-103 -79.5q-22 -14 -49 -6t-40 34q-15 25 -9 51.5t28 38.5q39 22 121.5 48.5t107.5 37.5q-22 9 -106 37t-123 51q-22 12 -28 38.5t9 52.5q13 24 40 32t49 -4q39 -23 105 -82.5t83 -72.5
q-3 23 -21 109.5t-18 131.5q0 25 20 43.5t48 18.5q29 0 49 -18.5t20 -43.5q0 -45 -19 -130t-22 -111q20 15 86 73t105 80q22 14 48.5 6t39.5 -34q15 -25 8 -52t-29 -39q-38 -22 -121.5 -49t-107.5 -37q21 -9 106 -37t123 -51q22 -12 28.5 -37.5t-7.5 -52.5
q-13 -24 -39.5 -32t-48.5 4q-39 23 -105.5 82.5t-83.5 72.5q3 -26 22 -111t19 -130q0 -25 -20 -43.5t-49 -18.5z" />
    <glyph glyph-name="plus" unicode="+" horiz-adv-x="1226" 
d="M1100 791v-213h-375v-379h-223v379h-375v213h375v380h223v-380h375z" />
    <glyph glyph-name="comma" unicode="," horiz-adv-x="579" 
d="M264 -291l-98 74q96 96 119 192q-64 0 -110 48t-46 114q0 65 47 112.5t113 47.5q77 0 124.5 -62.5t47.5 -160.5q0 -82 -46.5 -168t-150.5 -197z" />
    <glyph glyph-name="hyphen" unicode="-" horiz-adv-x="751" 
d="M100 453v219h551v-219h-551z" />
    <glyph glyph-name="period" unicode="." horiz-adv-x="567" 
d="M289 -25q-70 0 -117 48t-47 116q0 64 47.5 111t116.5 47q64 0 110.5 -47.5t46.5 -110.5q0 -67 -46 -115.5t-111 -48.5z" />
    <glyph glyph-name="slash" unicode="/" horiz-adv-x="913" 
d="M-43 -152l709 1674h268l-709 -1674h-268z" />
    <glyph glyph-name="zero" unicode="0" horiz-adv-x="1435" 
d="M719 -25q-179 0 -320 92.5t-220 259.5t-79 378q0 210 79 376t220 258.5t320 92.5q178 0 318 -92.5t218 -258.5t78 -376q0 -211 -78 -378t-218 -259.5t-318 -92.5zM719 209q155 0 254.5 139t99.5 357t-99 355.5t-255 137.5q-157 0 -257 -137.5t-100 -355.5t100 -357
t257 -139z" />
    <glyph glyph-name="one" unicode="1" horiz-adv-x="806" 
d="M383 0v1112l-242 -154l-104 181l395 268h205v-1407h-254z" />
    <glyph glyph-name="two" unicode="2" horiz-adv-x="1234" 
d="M92 0v209l518 414q131 105 186.5 190.5t55.5 173.5q0 96 -70.5 155.5t-169.5 59.5q-105 0 -190 -50t-166 -148l-166 153q210 275 531 275q211 0 351 -123t140 -316q0 -142 -75 -263.5t-253 -258.5l-295 -238h637v-233h-1034z" />
    <glyph glyph-name="three" unicode="3" horiz-adv-x="1226" 
d="M610 -25q-177 0 -317.5 64.5t-231.5 173.5l156 168q75 -85 174 -131.5t211 -46.5q125 0 198.5 57t73.5 150q0 94 -77 142t-226 48l-157 -2v221h157q126 -2 200.5 48t74.5 141q0 86 -73.5 140t-188.5 54q-184 0 -342 -174l-152 156q199 248 516 248q223 0 360.5 -107.5
t137.5 -275.5q0 -122 -73 -206.5t-193 -119.5q125 -29 211 -115t86 -219q0 -183 -144.5 -298.5t-380.5 -115.5z" />
    <glyph glyph-name="four" unicode="4" horiz-adv-x="1310" 
d="M780 0v305h-694l-25 199l668 903h305v-883h195v-219h-195v-305h-254zM334 524h446v604z" />
    <glyph glyph-name="five" unicode="5" horiz-adv-x="1251" 
d="M614 -25q-318 0 -526 218l152 182q183 -178 378 -178q126 0 203.5 71t77.5 176q0 107 -77.5 173.5t-203.5 66.5q-157 0 -286 -98l-174 73l20 748h901v-233h-661l-12 -363q126 86 284 86q127 0 231.5 -50.5t169 -152.5t64.5 -239q0 -217 -149 -348.5t-392 -131.5z" />
    <glyph glyph-name="six" unicode="6" horiz-adv-x="1302" 
d="M727 899q130 0 236.5 -51.5t171.5 -154t65 -238.5q0 -209 -148 -344.5t-376 -135.5q-146 0 -258 52.5t-181 148t-104 222.5t-35 282q0 215 78.5 386.5t221 268.5t323.5 97q234 0 420 -158l-125 -195q-71 63 -140 95t-157 32q-149 0 -247 -129.5t-110 -337.5
q65 75 161.5 117.5t203.5 42.5zM664 193q124 0 200 74.5t76 176.5q0 112 -81 179t-200 67q-101 0 -177 -52t-107 -142q51 -303 289 -303z" />
    <glyph glyph-name="seven" unicode="7" horiz-adv-x="1232" 
d="M250 0l573 1174h-719v233h1016v-193l-581 -1214h-289z" />
    <glyph glyph-name="eight" unicode="8" horiz-adv-x="1265" 
d="M633 -25q-153 0 -276.5 47t-197 139t-73.5 214q0 123 79 214.5t208 137.5q-116 49 -183 130.5t-67 195.5q0 88 42.5 161t113.5 120t162.5 72.5t191.5 25.5q138 0 253 -44t187 -132t72 -203q0 -117 -68 -198.5t-182 -127.5q130 -49 208.5 -140.5t78.5 -211.5
q0 -122 -74.5 -214.5t-198 -139t-276.5 -46.5zM633 819q100 5 180 60t80 141q0 83 -74.5 138.5t-185.5 55.5q-110 0 -184 -55.5t-74 -138.5q0 -87 80 -141.5t178 -59.5zM633 195q125 0 208 56.5t83 147.5q0 62 -46 111.5t-111.5 75t-133.5 28.5q-68 -3 -133 -28.5
t-111.5 -75t-46.5 -111.5q0 -91 82.5 -147.5t208.5 -56.5z" />
    <glyph glyph-name="nine" unicode="9" horiz-adv-x="1302" 
d="M627 1432q117 0 213 -34.5t163 -96.5t112.5 -150.5t67 -194.5t21.5 -229q0 -215 -78.5 -386.5t-220.5 -268.5t-323 -97q-234 0 -420 158l125 195q71 -63 140 -95t157 -32q148 0 246 129.5t110 337.5q-65 -75 -161.5 -117.5t-203.5 -42.5q-130 0 -236.5 51.5t-171.5 154
t-65 238.5q0 209 148.5 344.5t376.5 135.5zM643 717q101 0 177.5 52.5t107.5 141.5q-50 303 -289 303q-124 0 -200.5 -74.5t-76.5 -176.5q0 -112 81 -179t200 -67z" />
    <glyph glyph-name="colon" unicode=":" horiz-adv-x="567" 
d="M289 752q-70 0 -117 47.5t-47 115.5q0 64 47.5 111t116.5 47q64 0 110.5 -47.5t46.5 -110.5q0 -67 -46 -115t-111 -48zM289 -25q-70 0 -117 48t-47 116q0 64 47.5 111t116.5 47q64 0 110.5 -47.5t46.5 -110.5q0 -67 -46 -115.5t-111 -48.5z" />
    <glyph glyph-name="semicolon" unicode=";" horiz-adv-x="579" 
d="M293 752q-70 0 -117 47.5t-47 115.5q0 64 47.5 111t116.5 47q64 0 111 -47.5t47 -110.5q0 -67 -46.5 -115t-111.5 -48zM264 -291l-98 74q96 96 119 192q-64 0 -110 48t-46 114q0 65 47 112.5t113 47.5q77 0 124.5 -62.5t47.5 -160.5q0 -82 -46.5 -168t-150.5 -197z" />
    <glyph glyph-name="less" unicode="&#x3c;" horiz-adv-x="1208" 
d="M1061 172l-948 432v199l948 432v-209l-739 -321l739 -322v-211z" />
    <glyph glyph-name="equal" unicode="=" horiz-adv-x="1226" 
d="M127 813v213h973v-213h-973zM127 350v213h973v-213h-973z" />
    <glyph glyph-name="greater" unicode="&#x3e;" horiz-adv-x="1208" 
d="M147 172v211l740 322l-740 321v209l949 -432v-199z" />
    <glyph glyph-name="question" unicode="?" horiz-adv-x="1034" 
d="M356 453v354q155 9 254 67t99 140q0 77 -64.5 132.5t-165.5 55.5q-158 0 -291 -147l-149 151q198 226 475 226q200 0 325.5 -112t125.5 -282q0 -138 -105.5 -249t-271.5 -148v-188h-232zM473 -25q-70 0 -117 48t-47 116q0 64 47.5 111t116.5 47q64 0 111 -47.5t47 -110.5
q0 -67 -46.5 -115.5t-111.5 -48.5z" />
    <glyph glyph-name="at" unicode="@" horiz-adv-x="1802" 
d="M870 -238q-160 0 -304.5 61t-248.5 164t-165.5 245t-61.5 298q0 170 68.5 327.5t183.5 272.5t273.5 183.5t330.5 68.5q211 0 388.5 -98t278.5 -262.5t101 -355.5q0 -125 -35.5 -226t-94 -161.5t-128.5 -92.5t-143 -32q-98 0 -161 44.5t-87 123.5q-58 -77 -138 -121.5
t-173 -44.5q-153 0 -248.5 101t-95.5 265q0 103 39.5 198.5t104.5 163t150 108t173 40.5q97 0 165 -42t107 -109l25 123l210 -17q-16 -84 -36 -182t-30.5 -151.5t-21 -108t-14.5 -86t-4 -51.5q0 -57 32.5 -89t88.5 -32q92 0 162.5 97.5t70.5 281.5q0 130 -53.5 248t-145 204
t-220 136.5t-271.5 50.5q-156 0 -298.5 -62t-246 -166t-164.5 -247t-61 -298q0 -141 55 -269t149 -221.5t225 -148.5t276 -55q123 0 226 30t212 95l41 -59q-117 -73 -233.5 -107.5t-252.5 -34.5zM823 334q114 0 189.5 84t87.5 213q9 103 -38 163t-142 60
q-120 0 -204.5 -94.5t-84.5 -222.5q0 -92 53 -147.5t139 -55.5z" />
    <glyph glyph-name="A" unicode="A" horiz-adv-x="1540" 
d="M1217 0l-107 254h-680l-106 -254h-285l588 1407h284l588 -1407h-282zM522 475h496l-248 592z" />
    <glyph glyph-name="B" unicode="B" horiz-adv-x="1421" 
d="M164 0v1407h690q183 0 299.5 -99t116.5 -253q0 -204 -199 -312q123 -59 190.5 -152.5t67.5 -207.5q0 -169 -125.5 -276t-322.5 -107h-717zM418 831h375q94 0 154.5 50t60.5 127q0 78 -60.5 128t-154.5 50h-375v-355zM418 221h411q104 0 171 56.5t67 144.5t-67 144.5
t-171 56.5h-411v-402z" />
    <glyph glyph-name="C" unicode="C" horiz-adv-x="1413" 
d="M831 -25q-197 0 -367.5 99.5t-271 268t-100.5 362.5q0 145 59.5 279.5t159 232.5t236 156.5t284.5 58.5q152 0 289.5 -60.5t241.5 -167.5l-182 -170q-66 76 -157.5 120t-191.5 44q-128 0 -238.5 -67t-175.5 -180.5t-65 -245.5q0 -99 38.5 -191t103 -158.5t153 -106.5
t184.5 -40q101 0 192.5 43.5t158.5 120.5l180 -168q-103 -108 -241 -169t-290 -61z" />
    <glyph glyph-name="D" unicode="D" horiz-adv-x="1558" 
d="M164 0v1407h495q172 0 319.5 -52t251.5 -144t163 -223t59 -283q0 -204 -100.5 -364.5t-281.5 -250.5t-411 -90h-495zM420 231h266q222 0 364 133.5t142 340.5t-141.5 339t-364.5 132h-266v-945z" />
    <glyph glyph-name="E" unicode="E" horiz-adv-x="1304" 
d="M1204 1174h-803v-340h727v-234h-727v-367h803v-233h-1059v1407h1059v-233z" />
    <glyph glyph-name="F" unicode="F" horiz-adv-x="1282" 
d="M1204 1174h-803v-357h727v-233h-727v-584h-256v1407h1059v-233z" />
    <glyph glyph-name="G" unicode="G" horiz-adv-x="1521" 
d="M795 565v209h600v-569q-101 -105 -253 -167.5t-306 -62.5q-148 0 -285.5 59t-238 157.5t-160.5 233.5t-60 280t60 279.5t160.5 232.5t238 156.5t285.5 58.5q155 0 306.5 -61.5t252.5 -166.5l-183 -170q-65 75 -168.5 119.5t-207.5 44.5q-129 0 -240.5 -67t-177.5 -180.5
t-66 -245.5q0 -133 66 -247.5t177.5 -181.5t240.5 -67q80 0 161.5 26.5t147.5 73.5v256h-350z" />
    <glyph glyph-name="H" unicode="H" horiz-adv-x="1505" 
d="M1104 1407h256v-1407h-256v600h-703v-600h-256v1407h256v-573h703v573z" />
    <glyph glyph-name="I" unicode="I" horiz-adv-x="552" 
d="M150 0v1407h253v-1407h-253z" />
    <glyph glyph-name="J" unicode="J" horiz-adv-x="1112" 
d="M494 -25q-132 0 -261 65.5t-198 168.5l172 168q37 -74 111 -122t153 -48q104 0 171 75t67 193v932h254v-948q0 -212 -131.5 -348t-337.5 -136z" />
    <glyph glyph-name="K" unicode="K" horiz-adv-x="1404" 
d="M162 0v1407h256v-688l616 688h314l-564 -621l605 -786h-316l-465 606l-190 -205v-401h-256z" />
    <glyph glyph-name="L" unicode="L" horiz-adv-x="1171" 
d="M387 233h723v-233h-977v1407h254v-1174z" />
    <glyph glyph-name="M" unicode="M" horiz-adv-x="1767" 
d="M164 0v1407h256l463 -858l465 858h254v-1407h-254v940l-465 -858l-463 858v-940h-256z" />
    <glyph glyph-name="N" unicode="N" horiz-adv-x="1581" 
d="M164 0v1407h256l743 -989v989h254v-1407h-254l-743 989v-989h-256z" />
    <glyph glyph-name="O" unicode="O" horiz-adv-x="1658" 
d="M831 -25q-197 0 -367.5 99.5t-271 268t-100.5 362.5q0 145 59.5 279.5t159 232.5t236 156.5t284.5 58.5q147 0 283.5 -58.5t236 -156.5t159 -232.5t59.5 -279.5t-59.5 -280t-159 -233.5t-236 -157.5t-283.5 -59zM831 209q95 0 183 40t152 106.5t102.5 158.5t38.5 191
q0 132 -64.5 245.5t-174.5 180.5t-237 67q-128 0 -238.5 -67t-175.5 -180.5t-65 -245.5q0 -99 38.5 -191t103 -158.5t153 -106.5t184.5 -40z" />
    <glyph glyph-name="P" unicode="P" horiz-adv-x="1339" 
d="M145 0v1407h613q227 0 376.5 -131.5t149.5 -335.5t-149.5 -335.5t-376.5 -131.5h-357v-473h-256zM401 709h328q132 0 213.5 62.5t81.5 168.5t-81.5 168.5t-213.5 62.5h-328v-462z" />
    <glyph glyph-name="Q" unicode="Q" horiz-adv-x="1658" 
d="M1569 705q0 -234 -144 -424l142 -123l-135 -158l-152 131q-203 -156 -449 -156q-197 0 -367.5 99.5t-271 268t-100.5 362.5q0 145 59.5 279.5t159 232.5t236 156.5t284.5 58.5q147 0 283.5 -58.5t236 -156.5t159 -232.5t59.5 -279.5zM831 209q143 0 263 84l-183 160
l136 157l188 -164q72 122 72 259q0 132 -64.5 245.5t-174.5 180.5t-237 67q-128 0 -238.5 -67t-175.5 -180.5t-65 -245.5q0 -99 38.5 -191t103 -158.5t153 -106.5t184.5 -40z" />
    <glyph glyph-name="R" unicode="R" horiz-adv-x="1370" 
d="M1296 0h-290l-332 473h-273v-473h-256v1407h613q227 0 376.5 -131.5t149.5 -335.5q0 -157 -92.5 -274.5t-247.5 -165.5zM401 1171v-462h328q132 0 213.5 62.5t81.5 168.5t-81.5 168.5t-213.5 62.5h-328z" />
    <glyph glyph-name="S" unicode="S" horiz-adv-x="1282" 
d="M666 -23q-358 0 -603 228l148 182q209 -190 463 -190q125 0 194.5 53.5t69.5 132.5q0 83 -71.5 124.5t-254.5 84.5q-96 23 -164 44.5t-134 55.5t-106 75.5t-64.5 102.5t-24.5 138q0 185 142 305.5t364 120.5q302 0 532 -197l-139 -188q-191 165 -404 165q-103 0 -170 -54
t-67 -130q0 -81 73.5 -123.5t254.5 -83.5q94 -21 164 -44t134 -57t104 -76.5t63.5 -102.5t23.5 -135q0 -193 -140.5 -312t-387.5 -119z" />
    <glyph glyph-name="T" unicode="T" horiz-adv-x="1302" 
d="M524 0v1174h-450v233h1155v-233h-451v-1174h-254z" />
    <glyph glyph-name="U" unicode="U" horiz-adv-x="1540" 
d="M770 -25q-134 0 -249.5 46.5t-196.5 128t-127.5 198t-46.5 252.5v807h256v-799q0 -175 102.5 -288t261.5 -113q161 0 264 113t103 288v799h254v-807q0 -275 -173.5 -450t-447.5 -175z" />
    <glyph glyph-name="V" unicode="V" horiz-adv-x="1542" 
d="M1217 1407h284l-588 -1407h-284l-588 1407h283l446 -1067z" />
    <glyph glyph-name="W" unicode="W" horiz-adv-x="2209" 
d="M498 0l-447 1407h281l301 -1008l334 1008h278l332 -1008l301 1008h281l-445 -1407h-256l-352 1044l-354 -1044h-254z" />
    <glyph glyph-name="X" unicode="X" horiz-adv-x="1447" 
d="M1397 1407l-523 -702l523 -705h-303l-371 500l-373 -500h-301l522 702l-522 705h305l371 -500l373 500h299z" />
    <glyph glyph-name="Y" unicode="Y" horiz-adv-x="1404" 
d="M573 0v528l-557 879h301l388 -637l393 637h291l-555 -879v-528h-261z" />
    <glyph glyph-name="Z" unicode="Z" horiz-adv-x="1337" 
d="M104 0v195l777 979h-762v233h1110v-195l-774 -979h784v-233h-1135z" />
    <glyph glyph-name="bracketleft" unicode="[" horiz-adv-x="776" 
d="M152 -272v1738h532v-170h-330v-1398h330v-170h-532z" />
    <glyph glyph-name="backslash" unicode="\" horiz-adv-x="913" 
d="M688 -152l-708 1674h268l708 -1674h-268z" />
    <glyph glyph-name="bracketright" unicode="]" horiz-adv-x="776" 
d="M92 -272v170h330v1398h-330v170h533v-1738h-533z" />
    <glyph glyph-name="asciicircum" unicode="^" horiz-adv-x="999" 
d="M96 846l316 561h178l315 -561h-186l-219 399l-219 -399h-185z" />
    <glyph glyph-name="underscore" unicode="_" horiz-adv-x="1212" 
d="M-4 -305v164h1221v-164h-1221z" />
    <glyph glyph-name="grave" unicode="`" horiz-adv-x="731" 
d="M428 1178l-299 266l233 45l240 -311h-174z" />
    <glyph glyph-name="a" unicode="a" horiz-adv-x="1185" 
d="M598 1083q209 0 332 -122t123 -324v-637h-244v127q-57 -72 -148 -112t-186 -40q-171 0 -283 93t-112 245q0 154 125 253.5t307 99.5q147 0 297 -58v29q0 48 -14 90t-43 77t-81 55t-122 20q-127 0 -287 -80l-86 174q223 110 422 110zM530 158q97 0 177.5 46.5t101.5 127.5
v119q-118 41 -260 41q-95 0 -160 -48t-65 -122t58 -119t148 -45z" />
    <glyph glyph-name="b" unicode="b" 
d="M762 1083q211 0 348 -155.5t137 -397.5q0 -244 -137 -399.5t-348 -155.5q-117 0 -211 50.5t-158 142.5v-168h-250v1432h250v-541q64 92 158 142t211 50zM694 188q133 0 219 96.5t86 245.5t-85.5 244.5t-219.5 95.5q-132 0 -215.5 -95.5t-83.5 -244.5q0 -150 83.5 -246
t215.5 -96z" />
    <glyph glyph-name="c" unicode="c" horiz-adv-x="1118" 
d="M647 -25q-150 0 -280.5 75.5t-207.5 203.5t-77 276q0 111 46 213t122.5 176.5t181.5 119t219 44.5q117 0 221 -46t181 -126l-168 -147q-44 48 -107 77t-129 29q-130 0 -224.5 -101t-94.5 -239q0 -140 94.5 -241t224.5 -101q69 0 133 30t109 81l168 -145
q-168 -179 -412 -179z" />
    <glyph glyph-name="d" unicode="d" 
d="M942 1432h250v-1432h-250v164q-64 -91 -158 -140t-209 -49q-211 0 -348 155.5t-137 399.5q0 242 137 397.5t348 155.5q234 0 367 -188v537zM643 188q132 0 215.5 96t83.5 246q0 149 -83.5 244.5t-215.5 95.5q-134 0 -219.5 -95.5t-85.5 -244.5t86 -245.5t219 -96.5z" />
    <glyph glyph-name="e" unicode="e" horiz-adv-x="1216" 
d="M631 197q74 0 152 30t122 76l158 -164q-68 -72 -190.5 -118t-239.5 -46q-151 0 -277 70.5t-201 199t-75 287.5q0 236 155.5 393.5t382.5 157.5q244 0 381.5 -171.5t137.5 -467.5h-799q24 -111 102.5 -179t190.5 -68zM629 862q-104 0 -182.5 -61.5t-106.5 -165.5h557
q-23 104 -91 165.5t-177 61.5z" />
    <glyph glyph-name="f" unicode="f" horiz-adv-x="757" 
d="M457 1147v-88h239v-207h-239v-852h-244v852h-154v207h154v110q0 134 83.5 220t215.5 86q60 0 120 -22.5t105 -61.5l-71 -160q-39 39 -105 39q-45 0 -74.5 -34.5t-29.5 -88.5z" />
    <glyph glyph-name="g" unicode="g" horiz-adv-x="1318" 
d="M926 1059h250v-946q0 -204 -155 -334.5t-398 -130.5q-133 0 -253.5 38.5t-201.5 102.5l92 182q55 -51 143.5 -80.5t182.5 -29.5q157 0 248.5 70t91.5 190v137q-64 -86 -157 -133t-206 -47q-206 0 -341.5 142t-135.5 362t135 360.5t342 140.5q112 0 209 -48.5t154 -133.5
v158zM635 291q127 0 209 81.5t82 209.5q0 126 -82 207t-209 81q-126 0 -207.5 -81t-81.5 -207q0 -127 81.5 -209t207.5 -82z" />
    <glyph glyph-name="h" unicode="h" horiz-adv-x="1241" 
d="M715 1083q173 0 283 -114.5t110 -294.5v-674h-242v625q0 107 -62.5 176t-160.5 69q-106 0 -182 -67t-76 -162v-641h-250v1432h250v-519q48 77 136.5 123.5t193.5 46.5z" />
    <glyph glyph-name="i" unicode="i" horiz-adv-x="526" 
d="M264 1219q-59 0 -101 42.5t-42 100.5t41.5 99.5t101.5 41.5q58 0 100 -42t42 -99t-42 -100t-100 -43zM137 0v1059h250v-1059h-250z" />
    <glyph glyph-name="j" unicode="j" horiz-adv-x="526" 
d="M264 1219q-59 0 -101 42.5t-42 100.5t41.5 99.5t101.5 41.5q58 0 100 -42t42 -99t-42 -100t-100 -43zM82 -365q-117 0 -197 39l31 191q51 -21 117 -21q46 0 75 34.5t29 88.5v1092h250v-1110q0 -138 -85 -226t-220 -88z" />
    <glyph glyph-name="k" unicode="k" horiz-adv-x="1150" 
d="M1137 1059l-437 -473l422 -586h-291l-299 422l-149 -158v-264h-250v1432h250v-875l459 502h295z" />
    <glyph glyph-name="l" unicode="l" horiz-adv-x="526" 
d="M137 0v1432h250v-1432h-250z" />
    <glyph glyph-name="m" unicode="m" horiz-adv-x="1880" 
d="M1360 1083q167 0 277 -115t110 -294v-674h-244v633q0 104 -57 170.5t-148 66.5q-102 0 -166.5 -62t-64.5 -159v-649h-244v633q0 105 -57.5 171t-149.5 66q-101 0 -166 -62t-65 -159v-649h-250v1059h250v-144q40 78 118 123t177 45q112 0 200 -52.5t138 -147.5
q38 92 130.5 146t211.5 54z" />
    <glyph glyph-name="n" unicode="n" horiz-adv-x="1241" 
d="M715 1083q173 0 283 -114.5t110 -294.5v-674h-242v625q0 107 -62.5 176t-160.5 69t-171 -57.5t-85 -142.5v-670h-250v1059h250v-141q50 75 138 120t190 45z" />
    <glyph glyph-name="o" unicode="o" horiz-adv-x="1296" 
d="M649 -25q-151 0 -282 75.5t-208 203.5t-77 276t77 275.5t208 202.5t282 75t282 -75t208.5 -202.5t77.5 -275.5t-77.5 -276t-208.5 -203.5t-282 -75.5zM649 188q131 0 226.5 101.5t95.5 240.5q0 138 -95.5 239t-226.5 101q-132 0 -227.5 -101t-95.5 -239q0 -140 95.5 -241
t227.5 -101z" />
    <glyph glyph-name="p" unicode="p" 
d="M762 1083q211 0 348 -155.5t137 -397.5q0 -244 -137 -399.5t-348 -155.5q-117 0 -211 50.5t-158 142.5v-520h-250v1411h250v-168q64 92 158 142t211 50zM694 188q133 0 219 96.5t86 245.5t-85.5 244.5t-219.5 95.5q-132 0 -215.5 -95.5t-83.5 -244.5q0 -150 83.5 -246
t215.5 -96z" />
    <glyph glyph-name="q" unicode="q" 
d="M942 1059h250v-1411h-250v516q-64 -91 -158 -140t-209 -49q-211 0 -348 155.5t-137 399.5q0 242 137 397.5t348 155.5q234 0 367 -188v164zM643 188q132 0 215.5 96t83.5 246q0 149 -83.5 244.5t-215.5 95.5q-134 0 -219.5 -95.5t-85.5 -244.5t86 -245.5t219 -96.5z" />
    <glyph glyph-name="r" unicode="r" horiz-adv-x="819" 
d="M393 854q52 107 151 168t228 61v-213q-170 0 -274.5 -92t-104.5 -243v-535h-250v1059h250v-205z" />
    <glyph glyph-name="s" unicode="s" horiz-adv-x="1024" 
d="M528 -25q-123 0 -245.5 42t-216.5 118l112 174q170 -123 354 -123q76 0 123 30t47 79q0 20 -6.5 36.5t-22.5 29.5t-31 22.5t-44.5 20t-50 16.5t-58.5 16q-94 24 -156.5 48t-115.5 60t-78 86.5t-26 119.5q0 149 111 241t288 92q214 0 406 -127l-105 -182q-152 96 -301 96
q-68 0 -112 -25.5t-44 -68.5q0 -48 42.5 -72.5t174.5 -62.5q46 -13 77 -22.5t73.5 -26t71 -33t59 -42t48.5 -54.5t30 -68.5t12 -85.5q0 -152 -114.5 -243t-301.5 -91z" />
    <glyph glyph-name="t" unicode="t" horiz-adv-x="794" 
d="M666 227l71 -168q-45 -39 -105 -61.5t-120 -22.5q-132 0 -215.5 86t-83.5 220v571h-154v207h154v291h244v-291h239v-207h-239v-541q0 -54 29.5 -88.5t74.5 -34.5q66 0 105 39z" />
    <glyph glyph-name="u" unicode="u" horiz-adv-x="1241" 
d="M854 1059h250v-1059h-250v141q-51 -75 -138.5 -120.5t-189.5 -45.5q-173 0 -283 115t-110 295v674h242v-625q0 -108 62.5 -177t160.5 -69t171 58t85 143v670z" />
    <glyph glyph-name="v" unicode="v" horiz-adv-x="1212" 
d="M492 0l-455 1059h264l307 -770l301 770h267l-449 -1059h-235z" />
    <glyph glyph-name="w" unicode="w" horiz-adv-x="1718" 
d="M408 0l-359 1059h250l221 -723l236 723h209l237 -723l219 723h250l-356 -1059h-228l-227 725l-225 -725h-227z" />
    <glyph glyph-name="x" unicode="x" horiz-adv-x="1148" 
d="M1108 0h-277l-258 354l-260 -354h-272l397 541l-379 518h275l241 -330l242 330h273l-379 -516z" />
    <glyph glyph-name="y" unicode="y" horiz-adv-x="1226" 
d="M352 -369q-130 0 -231 56l53 180q70 -39 135 -39q92 0 135 70l45 94l-448 1067h264l309 -791l291 791h258l-448 -1133q-116 -292 -363 -295z" />
    <glyph glyph-name="z" unicode="z" horiz-adv-x="1077" 
d="M94 0v182l561 658h-549v219h879l-2 -182l-563 -658h569v-219h-895z" />
    <glyph glyph-name="braceleft" unicode="{" horiz-adv-x="823" 
d="M725 -340q-251 23 -353 107t-102 256l2 260q0 97 -46 139.5t-152 42.5v158q108 0 153 43t45 141l-2 258q0 172 102.5 255.5t352.5 106.5l20 -157q-117 -17 -174 -40.5t-78.5 -63.5t-21.5 -117l2 -273q0 -178 -158 -231q158 -56 158 -234l-2 -270q0 -114 52.5 -156
t221.5 -67z" />
    <glyph glyph-name="bar" unicode="|" horiz-adv-x="598" 
d="M209 -152v1674h180v-1674h-180z" />
    <glyph glyph-name="braceright" unicode="}" horiz-adv-x="823" 
d="M98 -340l-18 158q169 25 221.5 67t52.5 156l-2 270q0 93 38.5 149.5t117.5 84.5q-156 54 -156 231l2 273q0 77 -21.5 117t-78.5 63.5t-174 40.5l18 157q251 -23 354 -106.5t103 -255.5l-2 -258q0 -98 45.5 -141t151.5 -43v-158q-105 0 -151 -42.5t-46 -139.5l2 -260
q0 -172 -103 -256t-354 -107z" />
    <glyph glyph-name="asciitilde" unicode="~" horiz-adv-x="921" 
d="M598 606q-40 0 -81.5 18t-70 39.5t-60.5 39.5t-56 18q-37 0 -59.5 -28t-32.5 -89l-129 19q30 262 217 262q39 0 80.5 -18t69.5 -39.5t60 -39.5t56 -18q72 0 92 119l131 -21q-31 -262 -217 -262z" />
    <glyph glyph-name="exclamdown" unicode="&#xa1;" horiz-adv-x="604" 
d="M297 1083q70 0 117 -47.5t47 -115.5q0 -64 -47.5 -111t-116.5 -47q-64 0 -111 47.5t-47 110.5q0 67 46.5 115t111.5 48zM383 598l59 -946h-290l59 946h172z" />
    <glyph glyph-name="cent" unicode="&#xa2;" horiz-adv-x="1118" 
d="M1059 154q-141 -151 -342 -174v-132h-185v140q-191 40 -320.5 193.5t-129.5 348.5q0 194 128.5 346.5t321.5 194.5v135h185v-127q198 -24 336 -168l-168 -147q-71 77 -168 98v-665q103 21 174 102zM330 530q0 -106 56 -192t146 -125v633q-90 -39 -146 -125t-56 -191z" />
    <glyph glyph-name="sterling" unicode="&#xa3;" horiz-adv-x="1314" 
d="M516 209h723v-209h-1139v109l162 100v317h-137v154h137v268q0 212 132 348t339 136q141 0 270 -65.5t189 -168.5l-174 -168q-26 74 -100.5 122t-163.5 48q-103 0 -170.5 -75t-67.5 -193v-252h361v-154h-361v-317z" />
    <glyph glyph-name="yen" unicode="&#xa5;" horiz-adv-x="1404" 
d="M1389 1407l-469 -743h292v-154h-378v-141h378v-154h-378v-215h-261v215h-376v154h376v141h-376v154h290l-471 743h301l388 -637l393 637h291z" />
    <glyph glyph-name="dieresis" unicode="&#xa8;" horiz-adv-x="933" 
d="M256 1204q-54 0 -90.5 37.5t-36.5 91.5q0 51 37 89t90 38q52 0 89.5 -38.5t37.5 -88.5q0 -54 -37 -91.5t-90 -37.5zM678 1204q-55 0 -92 37.5t-37 91.5q0 51 37.5 89t91.5 38q52 0 89.5 -38.5t37.5 -88.5q0 -54 -37 -91.5t-90 -37.5z" />
    <glyph glyph-name="macron" unicode="&#xaf;" horiz-adv-x="942" 
d="M129 1200v154h684v-154h-684z" />
    <glyph glyph-name="acute" unicode="&#xb4;" horiz-adv-x="731" 
d="M129 1178l240 311l233 -45l-299 -266h-174z" />
    <glyph glyph-name="cedilla" unicode="&#xb8;" horiz-adv-x="661" 
d="M385 -90q64 0 105.5 -38.5t41.5 -98.5q0 -78 -60.5 -125t-154.5 -47q-116 0 -188 59l49 107q60 -48 127 -48q39 0 64.5 19t25.5 49q0 27 -17.5 43t-51.5 16q-37 0 -64 -20l-41 41l66 156h137l-49 -113h10z" />
    <glyph glyph-name="questiondown" unicode="&#xbf;" horiz-adv-x="1034" 
d="M561 1083q70 0 117 -47.5t47 -115.5q0 -64 -47.5 -111t-116.5 -47q-64 0 -111 47.5t-47 110.5q0 67 46.5 115t111.5 48zM678 606v-354q-155 -9 -253.5 -67t-98.5 -140q0 -78 64 -133t165 -55q158 0 291 147l149 -151q-198 -226 -475 -226q-200 0 -325 111.5t-125 281.5
q0 138 105 249.5t271 148.5v188h232z" />
    <glyph glyph-name="Agrave" unicode="&#xc0;" horiz-adv-x="1542" 
d="M864 1526h-174l-299 266l234 45zM1217 0l-107 254h-680l-106 -254h-285l588 1407h284l588 -1407h-282zM522 475h496l-248 592z" />
    <glyph glyph-name="Aacute" unicode="&#xc1;" horiz-adv-x="1542" 
d="M1153 1792l-299 -266h-174l240 311zM1217 0l-107 254h-680l-106 -254h-285l588 1407h284l588 -1407h-282zM522 475h496l-248 592z" />
    <glyph glyph-name="Acircumflex" unicode="&#xc2;" horiz-adv-x="1540" 
d="M770 1688l-156 -162h-161l211 295h213l215 -295h-164zM1217 0l-107 254h-680l-106 -254h-285l588 1407h284l588 -1407h-282zM522 475h496l-248 592z" />
    <glyph glyph-name="Atilde" unicode="&#xc3;" horiz-adv-x="1540" 
d="M637 1636q-37 0 -59.5 -27.5t-32.5 -88.5l-129 18q30 262 217 262q50 0 101 -28.5t93.5 -57t71.5 -28.5q72 0 92 118l131 -20q-31 -262 -217 -262q-51 0 -102.5 28.5t-94 57t-71.5 28.5zM1217 0l-107 254h-680l-106 -254h-285l588 1407h284l588 -1407h-282zM522 475h496
l-248 592z" />
    <glyph glyph-name="Adieresis" unicode="&#xc4;" horiz-adv-x="1540" 
d="M559 1552q-54 0 -90.5 37.5t-36.5 91.5q0 51 37 89t90 38q52 0 89.5 -38.5t37.5 -88.5q0 -54 -37 -91.5t-90 -37.5zM981 1552q-55 0 -92 37.5t-37 91.5q0 51 37.5 89t91.5 38q52 0 89.5 -38.5t37.5 -88.5q0 -54 -37 -91.5t-90 -37.5zM1217 0l-107 254h-680l-106 -254
h-285l588 1407h284l588 -1407h-282zM522 475h496l-248 592z" />
    <glyph glyph-name="Aring" unicode="&#xc5;" horiz-adv-x="1540" 
d="M770 1542q-92 0 -158.5 66.5t-66.5 160.5q0 93 66.5 159.5t158.5 66.5q94 0 159.5 -66t65.5 -160t-65.5 -160.5t-159.5 -66.5zM770 1882q-46 0 -79.5 -33.5t-33.5 -79.5t33.5 -79t79.5 -33t79.5 33t33.5 79t-33.5 79.5t-79.5 33.5zM1217 0l-107 254h-680l-106 -254h-285
l588 1407h284l588 -1407h-282zM522 475h496l-248 592z" />
    <glyph glyph-name="AE" unicode="&#xc6;" horiz-adv-x="2170" 
d="M2071 1174h-803v-340h727v-234h-727v-367h803v-233h-1059v266h-525l-153 -266h-293l811 1407h1219v-233zM608 475h404v699z" />
    <glyph glyph-name="Ccedilla" unicode="&#xc7;" horiz-adv-x="1413" 
d="M831 209q101 0 192.5 43.5t158.5 120.5l180 -168q-95 -100 -219.5 -159.5t-263.5 -68.5l-29 -67h10q65 0 106.5 -38.5t41.5 -98.5q0 -78 -60.5 -125t-154.5 -47q-55 0 -105.5 16t-83.5 43l49 107q60 -48 127 -48q39 0 64.5 19t25.5 49q0 27 -17.5 43t-51.5 16
q-37 0 -64 -20l-41 41l47 115q-133 16 -253 80t-207.5 159.5t-139 222t-51.5 261.5q0 145 59.5 279.5t159 232.5t236 156.5t284.5 58.5q152 0 289.5 -60.5t241.5 -167.5l-182 -170q-66 76 -157.5 120t-191.5 44q-128 0 -238.5 -67t-175.5 -180.5t-65 -245.5q0 -99 38.5 -191
t103 -158.5t153 -106.5t184.5 -40z" />
    <glyph glyph-name="Egrave" unicode="&#xc8;" horiz-adv-x="1304" 
d="M850 1526h-174l-299 266l233 45zM1204 1174h-803v-340h727v-234h-727v-367h803v-233h-1059v1407h1059v-233z" />
    <glyph glyph-name="Eacute" unicode="&#xc9;" horiz-adv-x="1304" 
d="M952 1792l-299 -266h-174l240 311zM1204 1174h-803v-340h727v-234h-727v-367h803v-233h-1059v1407h1059v-233z" />
    <glyph glyph-name="Ecircumflex" unicode="&#xca;" horiz-adv-x="1304" 
d="M676 1688l-156 -162h-162l211 295h213l215 -295h-163zM1204 1174h-803v-340h727v-234h-727v-367h803v-233h-1059v1407h1059v-233z" />
    <glyph glyph-name="Edieresis" unicode="&#xcb;" horiz-adv-x="1304" 
d="M465 1552q-54 0 -90.5 37.5t-36.5 91.5q0 51 37 89t90 38q52 0 89.5 -38.5t37.5 -88.5q0 -54 -37 -91.5t-90 -37.5zM887 1552q-55 0 -92 37.5t-37 91.5q0 51 37.5 89t91.5 38q52 0 89.5 -38.5t37.5 -88.5q0 -54 -37 -91.5t-90 -37.5zM1204 1174h-803v-340h727v-234h-727
v-367h803v-233h-1059v1407h1059v-233z" />
    <glyph glyph-name="Igrave" unicode="&#xcc;" horiz-adv-x="552" 
d="M190 1526l-299 266l234 45l240 -311h-175zM150 0v1407h253v-1407h-253z" />
    <glyph glyph-name="Iacute" unicode="&#xcd;" horiz-adv-x="552" 
d="M186 1526l240 311l233 -45l-299 -266h-174zM150 0v1407h253v-1407h-253z" />
    <glyph glyph-name="Icircumflex" unicode="&#xce;" horiz-adv-x="552" 
d="M-41 1526l211 295h213l215 -295h-164l-158 162l-155 -162h-162zM150 0v1407h253v-1407h-253z" />
    <glyph glyph-name="Idieresis" unicode="&#xcf;" horiz-adv-x="552" 
d="M66 1552q-54 0 -90.5 37.5t-36.5 91.5q0 51 37 89t90 38q52 0 89.5 -38.5t37.5 -88.5q0 -54 -37 -91.5t-90 -37.5zM487 1552q-55 0 -92 37.5t-37 91.5q0 51 37.5 89t91.5 38q52 0 89.5 -38.5t37.5 -88.5q0 -54 -37 -91.5t-90 -37.5zM150 0v1407h253v-1407h-253z" />
    <glyph glyph-name="Eth" unicode="&#xd0;" horiz-adv-x="1628" 
d="M727 1407q172 0 319.5 -52t251.5 -144t163 -223t59 -283q0 -204 -100.5 -364.5t-281.5 -250.5t-411 -90h-496v596h-147v233h147v578h496zM754 231q222 0 364 133.5t142 340.5t-141.5 339t-364.5 132h-267v-347h353l-2 -233h-351v-365h267z" />
    <glyph glyph-name="Ntilde" unicode="&#xd1;" horiz-adv-x="1581" 
d="M926 1522q-40 0 -82 18t-70.5 39t-60.5 39t-56 18q-37 0 -59.5 -27.5t-32.5 -88.5l-129 18q30 262 217 262q39 0 80.5 -18t70 -39t60.5 -39t56 -18q72 0 92 118l131 -20q-31 -262 -217 -262zM164 0v1407h256l743 -989v989h254v-1407h-254l-743 989v-989h-256z" />
    <glyph glyph-name="Ograve" unicode="&#xd2;" horiz-adv-x="1658" 
d="M748 1526l-299 266l233 45l240 -311h-174zM831 -25q-197 0 -367.5 99.5t-271 268t-100.5 362.5q0 145 59.5 279.5t159 232.5t236 156.5t284.5 58.5q147 0 283.5 -58.5t236 -156.5t159 -232.5t59.5 -279.5t-59.5 -280t-159 -233.5t-236 -157.5t-283.5 -59zM831 209
q95 0 183 40t152 106.5t102.5 158.5t38.5 191q0 132 -64.5 245.5t-174.5 180.5t-237 67q-128 0 -238.5 -67t-175.5 -180.5t-65 -245.5q0 -99 38.5 -191t103 -158.5t153 -106.5t184.5 -40z" />
    <glyph glyph-name="Oacute" unicode="&#xd3;" horiz-adv-x="1658" 
d="M737 1526l240 311l233 -45l-299 -266h-174zM831 -25q-197 0 -367.5 99.5t-271 268t-100.5 362.5q0 145 59.5 279.5t159 232.5t236 156.5t284.5 58.5q147 0 283.5 -58.5t236 -156.5t159 -232.5t59.5 -279.5t-59.5 -280t-159 -233.5t-236 -157.5t-283.5 -59zM831 209
q95 0 183 40t152 106.5t102.5 158.5t38.5 191q0 132 -64.5 245.5t-174.5 180.5t-237 67q-128 0 -238.5 -67t-175.5 -180.5t-65 -245.5q0 -99 38.5 -191t103 -158.5t153 -106.5t184.5 -40z" />
    <glyph glyph-name="Ocircumflex" unicode="&#xd4;" horiz-adv-x="1658" 
d="M514 1526l211 295h213l215 -295h-164l-158 162l-155 -162h-162zM831 -25q-197 0 -367.5 99.5t-271 268t-100.5 362.5q0 145 59.5 279.5t159 232.5t236 156.5t284.5 58.5q147 0 283.5 -58.5t236 -156.5t159 -232.5t59.5 -279.5t-59.5 -280t-159 -233.5t-236 -157.5
t-283.5 -59zM831 209q95 0 183 40t152 106.5t102.5 158.5t38.5 191q0 132 -64.5 245.5t-174.5 180.5t-237 67q-128 0 -238.5 -67t-175.5 -180.5t-65 -245.5q0 -99 38.5 -191t103 -158.5t153 -106.5t184.5 -40z" />
    <glyph glyph-name="Otilde" unicode="&#xd5;" horiz-adv-x="1658" 
d="M967 1522q-40 0 -82 18t-70.5 39t-60.5 39t-56 18q-37 0 -59.5 -27.5t-32.5 -88.5l-129 18q30 262 217 262q39 0 80.5 -18t70 -39t60.5 -39t56 -18q72 0 92 118l131 -20q-31 -262 -217 -262zM831 -25q-197 0 -367.5 99.5t-271 268t-100.5 362.5q0 145 59.5 279.5
t159 232.5t236 156.5t284.5 58.5q147 0 283.5 -58.5t236 -156.5t159 -232.5t59.5 -279.5t-59.5 -280t-159 -233.5t-236 -157.5t-283.5 -59zM831 209q95 0 183 40t152 106.5t102.5 158.5t38.5 191q0 132 -64.5 245.5t-174.5 180.5t-237 67q-128 0 -238.5 -67t-175.5 -180.5
t-65 -245.5q0 -99 38.5 -191t103 -158.5t153 -106.5t184.5 -40z" />
    <glyph glyph-name="Odieresis" unicode="&#xd6;" horiz-adv-x="1658" 
d="M621 1552q-54 0 -90.5 37.5t-36.5 91.5q0 51 37 89t90 38q52 0 89.5 -38.5t37.5 -88.5q0 -54 -37 -91.5t-90 -37.5zM1042 1552q-55 0 -92 37.5t-37 91.5q0 51 37.5 89t91.5 38q52 0 89.5 -38.5t37.5 -88.5q0 -54 -37 -91.5t-90 -37.5zM831 -25q-197 0 -367.5 99.5
t-271 268t-100.5 362.5q0 145 59.5 279.5t159 232.5t236 156.5t284.5 58.5q147 0 283.5 -58.5t236 -156.5t159 -232.5t59.5 -279.5t-59.5 -280t-159 -233.5t-236 -157.5t-283.5 -59zM831 209q95 0 183 40t152 106.5t102.5 158.5t38.5 191q0 132 -64.5 245.5t-174.5 180.5
t-237 67q-128 0 -238.5 -67t-175.5 -180.5t-65 -245.5q0 -99 38.5 -191t103 -158.5t153 -106.5t184.5 -40z" />
    <glyph glyph-name="multiply" unicode="&#xd7;" horiz-adv-x="1134" 
d="M989 420l-158 -158l-266 268l-266 -266l-152 152l267 266l-269 268l158 158l268 -268l265 264l151 -152l-264 -264z" />
    <glyph glyph-name="Oslash" unicode="&#xd8;" horiz-adv-x="1658" 
d="M1370 1196q94 -100 146.5 -226.5t52.5 -264.5q0 -145 -59.5 -280t-159 -233.5t-236 -157.5t-283.5 -59q-217 0 -403 121l-82 -96h-235l180 211q-94 100 -146.5 227.5t-52.5 266.5q0 145 59.5 279.5t159 232.5t236 156.5t284.5 58.5q216 0 402 -121l82 96h235zM352 705
q0 -167 103 -304l620 725q-115 72 -244 72q-128 0 -238.5 -67t-175.5 -180.5t-65 -245.5zM831 209q95 0 183 40t152 106.5t102.5 158.5t38.5 191q0 166 -101 301l-620 -725q118 -72 245 -72z" />
    <glyph glyph-name="Ugrave" unicode="&#xd9;" horiz-adv-x="1540" 
d="M770 1526l-299 266l234 45l239 -311h-174zM770 -25q-134 0 -249.5 46.5t-196.5 128t-127.5 198t-46.5 252.5v807h256v-799q0 -175 102.5 -288t261.5 -113q161 0 264 113t103 288v799h254v-807q0 -275 -173.5 -450t-447.5 -175z" />
    <glyph glyph-name="Uacute" unicode="&#xda;" horiz-adv-x="1540" 
d="M573 1526l240 311l234 -45l-299 -266h-175zM770 -25q-134 0 -249.5 46.5t-196.5 128t-127.5 198t-46.5 252.5v807h256v-799q0 -175 102.5 -288t261.5 -113q161 0 264 113t103 288v799h254v-807q0 -275 -173.5 -450t-447.5 -175z" />
    <glyph glyph-name="Ucircumflex" unicode="&#xdb;" horiz-adv-x="1540" 
d="M453 1526l211 295h213l215 -295h-164l-158 162l-156 -162h-161zM770 -25q-134 0 -249.5 46.5t-196.5 128t-127.5 198t-46.5 252.5v807h256v-799q0 -175 102.5 -288t261.5 -113q161 0 264 113t103 288v799h254v-807q0 -275 -173.5 -450t-447.5 -175z" />
    <glyph glyph-name="Udieresis" unicode="&#xdc;" horiz-adv-x="1540" 
d="M559 1552q-54 0 -90.5 37.5t-36.5 91.5q0 51 37 89t90 38q52 0 89.5 -38.5t37.5 -88.5q0 -54 -37 -91.5t-90 -37.5zM981 1552q-55 0 -92 37.5t-37 91.5q0 51 37.5 89t91.5 38q52 0 89.5 -38.5t37.5 -88.5q0 -54 -37 -91.5t-90 -37.5zM770 -25q-134 0 -249.5 46.5
t-196.5 128t-127.5 198t-46.5 252.5v807h256v-799q0 -175 102.5 -288t261.5 -113q161 0 264 113t103 288v799h254v-807q0 -275 -173.5 -450t-447.5 -175z" />
    <glyph glyph-name="Yacute" unicode="&#xdd;" horiz-adv-x="1404" 
d="M508 1526l240 311l233 -45l-299 -266h-174zM573 0v528l-557 879h301l388 -637l393 637h291l-555 -879v-528h-261z" />
    <glyph glyph-name="Thorn" unicode="&#xde;" horiz-adv-x="1339" 
d="M145 0v1407h254v-231h359q227 0 376.5 -132t149.5 -335q0 -204 -149.5 -335.5t-376.5 -131.5h-357v-242h-256zM401 475h328q132 0 213.5 64t81.5 170t-81.5 168.5t-213.5 62.5h-328v-465z" />
    <glyph glyph-name="germandbls" unicode="&#xdf;" horiz-adv-x="1230" 
d="M145 0v1067q0 173 133.5 284t342.5 111q207 0 340 -111t133 -284q0 -106 -52 -189t-147 -135q123 -59 190.5 -152.5t67.5 -207.5q0 -169 -125.5 -276t-322.5 -107h-158v221h108q103 0 169.5 56.5t66.5 144.5t-66.5 144.5t-169.5 56.5h-108v208h69q92 0 153.5 55.5
t61.5 133.5q0 84 -59.5 137t-155.5 53t-156.5 -55t-60.5 -145v-1010h-254z" />
    <glyph glyph-name="agrave" unicode="&#xe0;" horiz-adv-x="1185" 
d="M784 1178h-174l-299 266l234 45zM598 1083q209 0 332 -122t123 -324v-637h-244v127q-57 -72 -148 -112t-186 -40q-171 0 -283 93t-112 245q0 154 125 253.5t307 99.5q147 0 297 -58v29q0 48 -14 90t-43 77t-81 55t-122 20q-127 0 -287 -80l-86 174q223 110 422 110z
M530 158q97 0 177.5 46.5t101.5 127.5v119q-118 41 -260 41q-95 0 -160 -48t-65 -122t58 -119t148 -45z" />
    <glyph glyph-name="aacute" unicode="&#xe1;" horiz-adv-x="1185" 
d="M887 1444l-299 -266h-174l239 311zM598 1083q209 0 332 -122t123 -324v-637h-244v127q-57 -72 -148 -112t-186 -40q-171 0 -283 93t-112 245q0 154 125 253.5t307 99.5q147 0 297 -58v29q0 48 -14 90t-43 77t-81 55t-122 20q-127 0 -287 -80l-86 174q223 110 422 110z
M530 158q97 0 177.5 46.5t101.5 127.5v119q-118 41 -260 41q-95 0 -160 -48t-65 -122t58 -119t148 -45z" />
    <glyph glyph-name="acircumflex" unicode="&#xe2;" horiz-adv-x="1185" 
d="M610 1339l-155 -161h-162l211 295h213l215 -295h-164zM598 1083q209 0 332 -122t123 -324v-637h-244v127q-57 -72 -148 -112t-186 -40q-171 0 -283 93t-112 245q0 154 125 253.5t307 99.5q147 0 297 -58v29q0 48 -14 90t-43 77t-81 55t-122 20q-127 0 -287 -80l-86 174
q223 110 422 110zM530 158q97 0 177.5 46.5t101.5 127.5v119q-118 41 -260 41q-95 0 -160 -48t-65 -122t58 -119t148 -45z" />
    <glyph glyph-name="atilde" unicode="&#xe3;" horiz-adv-x="1185" 
d="M477 1288q-37 0 -59.5 -28t-32.5 -89l-129 19q30 262 217 262q39 0 80.5 -18t69.5 -39.5t60 -39.5t56 -18q72 0 92 119l132 -20q-31 -262 -218 -262q-51 0 -102.5 28.5t-94 57t-71.5 28.5zM598 1083q209 0 332 -122t123 -324v-637h-244v127q-57 -72 -148 -112t-186 -40
q-171 0 -283 93t-112 245q0 154 125 253.5t307 99.5q147 0 297 -58v29q0 48 -14 90t-43 77t-81 55t-122 20q-127 0 -287 -80l-86 174q223 110 422 110zM530 158q97 0 177.5 46.5t101.5 127.5v119q-118 41 -260 41q-95 0 -160 -48t-65 -122t58 -119t148 -45z" />
    <glyph glyph-name="adieresis" unicode="&#xe4;" horiz-adv-x="1185" 
d="M399 1204q-54 0 -90.5 37.5t-36.5 91.5q0 51 37 89t90 38q52 0 89.5 -38.5t37.5 -88.5q0 -54 -37 -91.5t-90 -37.5zM821 1204q-55 0 -92 37.5t-37 91.5q0 51 37.5 89t91.5 38q52 0 89.5 -38.5t37.5 -88.5q0 -54 -37 -91.5t-90 -37.5zM598 1083q209 0 332 -122t123 -324
v-637h-244v127q-57 -72 -148 -112t-186 -40q-171 0 -283 93t-112 245q0 154 125 253.5t307 99.5q147 0 297 -58v29q0 48 -14 90t-43 77t-81 55t-122 20q-127 0 -287 -80l-86 174q223 110 422 110zM530 158q97 0 177.5 46.5t101.5 127.5v119q-118 41 -260 41q-95 0 -160 -48
t-65 -122t58 -119t148 -45z" />
    <glyph glyph-name="aring" unicode="&#xe5;" horiz-adv-x="1185" 
d="M610 1194q-92 0 -158.5 66.5t-66.5 160.5q0 93 66.5 159.5t158.5 66.5q94 0 160 -66t66 -160t-66 -160.5t-160 -66.5zM610 1534q-46 0 -79 -33.5t-33 -79.5t33 -79t79 -33t79.5 33t33.5 79t-33.5 79.5t-79.5 33.5zM598 1083q209 0 332 -122t123 -324v-637h-244v127
q-57 -72 -148 -112t-186 -40q-171 0 -283 93t-112 245q0 154 125 253.5t307 99.5q147 0 297 -58v29q0 48 -14 90t-43 77t-81 55t-122 20q-127 0 -287 -80l-86 174q223 110 422 110zM530 158q97 0 177.5 46.5t101.5 127.5v119q-118 41 -260 41q-95 0 -160 -48t-65 -122
t58 -119t148 -45z" />
    <glyph glyph-name="ae" unicode="&#xe6;" horiz-adv-x="1941" 
d="M1358 197q74 0 152 30t122 76l158 -164q-68 -72 -190.5 -118t-239.5 -46q-126 0 -237.5 51.5t-188.5 143.5q-66 -91 -176 -143t-246 -52q-197 0 -314.5 91.5t-117.5 246.5q0 154 125 253.5t307 99.5q147 0 297 -58v29q0 48 -14 90t-43 77t-81 55t-122 20q-127 0 -287 -80
l-86 174q223 110 406 110q252 0 364 -174q74 83 177.5 128.5t222.5 45.5q244 0 381 -171.5t137 -467.5h-799q24 -111 102.5 -179t190.5 -68zM1356 862q-104 0 -182.5 -61.5t-106.5 -165.5h557q-23 104 -91 165.5t-177 61.5zM543 158q112 0 189 65.5t77 159.5v68
q-118 41 -260 41q-95 0 -160 -48t-65 -122q0 -75 59 -119.5t160 -44.5z" />
    <glyph glyph-name="ccedilla" unicode="&#xe7;" horiz-adv-x="1118" 
d="M1059 154q-150 -157 -357 -177l-30 -67h10q64 0 105.5 -38.5t41.5 -98.5q0 -78 -60.5 -125t-154.5 -47q-116 0 -188 59l49 107q60 -48 127 -48q39 0 64.5 19t25.5 49q0 27 -17.5 43t-51.5 16q-37 0 -64 -20l-41 41l49 115q-134 19 -245 97t-175.5 197.5t-64.5 253.5
q0 111 46 213t122.5 176.5t181.5 119t219 44.5q117 0 221 -46t181 -126l-168 -147q-44 48 -107 77t-129 29q-130 0 -224.5 -101t-94.5 -239q0 -140 94.5 -241t224.5 -101q69 0 133 30t109 81z" />
    <glyph glyph-name="egrave" unicode="&#xe8;" horiz-adv-x="1216" 
d="M793 1178h-175l-299 266l234 45zM631 197q74 0 152 30t122 76l158 -164q-68 -72 -190.5 -118t-239.5 -46q-151 0 -277 70.5t-201 199t-75 287.5q0 236 155.5 393.5t382.5 157.5q244 0 381.5 -171.5t137.5 -467.5h-799q24 -111 102.5 -179t190.5 -68zM629 862
q-104 0 -182.5 -61.5t-106.5 -165.5h557q-23 104 -91 165.5t-177 61.5z" />
    <glyph glyph-name="eacute" unicode="&#xe9;" horiz-adv-x="1216" 
d="M895 1444l-299 -266h-174l240 311zM631 197q74 0 152 30t122 76l158 -164q-68 -72 -190.5 -118t-239.5 -46q-151 0 -277 70.5t-201 199t-75 287.5q0 236 155.5 393.5t382.5 157.5q244 0 381.5 -171.5t137.5 -467.5h-799q24 -111 102.5 -179t190.5 -68zM629 862
q-104 0 -182.5 -61.5t-106.5 -165.5h557q-23 104 -91 165.5t-177 61.5z" />
    <glyph glyph-name="ecircumflex" unicode="&#xea;" horiz-adv-x="1216" 
d="M618 1339l-155 -161h-162l211 295h213l215 -295h-164zM631 197q74 0 152 30t122 76l158 -164q-68 -72 -190.5 -118t-239.5 -46q-151 0 -277 70.5t-201 199t-75 287.5q0 236 155.5 393.5t382.5 157.5q244 0 381.5 -171.5t137.5 -467.5h-799q24 -111 102.5 -179t190.5 -68z
M629 862q-104 0 -182.5 -61.5t-106.5 -165.5h557q-23 104 -91 165.5t-177 61.5z" />
    <glyph glyph-name="edieresis" unicode="&#xeb;" horiz-adv-x="1216" 
d="M408 1204q-54 0 -90.5 37.5t-36.5 91.5q0 51 37 89t90 38q52 0 89.5 -38.5t37.5 -88.5q0 -54 -37 -91.5t-90 -37.5zM829 1204q-55 0 -92 37.5t-37 91.5q0 51 37.5 89t91.5 38q52 0 89.5 -38.5t37.5 -88.5q0 -54 -37 -91.5t-90 -37.5zM631 197q74 0 152 30t122 76
l158 -164q-68 -72 -190.5 -118t-239.5 -46q-151 0 -277 70.5t-201 199t-75 287.5q0 236 155.5 393.5t382.5 157.5q244 0 381.5 -171.5t137.5 -467.5h-799q24 -111 102.5 -179t190.5 -68zM629 862q-104 0 -182.5 -61.5t-106.5 -165.5h557q-23 104 -91 165.5t-177 61.5z" />
    <glyph glyph-name="igrave" unicode="&#xec;" horiz-adv-x="526" 
d="M178 1178l-299 266l234 45l239 -311h-174zM137 0v1059h250v-1059h-250z" />
    <glyph glyph-name="iacute" unicode="&#xed;" horiz-adv-x="526" 
d="M174 1178l240 311l233 -45l-299 -266h-174zM137 0v1059h250v-1059h-250z" />
    <glyph glyph-name="icircumflex" unicode="&#xee;" horiz-adv-x="526" 
d="M-53 1178l211 295h213l215 -295h-164l-158 161l-155 -161h-162zM137 0v1059h250v-1059h-250z" />
    <glyph glyph-name="idieresis" unicode="&#xef;" horiz-adv-x="526" 
d="M53 1204q-54 0 -90.5 37.5t-36.5 91.5q0 51 37 89t90 38q52 0 89.5 -38.5t37.5 -88.5q0 -54 -37 -91.5t-90 -37.5zM475 1204q-55 0 -92 37.5t-37 91.5q0 51 37.5 89t91.5 38q52 0 89.5 -38.5t37.5 -88.5q0 -54 -37 -91.5t-90 -37.5zM137 0v1059h250v-1059h-250z" />
    <glyph glyph-name="eth" unicode="&#xf0;" horiz-adv-x="1290" 
d="M838 1253q181 -171 267.5 -332t86.5 -354q0 -261 -152.5 -426.5t-390.5 -165.5q-239 0 -393 150t-154 385q0 221 131.5 363.5t335.5 142.5q189 0 322 -156q-76 154 -256 303l-227 -100l-64 149l145 66q-13 10 -151 104l231 97q47 -37 133 -107l191 86l65 -149zM649 190
q129 0 212 87.5t83 222.5q0 132 -82.5 219.5t-216.5 87.5q-131 0 -214 -85t-83 -218q0 -138 84.5 -226t216.5 -88z" />
    <glyph glyph-name="ntilde" unicode="&#xf1;" horiz-adv-x="1241" 
d="M516 1288q-37 0 -59.5 -28t-32.5 -89l-129 19q30 262 217 262q39 0 80.5 -18t69.5 -39.5t60 -39.5t56 -18q72 0 92 119l131 -20q-31 -262 -217 -262q-51 0 -102.5 28.5t-94 57t-71.5 28.5zM715 1083q173 0 283 -114.5t110 -294.5v-674h-242v625q0 107 -62.5 176
t-160.5 69t-171 -57.5t-85 -142.5v-670h-250v1059h250v-141q50 75 138 120t190 45z" />
    <glyph glyph-name="ograve" unicode="&#xf2;" horiz-adv-x="1296" 
d="M649 1178l-299 266l234 45l239 -311h-174zM649 -25q-151 0 -282 75.5t-208 203.5t-77 276t77 275.5t208 202.5t282 75t282 -75t208.5 -202.5t77.5 -275.5t-77.5 -276t-208.5 -203.5t-282 -75.5zM649 188q131 0 226.5 101.5t95.5 240.5q0 138 -95.5 239t-226.5 101
q-132 0 -227.5 -101t-95.5 -239q0 -140 95.5 -241t227.5 -101z" />
    <glyph glyph-name="oacute" unicode="&#xf3;" horiz-adv-x="1296" 
d="M453 1178l239 311l234 -45l-299 -266h-174zM649 -25q-151 0 -282 75.5t-208 203.5t-77 276t77 275.5t208 202.5t282 75t282 -75t208.5 -202.5t77.5 -275.5t-77.5 -276t-208.5 -203.5t-282 -75.5zM649 188q131 0 226.5 101.5t95.5 240.5q0 138 -95.5 239t-226.5 101
q-132 0 -227.5 -101t-95.5 -239q0 -140 95.5 -241t227.5 -101z" />
    <glyph glyph-name="ocircumflex" unicode="&#xf4;" horiz-adv-x="1296" 
d="M332 1178l211 295h213l215 -295h-164l-158 161l-155 -161h-162zM649 -25q-151 0 -282 75.5t-208 203.5t-77 276t77 275.5t208 202.5t282 75t282 -75t208.5 -202.5t77.5 -275.5t-77.5 -276t-208.5 -203.5t-282 -75.5zM649 188q131 0 226.5 101.5t95.5 240.5
q0 138 -95.5 239t-226.5 101q-132 0 -227.5 -101t-95.5 -239q0 -140 95.5 -241t227.5 -101z" />
    <glyph glyph-name="otilde" unicode="&#xf5;" horiz-adv-x="1296" 
d="M784 1174q-51 0 -102.5 28.5t-94 57t-71.5 28.5q-37 0 -59.5 -28t-32.5 -89l-129 19q30 262 217 262q39 0 80.5 -18t69.5 -39.5t60 -39.5t56 -18q72 0 92 119l131 -20q-31 -262 -217 -262zM649 -25q-151 0 -282 75.5t-208 203.5t-77 276t77 275.5t208 202.5t282 75
t282 -75t208.5 -202.5t77.5 -275.5t-77.5 -276t-208.5 -203.5t-282 -75.5zM649 188q131 0 226.5 101.5t95.5 240.5q0 138 -95.5 239t-226.5 101q-132 0 -227.5 -101t-95.5 -239q0 -140 95.5 -241t227.5 -101z" />
    <glyph glyph-name="odieresis" unicode="&#xf6;" horiz-adv-x="1296" 
d="M438 1204q-54 0 -90.5 37.5t-36.5 91.5q0 51 37 89t90 38q52 0 89.5 -38.5t37.5 -88.5q0 -54 -37 -91.5t-90 -37.5zM860 1204q-55 0 -92 37.5t-37 91.5q0 51 37.5 89t91.5 38q52 0 89.5 -38.5t37.5 -88.5q0 -54 -37 -91.5t-90 -37.5zM649 -25q-151 0 -282 75.5
t-208 203.5t-77 276t77 275.5t208 202.5t282 75t282 -75t208.5 -202.5t77.5 -275.5t-77.5 -276t-208.5 -203.5t-282 -75.5zM649 188q131 0 226.5 101.5t95.5 240.5q0 138 -95.5 239t-226.5 101q-132 0 -227.5 -101t-95.5 -239q0 -140 95.5 -241t227.5 -101z" />
    <glyph glyph-name="divide" unicode="&#xf7;" horiz-adv-x="1226" 
d="M618 905q-63 0 -106 44t-43 106q0 58 43.5 100.5t105.5 42.5q58 0 101 -43t43 -100q0 -61 -42.5 -105.5t-101.5 -44.5zM127 578v213h973v-213h-973zM618 170q-63 0 -106 43.5t-43 105.5q0 58 43.5 101t105.5 43q58 0 101 -43.5t43 -100.5q0 -61 -42.5 -105t-101.5 -44z
" />
    <glyph glyph-name="oslash" unicode="&#xf8;" horiz-adv-x="1296" 
d="M1069 897q148 -158 148 -367q0 -148 -77.5 -276t-208.5 -203.5t-282 -75.5q-156 0 -299 86l-53 -61h-203l137 160q-149 159 -149 370q0 148 77 275.5t208 202.5t282 75q159 0 303 -88l54 64h202zM326 530q0 -104 57 -194l422 489q-73 45 -156 45q-132 0 -227.5 -101
t-95.5 -239zM649 188q131 0 226.5 101.5t95.5 240.5q0 101 -56 189l-419 -488q67 -43 153 -43z" />
    <glyph glyph-name="ugrave" unicode="&#xf9;" horiz-adv-x="1241" 
d="M793 1178h-175l-299 266l234 45zM854 1059h250v-1059h-250v141q-51 -75 -138.5 -120.5t-189.5 -45.5q-173 0 -283 115t-110 295v674h242v-625q0 -108 62.5 -177t160.5 -69t171 58t85 143v670z" />
    <glyph glyph-name="uacute" unicode="&#xfa;" horiz-adv-x="1241" 
d="M895 1444l-299 -266h-174l240 311zM854 1059h250v-1059h-250v141q-51 -75 -138.5 -120.5t-189.5 -45.5q-173 0 -283 115t-110 295v674h242v-625q0 -108 62.5 -177t160.5 -69t171 58t85 143v670z" />
    <glyph glyph-name="ucircumflex" unicode="&#xfb;" horiz-adv-x="1241" 
d="M618 1339l-155 -161h-162l211 295h213l215 -295h-164zM854 1059h250v-1059h-250v141q-51 -75 -138.5 -120.5t-189.5 -45.5q-173 0 -283 115t-110 295v674h242v-625q0 -108 62.5 -177t160.5 -69t171 58t85 143v670z" />
    <glyph glyph-name="udieresis" unicode="&#xfc;" horiz-adv-x="1241" 
d="M408 1204q-54 0 -90.5 37.5t-36.5 91.5q0 51 37 89t90 38q52 0 89.5 -38.5t37.5 -88.5q0 -54 -37 -91.5t-90 -37.5zM829 1204q-55 0 -92 37.5t-37 91.5q0 51 37.5 89t91.5 38q52 0 89.5 -38.5t37.5 -88.5q0 -54 -37 -91.5t-90 -37.5zM854 1059h250v-1059h-250v141
q-51 -75 -138.5 -120.5t-189.5 -45.5q-173 0 -283 115t-110 295v674h242v-625q0 -108 62.5 -177t160.5 -69t171 58t85 143v670z" />
    <glyph glyph-name="yacute" unicode="&#xfd;" horiz-adv-x="1226" 
d="M418 1178l239 311l234 -45l-299 -266h-174zM352 -369q-130 0 -231 56l53 180q70 -39 135 -39q92 0 135 70l45 94l-448 1067h264l309 -791l291 791h258l-448 -1133q-116 -292 -363 -295z" />
    <glyph glyph-name="thorn" unicode="&#xfe;" 
d="M762 1083q211 0 348 -155.5t137 -397.5q0 -244 -137 -399.5t-348 -155.5q-117 0 -211 50.5t-158 142.5v-520h-250v1784h250v-541q64 92 158 142t211 50zM694 188q133 0 219 96.5t86 245.5t-85.5 244.5t-219.5 95.5q-132 0 -215.5 -95.5t-83.5 -244.5q0 -150 83.5 -246
t215.5 -96z" />
    <glyph glyph-name="ydieresis" unicode="&#xff;" horiz-adv-x="1226" 
d="M403 1204q-54 0 -90.5 37.5t-36.5 91.5q0 51 37 89t90 38q52 0 89.5 -38.5t37.5 -88.5q0 -54 -37 -91.5t-90 -37.5zM825 1204q-55 0 -92 37.5t-37 91.5q0 51 37.5 89t91.5 38q52 0 89.5 -38.5t37.5 -88.5q0 -54 -37 -91.5t-90 -37.5zM352 -369q-130 0 -231 56l53 180
q70 -39 135 -39q92 0 135 70l45 94l-448 1067h264l309 -791l291 791h258l-448 -1133q-116 -292 -363 -295z" />
    <glyph glyph-name="Amacron" unicode="&#x100;" horiz-adv-x="1540" 
d="M1112 1702v-154h-684v154h684zM1217 0l-107 254h-680l-106 -254h-285l588 1407h284l588 -1407h-282zM522 475h496l-248 592z" />
    <glyph glyph-name="amacron" unicode="&#x101;" horiz-adv-x="1185" 
d="M952 1354v-154h-684v154h684zM598 1083q209 0 332 -122t123 -324v-637h-244v127q-57 -72 -148 -112t-186 -40q-171 0 -283 93t-112 245q0 154 125 253.5t307 99.5q147 0 297 -58v29q0 48 -14 90t-43 77t-81 55t-122 20q-127 0 -287 -80l-86 174q223 110 422 110zM530 158
q97 0 177.5 46.5t101.5 127.5v119q-118 41 -260 41q-95 0 -160 -48t-65 -122t58 -119t148 -45z" />
    <glyph glyph-name="Abreve" unicode="&#x102;" horiz-adv-x="1540" 
d="M1090 1675q-133 -133 -320 -133q-183 0 -319 133l118 119q88 -88 201 -88t201 88zM1217 0l-107 254h-680l-106 -254h-285l588 1407h284l588 -1407h-282zM522 475h496l-248 592z" />
    <glyph glyph-name="abreve" unicode="&#x103;" horiz-adv-x="1185" 
d="M930 1327q-133 -133 -320 -133q-183 0 -319 133l119 119q88 -88 200 -88q113 0 201 88zM598 1083q209 0 332 -122t123 -324v-637h-244v127q-57 -72 -148 -112t-186 -40q-171 0 -283 93t-112 245q0 154 125 253.5t307 99.5q147 0 297 -58v29q0 48 -14 90t-43 77t-81 55
t-122 20q-127 0 -287 -80l-86 174q223 110 422 110zM530 158q97 0 177.5 46.5t101.5 127.5v119q-118 41 -260 41q-95 0 -160 -48t-65 -122t58 -119t148 -45z" />
    <glyph glyph-name="Aogonek" unicode="&#x104;" horiz-adv-x="1540" 
d="M1585 -162l57 -129q-76 -63 -180 -63q-101 0 -163 61t-62 164q0 73 43 129h-63l-107 254h-680l-106 -254h-285l588 1407h284l588 -1407h2q-44 0 -73 -28t-29 -72t27.5 -69.5t76.5 -25.5t82 33zM522 475h496l-248 592z" />
    <glyph glyph-name="aogonek" unicode="&#x105;" horiz-adv-x="1185" 
d="M1137 -162l57 -129q-76 -63 -180 -63q-101 0 -163.5 61t-62.5 164q0 73 43 129h-22v127q-57 -72 -148 -112t-186 -40q-171 0 -283 93t-112 245q0 154 125 253.5t307 99.5q147 0 297 -58v29q0 48 -14 90t-43 77t-81 55t-122 20q-127 0 -287 -80l-86 174q223 110 422 110
q209 0 332 -122t123 -324v-637q-45 0 -74 -28t-29 -72t28 -69.5t77 -25.5t82 33zM530 158q97 0 177.5 46.5t101.5 127.5v119q-118 41 -260 41q-95 0 -160 -48t-65 -122t58 -119t148 -45z" />
    <glyph glyph-name="Cacute" unicode="&#x106;" horiz-adv-x="1413" 
d="M590 1526l239 311l234 -45l-299 -266h-174zM831 -25q-197 0 -367.5 99.5t-271 268t-100.5 362.5q0 145 59.5 279.5t159 232.5t236 156.5t284.5 58.5q152 0 289.5 -60.5t241.5 -167.5l-182 -170q-66 76 -157.5 120t-191.5 44q-128 0 -238.5 -67t-175.5 -180.5t-65 -245.5
q0 -99 38.5 -191t103 -158.5t153 -106.5t184.5 -40q101 0 192.5 43.5t158.5 120.5l180 -168q-103 -108 -241 -169t-290 -61z" />
    <glyph glyph-name="cacute" unicode="&#x107;" horiz-adv-x="1118" 
d="M412 1178l239 311l234 -45l-299 -266h-174zM647 -25q-150 0 -280.5 75.5t-207.5 203.5t-77 276q0 111 46 213t122.5 176.5t181.5 119t219 44.5q117 0 221 -46t181 -126l-168 -147q-44 48 -107 77t-129 29q-130 0 -224.5 -101t-94.5 -239q0 -140 94.5 -241t224.5 -101
q69 0 133 30t109 81l168 -145q-168 -179 -412 -179z" />
    <glyph glyph-name="Ccaron" unicode="&#x10c;" horiz-adv-x="1413" 
d="M680 1526l-211 295h162l155 -160l158 160h164l-215 -295h-213zM831 -25q-197 0 -367.5 99.5t-271 268t-100.5 362.5q0 145 59.5 279.5t159 232.5t236 156.5t284.5 58.5q152 0 289.5 -60.5t241.5 -167.5l-182 -170q-66 76 -157.5 120t-191.5 44q-128 0 -238.5 -67
t-175.5 -180.5t-65 -245.5q0 -99 38.5 -191t103 -158.5t153 -106.5t184.5 -40q101 0 192.5 43.5t158.5 120.5l180 -168q-103 -108 -241 -169t-290 -61z" />
    <glyph glyph-name="ccaron" unicode="&#x10d;" horiz-adv-x="1118" 
d="M502 1178l-211 295h162l155 -160l158 160h164l-215 -295h-213zM647 -25q-150 0 -280.5 75.5t-207.5 203.5t-77 276q0 111 46 213t122.5 176.5t181.5 119t219 44.5q117 0 221 -46t181 -126l-168 -147q-44 48 -107 77t-129 29q-130 0 -224.5 -101t-94.5 -239
q0 -140 94.5 -241t224.5 -101q69 0 133 30t109 81l168 -145q-168 -179 -412 -179z" />
    <glyph glyph-name="Dcaron" unicode="&#x10e;" horiz-adv-x="1558" 
d="M553 1526l-211 295h162l155 -160l158 160h164l-215 -295h-213zM164 0v1407h495q172 0 319.5 -52t251.5 -144t163 -223t59 -283q0 -204 -100.5 -364.5t-281.5 -250.5t-411 -90h-495zM420 231h266q222 0 364 133.5t142 340.5t-141.5 339t-364.5 132h-266v-945z" />
    <glyph glyph-name="dcaron" unicode="&#x10f;" 
d="M942 895v537h250v-1432h-250v164q-64 -91 -158 -140t-209 -49q-211 0 -348 155.5t-137 399.5q0 242 137 397.5t348 155.5q234 0 367 -188zM1460 1432q60 0 97.5 -50.5t37.5 -128.5q0 -64 -36.5 -130t-120.5 -156l-76 57q76 72 94 154q-51 0 -87 37t-36 90q0 51 37.5 89
t89.5 38zM643 188q132 0 215.5 96t83.5 246q0 149 -83.5 244.5t-215.5 95.5q-134 0 -219.5 -95.5t-85.5 -244.5t86 -245.5t219 -96.5z" />
    <glyph glyph-name="Dcroat" unicode="&#x110;" horiz-adv-x="1628" 
d="M727 1407q172 0 319.5 -52t251.5 -144t163 -223t59 -283q0 -204 -100.5 -364.5t-281.5 -250.5t-411 -90h-496v596h-147v233h147v578h496zM754 231q222 0 364 133.5t142 340.5t-141.5 339t-364.5 132h-267v-347h353l-2 -233h-351v-365h267z" />
    <glyph glyph-name="dcroat" unicode="&#x111;" horiz-adv-x="1384" 
d="M1319 1317v-135h-127v-1182h-250v164q-64 -91 -158 -140t-209 -49q-211 0 -348 155.5t-137 399.5q0 242 137 397.5t348 155.5q234 0 367 -188v287h-324v135h324v115h250v-115h127zM643 188q132 0 215.5 96t83.5 246q0 149 -83.5 244.5t-215.5 95.5q-134 0 -219.5 -95.5
t-85.5 -244.5t86 -245.5t219 -96.5z" />
    <glyph glyph-name="Emacron" unicode="&#x112;" horiz-adv-x="1304" 
d="M1018 1702v-154h-684v154h684zM1204 1174h-803v-340h727v-234h-727v-367h803v-233h-1059v1407h1059v-233z" />
    <glyph glyph-name="emacron" unicode="&#x113;" horiz-adv-x="1216" 
d="M961 1354v-154h-685v154h685zM631 197q74 0 152 30t122 76l158 -164q-68 -72 -190.5 -118t-239.5 -46q-151 0 -277 70.5t-201 199t-75 287.5q0 236 155.5 393.5t382.5 157.5q244 0 381.5 -171.5t137.5 -467.5h-799q24 -111 102.5 -179t190.5 -68zM629 862
q-104 0 -182.5 -61.5t-106.5 -165.5h557q-23 104 -91 165.5t-177 61.5z" />
    <glyph glyph-name="Edotaccent" unicode="&#x116;" horiz-adv-x="1304" 
d="M676 1552q-54 0 -90.5 37.5t-36.5 91.5q0 51 37 89t90 38q52 0 89.5 -38.5t37.5 -88.5q0 -54 -37 -91.5t-90 -37.5zM1204 1174h-803v-340h727v-234h-727v-367h803v-233h-1059v1407h1059v-233z" />
    <glyph glyph-name="edotaccent" unicode="&#x117;" horiz-adv-x="1216" 
d="M618 1204q-54 0 -90 37.5t-36 91.5q0 51 36.5 89t89.5 38q52 0 89.5 -38.5t37.5 -88.5q0 -54 -37 -91.5t-90 -37.5zM631 197q74 0 152 30t122 76l158 -164q-68 -72 -190.5 -118t-239.5 -46q-151 0 -277 70.5t-201 199t-75 287.5q0 236 155.5 393.5t382.5 157.5
q244 0 381.5 -171.5t137.5 -467.5h-799q24 -111 102.5 -179t190.5 -68zM629 862q-104 0 -182.5 -61.5t-106.5 -165.5h557q-23 104 -91 165.5t-177 61.5z" />
    <glyph glyph-name="Eogonek" unicode="&#x118;" horiz-adv-x="1304" 
d="M1149 -162l57 -129q-76 -63 -180 -63q-101 0 -163 61t-62 164q0 73 43 129h-699v1407h1059v-233h-803v-340h727v-234h-727v-367h803v-233h-139q-44 0 -73 -28t-29 -72t27.5 -69.5t76.5 -25.5t82 33z" />
    <glyph glyph-name="eogonek" unicode="&#x119;" horiz-adv-x="1214" 
d="M1063 139q-76 -82 -219 -129q-25 -29 -25 -67q0 -44 28 -69.5t77 -25.5t82 33l57 -129q-76 -63 -180 -63q-101 0 -163.5 61t-62.5 164q0 20 9 61h-33q-151 0 -277 70.5t-201 199t-75 287.5q0 236 155.5 393.5t382.5 157.5q244 0 381.5 -171.5t137.5 -467.5h-799
q24 -111 102.5 -179t190.5 -68q74 0 152 30t122 76zM629 862q-104 0 -182.5 -61.5t-106.5 -165.5h557q-23 104 -91 165.5t-177 61.5z" />
    <glyph glyph-name="Ecaron" unicode="&#x11a;" horiz-adv-x="1304" 
d="M782 1526h-213l-211 295h162l156 -160l158 160h163zM1204 1174h-803v-340h727v-234h-727v-367h803v-233h-1059v1407h1059v-233z" />
    <glyph glyph-name="ecaron" unicode="&#x11b;" horiz-adv-x="1216" 
d="M725 1178h-213l-211 295h162l155 -160l158 160h164zM631 197q74 0 152 30t122 76l158 -164q-68 -72 -190.5 -118t-239.5 -46q-151 0 -277 70.5t-201 199t-75 287.5q0 236 155.5 393.5t382.5 157.5q244 0 381.5 -171.5t137.5 -467.5h-799q24 -111 102.5 -179t190.5 -68z
M629 862q-104 0 -182.5 -61.5t-106.5 -165.5h557q-23 104 -91 165.5t-177 61.5z" />
    <glyph glyph-name="Gbreve" unicode="&#x11e;" horiz-adv-x="1521" 
d="M1155 1675q-133 -133 -319 -133q-184 0 -320 133l119 119q88 -88 201 -88q112 0 200 88zM795 565v209h600v-569q-101 -105 -253 -167.5t-306 -62.5q-148 0 -285.5 59t-238 157.5t-160.5 233.5t-60 280t60 279.5t160.5 232.5t238 156.5t285.5 58.5q155 0 306.5 -61.5
t252.5 -166.5l-183 -170q-65 75 -168.5 119.5t-207.5 44.5q-129 0 -240.5 -67t-177.5 -180.5t-66 -245.5q0 -133 66 -247.5t177.5 -181.5t240.5 -67q80 0 161.5 26.5t147.5 73.5v256h-350z" />
    <glyph glyph-name="gbreve" unicode="&#x11f;" horiz-adv-x="1318" 
d="M1001 1327q-133 -133 -319 -133q-184 0 -320 133l119 119q88 -88 201 -88t201 88zM926 1059h250v-946q0 -204 -155 -334.5t-398 -130.5q-133 0 -253.5 38.5t-201.5 102.5l92 182q55 -51 143.5 -80.5t182.5 -29.5q157 0 248.5 70t91.5 190v137q-64 -86 -157 -133t-206 -47
q-206 0 -341.5 142t-135.5 362t135 360.5t342 140.5q112 0 209 -48.5t154 -133.5v158zM635 291q127 0 209 81.5t82 209.5q0 126 -82 207t-209 81q-126 0 -207.5 -81t-81.5 -207q0 -127 81.5 -209t207.5 -82z" />
    <glyph glyph-name="Gcommaaccent" unicode="&#x122;" horiz-adv-x="1521" 
d="M795 565v209h600v-569q-101 -105 -253 -167.5t-306 -62.5q-148 0 -285.5 59t-238 157.5t-160.5 233.5t-60 280t60 279.5t160.5 232.5t238 156.5t285.5 58.5q155 0 306.5 -61.5t252.5 -166.5l-183 -170q-65 75 -168.5 119.5t-207.5 44.5q-129 0 -240.5 -67t-177.5 -180.5
t-66 -245.5q0 -133 66 -247.5t177.5 -181.5t240.5 -67q80 0 161.5 26.5t147.5 73.5v256h-350zM829 -119q60 0 98 -50t38 -128q0 -64 -37 -130.5t-121 -156.5l-76 58q76 73 94 153q-51 0 -87 37t-36 90q0 51 37.5 89t89.5 38z" />
    <glyph glyph-name="gcommaaccent" unicode="&#x123;" horiz-adv-x="1318" 
d="M645 1204q-60 0 -97.5 50t-37.5 128q0 64 37 130.5t121 156.5l75 -57q-76 -72 -94 -154q51 0 87 -37t36 -90q0 -51 -37.5 -89t-89.5 -38zM926 1059h250v-946q0 -204 -155 -334.5t-398 -130.5q-133 0 -253.5 38.5t-201.5 102.5l92 182q55 -51 143.5 -80.5t182.5 -29.5
q157 0 248.5 70t91.5 190v137q-64 -86 -157 -133t-206 -47q-206 0 -341.5 142t-135.5 362t135 360.5t342 140.5q112 0 209 -48.5t154 -133.5v158zM635 291q127 0 209 81.5t82 209.5q0 126 -82 207t-209 81q-126 0 -207.5 -81t-81.5 -207q0 -127 81.5 -209t207.5 -82z" />
    <glyph glyph-name="Imacron" unicode="&#x12a;" horiz-adv-x="552" 
d="M-66 1548v154h684v-154h-684zM150 0v1407h253v-1407h-253z" />
    <glyph glyph-name="imacron" unicode="&#x12b;" horiz-adv-x="526" 
d="M-78 1200v154h684v-154h-684zM137 0v1059h250v-1059h-250z" />
    <glyph glyph-name="Iogonek" unicode="&#x12e;" horiz-adv-x="552" 
d="M463 -162l57 -129q-76 -63 -180 -63q-101 0 -163 61t-62 164q0 73 43 129h-8v1407h253v-1407h-24q-45 0 -74 -28t-29 -72t28 -69.5t77 -25.5t82 33z" />
    <glyph glyph-name="iogonek" unicode="&#x12f;" horiz-adv-x="526" 
d="M264 1204q-54 0 -90.5 37.5t-36.5 91.5q0 51 37 89t90 38q52 0 89.5 -38.5t37.5 -88.5q0 -54 -37 -91.5t-90 -37.5zM348 -162l58 -129q-76 -63 -181 -63q-101 0 -163 61t-62 164q0 60 29 108.5t77 75.5l31 -10v1014h250v-1059h-123q-44 0 -73 -28t-29 -72t27.5 -69.5
t76.5 -25.5t82 33z" />
    <glyph glyph-name="Idotaccent" unicode="&#x130;" horiz-adv-x="552" 
d="M276 1552q-54 0 -90 37.5t-36 91.5q0 51 36.5 89t89.5 38q52 0 89.5 -38.5t37.5 -88.5q0 -54 -37 -91.5t-90 -37.5zM150 0v1407h253v-1407h-253z" />
    <glyph glyph-name="dotlessi" unicode="&#x131;" horiz-adv-x="526" 
d="M137 0v1059h250v-1059h-250z" />
    <glyph glyph-name="Kcommaaccent" unicode="&#x136;" horiz-adv-x="1404" 
d="M162 0v1407h256v-688l616 688h314l-564 -621l605 -786h-316l-465 606l-190 -205v-401h-256zM702 -584l-75 58q76 73 94 153q-51 0 -87 37t-36 90q0 51 37.5 89t89.5 38q60 0 97.5 -50t37.5 -128q0 -64 -37 -130.5t-121 -156.5z" />
    <glyph glyph-name="kcommaaccent" unicode="&#x137;" horiz-adv-x="1150" 
d="M1137 1059l-437 -473l422 -586h-291l-299 422l-149 -158v-264h-250v1432h250v-875l459 502h295zM594 -119q60 0 97.5 -50t37.5 -128q0 -64 -37 -130.5t-121 -156.5l-75 58q76 73 94 153q-51 0 -87 37t-36 90q0 51 37.5 89t89.5 38z" />
    <glyph glyph-name="Lacute" unicode="&#x139;" horiz-adv-x="1171" 
d="M641 1792l-299 -266h-174l240 311zM387 233h723v-233h-977v1407h254v-1174z" />
    <glyph glyph-name="lacute" unicode="&#x13a;" horiz-adv-x="526" 
d="M174 1550l240 312l233 -45l-299 -267h-174zM137 0v1432h250v-1432h-250z" />
    <glyph glyph-name="Lcaron" unicode="&#x13d;" horiz-adv-x="1171" 
d="M651 1178q-51 0 -87 37t-36 90q0 51 37.5 89t89.5 38q60 0 98 -50.5t38 -128.5q0 -64 -37 -130t-121 -156l-76 57q76 72 94 154zM387 233h723v-233h-977v1407h254v-1174z" />
    <glyph glyph-name="lcaron" unicode="&#x13e;" horiz-adv-x="526" 
d="M137 0v1432h250v-1432h-250zM633 967l-76 57q76 72 94 154q-51 0 -87 37t-36 90q0 51 37.5 89t89.5 38q60 0 98 -50.5t38 -128.5q0 -64 -37 -130t-121 -156z" />
    <glyph glyph-name="Lslash" unicode="&#x141;" horiz-adv-x="1255" 
d="M473 233h723v-233h-977v514l-160 -80v228l160 79v666h254v-537l254 129v-229l-254 -127v-410z" />
    <glyph glyph-name="lslash" unicode="&#x142;" horiz-adv-x="692" 
d="M631 950v-229l-166 -84v-637h-250v512l-156 -78v228l156 77v693h250v-566z" />
    <glyph glyph-name="Nacute" unicode="&#x143;" horiz-adv-x="1581" 
d="M594 1526l240 311l233 -45l-299 -266h-174zM164 0v1407h256l743 -989v989h254v-1407h-254l-743 989v-989h-256z" />
    <glyph glyph-name="nacute" unicode="&#x144;" horiz-adv-x="1241" 
d="M926 1444l-299 -266h-174l239 311zM715 1083q173 0 283 -114.5t110 -294.5v-674h-242v625q0 107 -62.5 176t-160.5 69t-171 -57.5t-85 -142.5v-670h-250v1059h250v-141q50 75 138 120t190 45z" />
    <glyph glyph-name="Ncommaaccent" unicode="&#x145;" horiz-adv-x="1581" 
d="M164 0v1407h256l743 -989v989h254v-1407h-254l-743 989v-989h-256zM768 -584l-76 58q76 73 94 153q-51 0 -86.5 37t-35.5 90q0 51 37.5 89t89.5 38q60 0 97.5 -50t37.5 -128q0 -64 -37 -130.5t-121 -156.5z" />
    <glyph glyph-name="ncommaaccent" unicode="&#x146;" horiz-adv-x="1241" 
d="M715 1083q173 0 283 -114.5t110 -294.5v-674h-242v625q0 107 -62.5 176t-160.5 69t-171 -57.5t-85 -142.5v-670h-250v1059h250v-141q50 75 138 120t190 45zM649 -119q60 0 97.5 -50t37.5 -128q0 -64 -36.5 -130.5t-120.5 -156.5l-76 58q76 73 94 153q-51 0 -87 37t-36 90
q0 51 37.5 89t89.5 38z" />
    <glyph glyph-name="Ncaron" unicode="&#x147;" horiz-adv-x="1581" 
d="M684 1526l-211 295h162l156 -160l157 160h164l-215 -295h-213zM164 0v1407h256l743 -989v989h254v-1407h-254l-743 989v-989h-256z" />
    <glyph glyph-name="ncaron" unicode="&#x148;" horiz-adv-x="1241" 
d="M756 1178h-213l-211 295h162l155 -160l158 160h164zM715 1083q173 0 283 -114.5t110 -294.5v-674h-242v625q0 107 -62.5 176t-160.5 69t-171 -57.5t-85 -142.5v-670h-250v1059h250v-141q50 75 138 120t190 45z" />
    <glyph glyph-name="Omacron" unicode="&#x14c;" horiz-adv-x="1658" 
d="M489 1548v154h685v-154h-685zM831 -25q-197 0 -367.5 99.5t-271 268t-100.5 362.5q0 145 59.5 279.5t159 232.5t236 156.5t284.5 58.5q147 0 283.5 -58.5t236 -156.5t159 -232.5t59.5 -279.5t-59.5 -280t-159 -233.5t-236 -157.5t-283.5 -59zM831 209q95 0 183 40
t152 106.5t102.5 158.5t38.5 191q0 132 -64.5 245.5t-174.5 180.5t-237 67q-128 0 -238.5 -67t-175.5 -180.5t-65 -245.5q0 -99 38.5 -191t103 -158.5t153 -106.5t184.5 -40z" />
    <glyph glyph-name="omacron" unicode="&#x14d;" horiz-adv-x="1296" 
d="M307 1200v154h684v-154h-684zM649 -25q-151 0 -282 75.5t-208 203.5t-77 276t77 275.5t208 202.5t282 75t282 -75t208.5 -202.5t77.5 -275.5t-77.5 -276t-208.5 -203.5t-282 -75.5zM649 188q131 0 226.5 101.5t95.5 240.5q0 138 -95.5 239t-226.5 101q-132 0 -227.5 -101
t-95.5 -239q0 -140 95.5 -241t227.5 -101z" />
    <glyph glyph-name="Ohungarumlaut" unicode="&#x150;" horiz-adv-x="1658" 
d="M494 1526l239 311l234 -45l-299 -266h-174zM950 1526l242 309l231 -45l-299 -264h-174zM831 -25q-197 0 -367.5 99.5t-271 268t-100.5 362.5q0 145 59.5 279.5t159 232.5t236 156.5t284.5 58.5q147 0 283.5 -58.5t236 -156.5t159 -232.5t59.5 -279.5t-59.5 -280
t-159 -233.5t-236 -157.5t-283.5 -59zM831 209q95 0 183 40t152 106.5t102.5 158.5t38.5 191q0 132 -64.5 245.5t-174.5 180.5t-237 67q-128 0 -238.5 -67t-175.5 -180.5t-65 -245.5q0 -99 38.5 -191t103 -158.5t153 -106.5t184.5 -40z" />
    <glyph glyph-name="ohungarumlaut" unicode="&#x151;" horiz-adv-x="1296" 
d="M322 1178l239 311l234 -45l-299 -266h-174zM778 1178l242 309l231 -45l-299 -264h-174zM649 -25q-151 0 -282 75.5t-208 203.5t-77 276t77 275.5t208 202.5t282 75t282 -75t208.5 -202.5t77.5 -275.5t-77.5 -276t-208.5 -203.5t-282 -75.5zM649 188q131 0 226.5 101.5
t95.5 240.5q0 138 -95.5 239t-226.5 101q-132 0 -227.5 -101t-95.5 -239q0 -140 95.5 -241t227.5 -101z" />
    <glyph glyph-name="OE" unicode="&#x152;" horiz-adv-x="2125" 
d="M2025 1174h-802v-340h727v-234h-727v-367h802v-233h-1194q-199 0 -368 89.5t-270 249.5t-101 353q0 116 38 225.5t107 197t160 154t203.5 102.5t230.5 36h1194v-233zM831 233h136v941h-136q-128 0 -238.5 -64t-175.5 -175.5t-65 -242.5q0 -132 65.5 -238t174.5 -163.5
t239 -57.5z" />
    <glyph glyph-name="oe" unicode="&#x153;" horiz-adv-x="2109" 
d="M1526 197q74 0 152 30t122 76l158 -164q-68 -72 -190.5 -118t-239.5 -46q-132 0 -246.5 56t-191.5 155q-79 -98 -195 -154.5t-246 -56.5q-151 0 -282 75.5t-208 203.5t-77 276t77 275.5t208 202.5t282 75q128 0 243.5 -55t194.5 -151q74 97 185 151.5t241 54.5
q244 0 381.5 -171.5t137.5 -467.5h-799q24 -111 102.5 -179t190.5 -68zM649 188q131 0 226.5 101.5t95.5 240.5q0 138 -95.5 239t-226.5 101q-132 0 -227.5 -101t-95.5 -239q0 -140 95.5 -241t227.5 -101zM1524 862q-104 0 -182.5 -61.5t-106.5 -165.5h557
q-23 104 -91 165.5t-177 61.5z" />
    <glyph glyph-name="Racute" unicode="&#x154;" horiz-adv-x="1370" 
d="M967 1792l-299 -266h-174l239 311zM1296 0h-290l-332 473h-273v-473h-256v1407h613q227 0 376.5 -131.5t149.5 -335.5q0 -157 -92.5 -274.5t-247.5 -165.5zM401 1171v-462h328q132 0 213.5 62.5t81.5 168.5t-81.5 168.5t-213.5 62.5h-328z" />
    <glyph glyph-name="racute" unicode="&#x155;" horiz-adv-x="819" 
d="M741 1444l-299 -266h-174l240 311zM393 854q52 107 151 168t228 61v-213q-170 0 -274.5 -92t-104.5 -243v-535h-250v1059h250v-205z" />
    <glyph glyph-name="Rcommaaccent" unicode="&#x156;" horiz-adv-x="1370" 
d="M944 500l352 -500h-290l-332 473h-273v-473h-256v1407h613q227 0 376.5 -131.5t149.5 -335.5q0 -157 -92.5 -274.5t-247.5 -165.5zM401 1171v-462h328q132 0 213.5 62.5t81.5 168.5t-81.5 168.5t-213.5 62.5h-328zM678 -119q60 0 97.5 -50t37.5 -128q0 -64 -37 -130.5
t-121 -156.5l-75 58q76 73 94 153q-51 0 -87 37t-36 90q0 51 37.5 89t89.5 38z" />
    <glyph glyph-name="rcommaaccent" unicode="&#x157;" horiz-adv-x="819" 
d="M393 854q52 107 151 168t228 61v-213q-170 0 -274.5 -92t-104.5 -243v-535h-250v1059h250v-205zM365 -119q60 0 97.5 -50t37.5 -128q0 -64 -37 -130.5t-121 -156.5l-76 58q76 73 94 153q-51 0 -86.5 37t-35.5 90q0 51 37.5 89t89.5 38z" />
    <glyph glyph-name="Rcaron" unicode="&#x158;" horiz-adv-x="1370" 
d="M797 1526h-213l-211 295h162l155 -160l158 160h164zM1296 0h-290l-332 473h-273v-473h-256v1407h613q227 0 376.5 -131.5t149.5 -335.5q0 -157 -92.5 -274.5t-247.5 -165.5zM401 1171v-462h328q132 0 213.5 62.5t81.5 168.5t-81.5 168.5t-213.5 62.5h-328z" />
    <glyph glyph-name="rcaron" unicode="&#x159;" horiz-adv-x="819" 
d="M571 1178h-213l-211 295h162l156 -160l158 160h163zM393 854q52 107 151 168t228 61v-213q-170 0 -274.5 -92t-104.5 -243v-535h-250v1059h250v-205z" />
    <glyph glyph-name="Sacute" unicode="&#x15a;" horiz-adv-x="1282" 
d="M428 1526l240 311l233 -45l-299 -266h-174zM666 -23q-358 0 -603 228l148 182q209 -190 463 -190q125 0 194.5 53.5t69.5 132.5q0 83 -71.5 124.5t-254.5 84.5q-96 23 -164 44.5t-134 55.5t-106 75.5t-64.5 102.5t-24.5 138q0 185 142 305.5t364 120.5q302 0 532 -197
l-139 -188q-191 165 -404 165q-103 0 -170 -54t-67 -130q0 -81 73.5 -123.5t254.5 -83.5q94 -21 164 -44t134 -57t104 -76.5t63.5 -102.5t23.5 -135q0 -193 -140.5 -312t-387.5 -119z" />
    <glyph glyph-name="sacute" unicode="&#x15b;" horiz-adv-x="1024" 
d="M315 1178l240 311l233 -45l-299 -266h-174zM528 -25q-123 0 -245.5 42t-216.5 118l112 174q170 -123 354 -123q76 0 123 30t47 79q0 20 -6.5 36.5t-22.5 29.5t-31 22.5t-44.5 20t-50 16.5t-58.5 16q-94 24 -156.5 48t-115.5 60t-78 86.5t-26 119.5q0 149 111 241t288 92
q214 0 406 -127l-105 -182q-152 96 -301 96q-68 0 -112 -25.5t-44 -68.5q0 -48 42.5 -72.5t174.5 -62.5q46 -13 77 -22.5t73.5 -26t71 -33t59 -42t48.5 -54.5t30 -68.5t12 -85.5q0 -152 -114.5 -243t-301.5 -91z" />
    <glyph glyph-name="Scedilla" unicode="&#x15e;" horiz-adv-x="1282" 
d="M1194 408q0 -183 -127 -299.5t-352 -128.5l-31 -70h10q65 0 106.5 -38.5t41.5 -98.5q0 -78 -60.5 -125t-154.5 -47q-55 0 -105.5 16t-83.5 43l49 107q60 -48 127 -48q39 0 65 19t26 49q0 27 -18 43t-52 16q-37 0 -64 -20l-41 41l48 115q-300 24 -515 223l148 182
q209 -190 463 -190q125 0 194.5 53.5t69.5 132.5q0 83 -71.5 124.5t-254.5 84.5q-96 23 -164 44.5t-134 55.5t-106 75.5t-64.5 102.5t-24.5 138q0 185 142 305.5t364 120.5q302 0 532 -197l-139 -188q-191 165 -404 165q-103 0 -170 -54t-67 -130q0 -81 73.5 -123.5
t254.5 -83.5q94 -21 164 -44t134 -57t104 -76.5t63.5 -102.5t23.5 -135z" />
    <glyph glyph-name="scedilla" unicode="&#x15f;" horiz-adv-x="1024" 
d="M944 309q0 -139 -98 -228.5t-260 -103.5l-31 -67h10q65 0 106.5 -38.5t41.5 -98.5q0 -78 -60.5 -125t-154.5 -47q-55 0 -105.5 16t-83.5 43l49 107q60 -48 127 -48q39 0 64.5 19t25.5 49q0 27 -17.5 43t-51.5 16q-37 0 -64 -20l-41 41l48 113q-224 26 -383 155l112 174
q170 -123 354 -123q76 0 123 30t47 79q0 20 -6.5 36.5t-22.5 29.5t-31 22.5t-44.5 20t-50 16.5t-58.5 16q-94 24 -156.5 48t-115.5 60t-78 86.5t-26 119.5q0 149 111 241t288 92q214 0 406 -127l-105 -182q-152 96 -301 96q-68 0 -112 -25.5t-44 -68.5q0 -48 42.5 -72.5
t174.5 -62.5q46 -13 77 -22.5t73.5 -26t71 -33t59 -42t48.5 -54.5t30 -68.5t12 -85.5z" />
    <glyph glyph-name="Scaron" unicode="&#x160;" horiz-adv-x="1282" 
d="M518 1526l-211 295h162l156 -160l157 160h164l-215 -295h-213zM666 -23q-358 0 -603 228l148 182q209 -190 463 -190q125 0 194.5 53.5t69.5 132.5q0 83 -71.5 124.5t-254.5 84.5q-96 23 -164 44.5t-134 55.5t-106 75.5t-64.5 102.5t-24.5 138q0 185 142 305.5t364 120.5
q302 0 532 -197l-139 -188q-191 165 -404 165q-103 0 -170 -54t-67 -130q0 -81 73.5 -123.5t254.5 -83.5q94 -21 164 -44t134 -57t104 -76.5t63.5 -102.5t23.5 -135q0 -193 -140.5 -312t-387.5 -119z" />
    <glyph glyph-name="scaron" unicode="&#x161;" horiz-adv-x="1024" 
d="M406 1178l-211 295h161l156 -160l158 160h164l-216 -295h-212zM528 -25q-123 0 -245.5 42t-216.5 118l112 174q170 -123 354 -123q76 0 123 30t47 79q0 20 -6.5 36.5t-22.5 29.5t-31 22.5t-44.5 20t-50 16.5t-58.5 16q-94 24 -156.5 48t-115.5 60t-78 86.5t-26 119.5
q0 149 111 241t288 92q214 0 406 -127l-105 -182q-152 96 -301 96q-68 0 -112 -25.5t-44 -68.5q0 -48 42.5 -72.5t174.5 -62.5q46 -13 77 -22.5t73.5 -26t71 -33t59 -42t48.5 -54.5t30 -68.5t12 -85.5q0 -152 -114.5 -243t-301.5 -91z" />
    <glyph glyph-name="uni0162" unicode="&#x162;" horiz-adv-x="1302" 
d="M778 0h-55l-39 -90h10q65 0 106.5 -38.5t41.5 -98.5q0 -78 -60.5 -125t-154.5 -47q-55 0 -105.5 16t-83.5 43l49 107q60 -48 127 -48q39 0 65 19t26 49q0 27 -18 43t-52 16q-37 0 -64 -20l-41 41l56 133h-62v1174h-450v233h1155v-233h-451v-1174z" />
    <glyph glyph-name="uni0163" unicode="&#x163;" horiz-adv-x="794" 
d="M569 -90q65 0 106.5 -38.5t41.5 -98.5q0 -78 -60.5 -125t-154.5 -47q-55 0 -105.5 16t-83.5 43l49 107q60 -48 127 -48q39 0 65 19t26 49q0 27 -18 43t-52 16q-37 0 -64 -20l-40 41l47 113q-108 20 -174 102t-66 199v571h-154v207h154v291h244v-291h239v-207h-239v-541
q0 -54 29.5 -88.5t74.5 -34.5q66 0 105 39l71 -168q-55 -49 -145 -73l-33 -76h10z" />
    <glyph glyph-name="Tcaron" unicode="&#x164;" horiz-adv-x="1302" 
d="M545 1526l-211 295h162l155 -160l158 160h164l-215 -295h-213zM524 0v1174h-450v233h1155v-233h-451v-1174h-254z" />
    <glyph glyph-name="tcaron" unicode="&#x165;" horiz-adv-x="794" 
d="M963 1432q60 0 97.5 -50.5t37.5 -128.5q0 -64 -37 -130t-121 -156l-76 57q76 72 94 154q-51 0 -86.5 37t-35.5 90q0 51 37.5 89t89.5 38zM561 188q66 0 105 39l71 -168q-45 -39 -105 -61.5t-120 -22.5q-132 0 -215.5 86t-83.5 220v571h-154v207h154v291h244v-291h239
v-207h-239v-541q0 -54 29.5 -88.5t74.5 -34.5z" />
    <glyph glyph-name="Umacron" unicode="&#x16a;" horiz-adv-x="1540" 
d="M428 1548v154h684v-154h-684zM770 -25q-134 0 -249.5 46.5t-196.5 128t-127.5 198t-46.5 252.5v807h256v-799q0 -175 102.5 -288t261.5 -113q161 0 264 113t103 288v799h254v-807q0 -275 -173.5 -450t-447.5 -175z" />
    <glyph glyph-name="umacron" unicode="&#x16b;" horiz-adv-x="1241" 
d="M961 1354v-154h-685v154h685zM854 1059h250v-1059h-250v141q-51 -75 -138.5 -120.5t-189.5 -45.5q-173 0 -283 115t-110 295v674h242v-625q0 -108 62.5 -177t160.5 -69t171 58t85 143v670z" />
    <glyph glyph-name="Uring" unicode="&#x16e;" horiz-adv-x="1540" 
d="M770 1542q-92 0 -158.5 66.5t-66.5 160.5q0 93 66.5 159.5t158.5 66.5q94 0 159.5 -66t65.5 -160t-65.5 -160.5t-159.5 -66.5zM770 1657q46 0 79.5 33t33.5 79t-33.5 79.5t-79.5 33.5t-79.5 -33.5t-33.5 -79.5t33.5 -79t79.5 -33zM770 -25q-134 0 -249.5 46.5t-196.5 128
t-127.5 198t-46.5 252.5v807h256v-799q0 -175 102.5 -288t261.5 -113q161 0 264 113t103 288v799h254v-807q0 -275 -173.5 -450t-447.5 -175z" />
    <glyph glyph-name="uring" unicode="&#x16f;" horiz-adv-x="1241" 
d="M618 1194q-92 0 -158.5 66.5t-66.5 160.5q0 93 66.5 159.5t158.5 66.5q94 0 160 -66t66 -160t-66 -160.5t-160 -66.5zM618 1534q-46 0 -79 -33.5t-33 -79.5t33 -79t79 -33t79.5 33t33.5 79t-33.5 79.5t-79.5 33.5zM854 1059h250v-1059h-250v141q-51 -75 -138.5 -120.5
t-189.5 -45.5q-173 0 -283 115t-110 295v674h242v-625q0 -108 62.5 -177t160.5 -69t171 58t85 143v670z" />
    <glyph glyph-name="Uhungarumlaut" unicode="&#x170;" horiz-adv-x="1540" 
d="M420 1526l239 311l234 -45l-299 -266h-174zM877 1526l241 309l232 -45l-299 -264h-174zM770 -25q-134 0 -249.5 46.5t-196.5 128t-127.5 198t-46.5 252.5v807h256v-799q0 -175 102.5 -288t261.5 -113q161 0 264 113t103 288v799h254v-807q0 -275 -173.5 -450t-447.5 -175
z" />
    <glyph glyph-name="uhungarumlaut" unicode="&#x171;" horiz-adv-x="1241" 
d="M750 1444l-299 -266h-175l240 311zM907 1178h-174l242 309l231 -45zM854 389v670h250v-1059h-250v141q-51 -75 -138.5 -120.5t-189.5 -45.5q-173 0 -283 115t-110 295v674h242v-625q0 -108 62.5 -177t160.5 -69t171 58t85 143z" />
    <glyph glyph-name="Uogonek" unicode="&#x172;" horiz-adv-x="1540" 
d="M1137 1407h254v-807q0 -275 -173.5 -450t-445.5 -175q-33 -30 -33 -75q0 -44 28 -69.5t77 -25.5t82 33l57 -129q-76 -63 -180 -63q-101 0 -163 61t-62 164q0 69 36 121q-211 48 -337.5 212t-126.5 396v807h256v-799q0 -175 102.5 -288t261.5 -113q161 0 264 113t103 288
v799z" />
    <glyph glyph-name="uogonek" unicode="&#x173;" horiz-adv-x="1241" 
d="M1190 -162l57 -129q-76 -63 -180 -63q-101 0 -163 61t-62 164q0 73 43 129h-31v141q-51 -75 -138.5 -120.5t-189.5 -45.5q-173 0 -283 115t-110 295v674h242v-625q0 -108 62.5 -177t160.5 -69t171 58t85 143v670h250v-1059h2q-44 0 -73 -28t-29 -72t27.5 -69.5
t76.5 -25.5t82 33z" />
    <glyph glyph-name="Wcircumflex" unicode="&#x174;" horiz-adv-x="2209" 
d="M788 1526l211 295h213l215 -295h-163l-158 162l-156 -162h-162zM498 0l-447 1407h281l301 -1008l334 1008h278l332 -1008l301 1008h281l-445 -1407h-256l-352 1044l-354 -1044h-254z" />
    <glyph glyph-name="wcircumflex" unicode="&#x175;" horiz-adv-x="1718" 
d="M543 1178l211 295h213l215 -295h-164l-158 161l-155 -161h-162zM408 0l-359 1059h250l221 -723l236 723h209l237 -723l219 723h250l-356 -1059h-228l-227 725l-225 -725h-227z" />
    <glyph glyph-name="Ycircumflex" unicode="&#x176;" horiz-adv-x="1404" 
d="M387 1526l211 295h213l215 -295h-164l-157 162l-156 -162h-162zM573 0v528l-557 879h301l388 -637l393 637h291l-555 -879v-528h-261z" />
    <glyph glyph-name="ycircumflex" unicode="&#x177;" horiz-adv-x="1226" 
d="M297 1178l211 295h213l215 -295h-164l-158 161l-155 -161h-162zM352 -369q-130 0 -231 56l53 180q70 -39 135 -39q92 0 135 70l45 94l-448 1067h264l309 -791l291 791h258l-448 -1133q-116 -292 -363 -295z" />
    <glyph glyph-name="Ydieresis" unicode="&#x178;" horiz-adv-x="1404" 
d="M494 1552q-54 0 -90.5 37.5t-36.5 91.5q0 51 37 89t90 38q52 0 89.5 -38.5t37.5 -88.5q0 -54 -37 -91.5t-90 -37.5zM915 1552q-55 0 -92 37.5t-37 91.5q0 51 37.5 89t91.5 38q52 0 89.5 -38.5t37.5 -88.5q0 -54 -37 -91.5t-90 -37.5zM573 0v528l-557 879h301l388 -637
l393 637h291l-555 -879v-528h-261z" />
    <glyph glyph-name="Zacute" unicode="&#x179;" horiz-adv-x="1337" 
d="M479 1526l240 311l233 -45l-299 -266h-174zM104 0v195l777 979h-762v233h1110v-195l-774 -979h784v-233h-1135z" />
    <glyph glyph-name="zacute" unicode="&#x17a;" horiz-adv-x="1077" 
d="M356 1178l240 311l233 -45l-299 -266h-174zM94 0v182l561 658h-549v219h879l-2 -182l-563 -658h569v-219h-895z" />
    <glyph glyph-name="Zdotaccent" unicode="&#x17b;" horiz-adv-x="1337" 
d="M676 1552q-54 0 -90.5 37.5t-36.5 91.5q0 51 37 89t90 38q52 0 89.5 -38.5t37.5 -88.5q0 -54 -37 -91.5t-90 -37.5zM104 0v195l777 979h-762v233h1110v-195l-774 -979h784v-233h-1135z" />
    <glyph glyph-name="zdotaccent" unicode="&#x17c;" horiz-adv-x="1077" 
d="M553 1204q-54 0 -90.5 37.5t-36.5 91.5q0 51 37 89t90 38q52 0 89.5 -38.5t37.5 -88.5q0 -54 -37 -91.5t-90 -37.5zM94 0v182l561 658h-549v219h879l-2 -182l-563 -658h569v-219h-895z" />
    <glyph glyph-name="Zcaron" unicode="&#x17d;" horiz-adv-x="1337" 
d="M569 1526l-211 295h162l156 -160l158 160h163l-215 -295h-213zM104 0v195l777 979h-762v233h1110v-195l-774 -979h784v-233h-1135z" />
    <glyph glyph-name="zcaron" unicode="&#x17e;" horiz-adv-x="1077" 
d="M446 1178l-210 295h161l156 -160l158 160h163l-215 -295h-213zM94 0v182l561 658h-549v219h879l-2 -182l-563 -658h569v-219h-895z" />
    <glyph glyph-name="uni0237" unicode="&#x237;" horiz-adv-x="526" 
d="M82 -365q-117 0 -197 39l31 191q51 -21 117 -21q46 0 75 34.5t29 88.5v1092h250v-1110q0 -138 -85 -226t-220 -88z" />
    <glyph glyph-name="circumflex" unicode="&#x2c6;" horiz-adv-x="897" 
d="M129 1178l211 295h213l215 -295h-164l-158 161l-155 -161h-162z" />
    <glyph glyph-name="caron" unicode="&#x2c7;" horiz-adv-x="897" 
d="M340 1178l-211 295h162l155 -160l158 160h164l-215 -295h-213z" />
    <glyph glyph-name="breve" unicode="&#x2d8;" horiz-adv-x="897" 
d="M449 1194q-184 0 -320 133l119 119q88 -88 201 -88q112 0 200 88l119 -119q-133 -133 -319 -133z" />
    <glyph glyph-name="dotaccent" unicode="&#x2d9;" horiz-adv-x="512" 
d="M256 1204q-54 0 -90.5 37.5t-36.5 91.5q0 51 37 89t90 38q52 0 89.5 -38.5t37.5 -88.5q0 -54 -37 -91.5t-90 -37.5z" />
    <glyph glyph-name="ring" unicode="&#x2da;" horiz-adv-x="708" 
d="M354 1194q-92 0 -158.5 66.5t-66.5 160.5q0 93 66.5 159.5t158.5 66.5q94 0 160 -66t66 -160t-66 -160.5t-160 -66.5zM354 1309q46 0 79.5 33t33.5 79t-33.5 79.5t-79.5 33.5t-79 -33.5t-33 -79.5t33 -79t79 -33z" />
    <glyph glyph-name="ogonek" unicode="&#x2db;" horiz-adv-x="663" 
d="M354 -354q-101 0 -163 61t-62 164q0 59 29.5 108t77.5 76l157 -55q-44 0 -73 -28t-29 -72t27.5 -69.5t76.5 -25.5t82 33l58 -129q-76 -63 -181 -63z" />
    <glyph glyph-name="tilde" unicode="&#x2dc;" horiz-adv-x="913" 
d="M594 1174q-51 0 -102.5 28.5t-94 57t-71.5 28.5q-73 0 -93 -117l-129 19q30 262 218 262q39 0 80.5 -18t69.5 -39.5t60 -39.5t56 -18q72 0 92 119l131 -20q-31 -262 -217 -262z" />
    <glyph glyph-name="hungarumlaut" unicode="&#x2dd;" horiz-adv-x="1189" 
d="M129 1178l240 311l233 -45l-299 -266h-174zM586 1178l241 309l232 -45l-299 -264h-174z" />
    <glyph glyph-name="uni0326" unicode="&#x326;" horiz-adv-x="0" 
d="M-309 -584l-76 58q76 73 94 153q-51 0 -87 37t-36 90q0 51 37.5 89t89.5 38q60 0 97.5 -50t37.5 -128q0 -64 -36.5 -130.5t-120.5 -156.5z" />
    <glyph glyph-name="Wgrave" unicode="&#x1e80;" horiz-adv-x="2209" 
d="M1022 1526l-299 266l233 45l240 -311h-174zM498 0l-447 1407h281l301 -1008l334 1008h278l332 -1008l301 1008h281l-445 -1407h-256l-352 1044l-354 -1044h-254z" />
    <glyph glyph-name="wgrave" unicode="&#x1e81;" horiz-adv-x="1718" 
d="M776 1178l-299 266l234 45l239 -311h-174zM408 0l-359 1059h250l221 -723l236 723h209l237 -723l219 723h250l-356 -1059h-228l-227 725l-225 -725h-227z" />
    <glyph glyph-name="Wacute" unicode="&#x1e82;" horiz-adv-x="2209" 
d="M1014 1526l239 311l234 -45l-299 -266h-174zM498 0l-447 1407h281l301 -1008l334 1008h278l332 -1008l301 1008h281l-445 -1407h-256l-352 1044l-354 -1044h-254z" />
    <glyph glyph-name="wacute" unicode="&#x1e83;" horiz-adv-x="1718" 
d="M772 1178l240 311l233 -45l-299 -266h-174zM408 0l-359 1059h250l221 -723l236 723h209l237 -723l219 723h250l-356 -1059h-228l-227 725l-225 -725h-227z" />
    <glyph glyph-name="Wdieresis" unicode="&#x1e84;" horiz-adv-x="2209" 
d="M895 1552q-54 0 -90.5 37.5t-36.5 91.5q0 51 37 89t90 38q52 0 89.5 -38.5t37.5 -88.5q0 -54 -37 -91.5t-90 -37.5zM1317 1552q-55 0 -92 37.5t-37 91.5q0 51 37.5 89t91.5 38q52 0 89.5 -38.5t37.5 -88.5q0 -54 -37 -91.5t-90 -37.5zM498 0l-447 1407h281l301 -1008
l334 1008h278l332 -1008l301 1008h281l-445 -1407h-256l-352 1044l-354 -1044h-254z" />
    <glyph glyph-name="wdieresis" unicode="&#x1e85;" horiz-adv-x="1718" 
d="M649 1204q-54 0 -90.5 37.5t-36.5 91.5q0 51 37 89t90 38q52 0 89.5 -38.5t37.5 -88.5q0 -54 -37 -91.5t-90 -37.5zM1071 1204q-55 0 -92 37.5t-37 91.5q0 51 37.5 89t91.5 38q52 0 89.5 -38.5t37.5 -88.5q0 -54 -37 -91.5t-90 -37.5zM408 0l-359 1059h250l221 -723
l236 723h209l237 -723l219 723h250l-356 -1059h-228l-227 725l-225 -725h-227z" />
    <glyph glyph-name="uni1EB8" unicode="&#x1eb8;" horiz-adv-x="1304" 
d="M1204 1174h-803v-340h727v-234h-727v-367h803v-233h-1059v1407h1059v-233zM676 -150q52 0 89.5 -38t37.5 -88q0 -54 -37 -92t-90 -38q-54 0 -90.5 38t-36.5 92q0 50 37 88t90 38z" />
    <glyph glyph-name="uni1EB9" unicode="&#x1eb9;" horiz-adv-x="1214" 
d="M631 197q74 0 152 30t122 76l158 -164q-68 -72 -190.5 -118t-239.5 -46q-151 0 -277 70.5t-201 199t-75 287.5q0 236 155.5 393.5t382.5 157.5q244 0 381.5 -171.5t137.5 -467.5h-799q24 -111 102.5 -179t190.5 -68zM629 862q-104 0 -182.5 -61.5t-106.5 -165.5h557
q-23 104 -91 165.5t-177 61.5zM614 -152q52 0 89.5 -38.5t37.5 -88.5q0 -54 -37 -91.5t-90 -37.5q-54 0 -90.5 37.5t-36.5 91.5q0 51 37 89t90 38z" />
    <glyph glyph-name="uni1EBC" unicode="&#x1ebc;" horiz-adv-x="1304" 
d="M543 1636q-37 0 -59.5 -27.5t-32.5 -88.5l-129 18q30 262 217 262q50 0 101 -28.5t93.5 -57t71.5 -28.5q72 0 92 118l131 -20q-31 -262 -217 -262q-51 0 -102.5 28.5t-94 57t-71.5 28.5zM1204 1174h-803v-340h727v-234h-727v-367h803v-233h-1059v1407h1059v-233z" />
    <glyph glyph-name="uni1EBD" unicode="&#x1ebd;" horiz-adv-x="1216" 
d="M485 1288q-37 0 -59.5 -28t-32.5 -89l-129 19q30 262 217 262q50 0 101.5 -29t94 -57.5t71.5 -28.5q72 0 92 119l131 -20q-31 -262 -217 -262q-40 0 -82 18t-70.5 39t-60.5 39t-56 18zM631 197q74 0 152 30t122 76l158 -164q-68 -72 -190.5 -118t-239.5 -46
q-151 0 -277 70.5t-201 199t-75 287.5q0 236 155.5 393.5t382.5 157.5q244 0 381.5 -171.5t137.5 -467.5h-799q24 -111 102.5 -179t190.5 -68zM629 862q-104 0 -182.5 -61.5t-106.5 -165.5h557q-23 104 -91 165.5t-177 61.5z" />
    <glyph glyph-name="Ygrave" unicode="&#x1ef2;" horiz-adv-x="1404" 
d="M705 1526l-299 266l233 45l240 -311h-174zM573 0v528l-557 879h301l388 -637l393 637h291l-555 -879v-528h-261z" />
    <glyph glyph-name="ygrave" unicode="&#x1ef3;" horiz-adv-x="1226" 
d="M614 1178l-299 266l234 45l239 -311h-174zM352 -369q-130 0 -231 56l53 180q70 -39 135 -39q92 0 135 70l45 94l-448 1067h264l309 -791l291 791h258l-448 -1133q-116 -292 -363 -295z" />
    <glyph glyph-name="endash" unicode="&#x2013;" horiz-adv-x="1173" 
d="M100 455v215h973v-215h-973z" />
    <glyph glyph-name="emdash" unicode="&#x2014;" horiz-adv-x="1798" 
d="M100 455v215h1598v-215h-1598z" />
    <glyph glyph-name="quoteleft" unicode="&#x2018;" horiz-adv-x="579" 
d="M315 1405l99 -74q-96 -96 -119 -192q64 0 110 -48t46 -114q0 -65 -47 -112.5t-113 -47.5q-77 0 -124.5 62.5t-47.5 160.5q0 83 46.5 168.5t149.5 196.5z" />
    <glyph glyph-name="quoteright" unicode="&#x2019;" horiz-adv-x="579" 
d="M264 819l-98 74q96 96 119 192q-64 0 -110 48t-46 114q0 65 47 112.5t113 47.5q77 0 124.5 -62.5t47.5 -160.5q0 -82 -46.5 -168t-150.5 -197z" />
    <glyph glyph-name="quotedblleft" unicode="&#x201c;" horiz-adv-x="1071" 
d="M315 1405l99 -74q-96 -96 -119 -192q64 0 110 -48t46 -114q0 -65 -47 -112.5t-113 -47.5q-77 0 -124.5 62.5t-47.5 160.5q0 83 46.5 168.5t149.5 196.5zM807 1405l98 -74q-96 -96 -119 -192q64 0 110 -48t46 -114q0 -65 -47 -112.5t-113 -47.5q-77 0 -124.5 62.5
t-47.5 160.5q0 82 46.5 168t150.5 197z" />
    <glyph glyph-name="quotedblright" unicode="&#x201d;" horiz-adv-x="1071" 
d="M264 819l-98 74q96 96 119 192q-64 0 -110 48t-46 114q0 65 47 112.5t113 47.5q77 0 124.5 -62.5t47.5 -160.5q0 -82 -46.5 -168t-150.5 -197zM756 819l-99 74q96 96 119 192q-64 0 -109.5 48t-45.5 114q0 65 46.5 112.5t112.5 47.5q77 0 124.5 -62.5t47.5 -160.5
q0 -83 -46.5 -168.5t-149.5 -196.5z" />
    <glyph glyph-name="ellipsis" unicode="&#x2026;" horiz-adv-x="1552" 
d="M289 -25q-70 0 -117 48t-47 116q0 64 47.5 111t116.5 47q64 0 110.5 -47.5t46.5 -110.5q0 -67 -46 -115.5t-111 -48.5zM780 -25q-70 0 -117 48t-47 116q0 64 47.5 111t116.5 47q64 0 111 -47.5t47 -110.5q0 -67 -46.5 -115.5t-111.5 -48.5zM1272 -25q-70 0 -117 48
t-47 116q0 64 47.5 111t116.5 47q64 0 111 -47.5t47 -110.5q0 -67 -46.5 -115.5t-111.5 -48.5z" />
    <glyph glyph-name="perthousand" unicode="&#x2030;" horiz-adv-x="2463" 
d="M426 707q-151 0 -246.5 102t-95.5 252q0 153 96 255.5t246 102.5q152 0 248 -102.5t96 -253.5q0 -154 -96.5 -255t-247.5 -101zM264 0l973 1407h188l-972 -1407h-189zM426 860q72 0 119 56t47 145q0 90 -47.5 147.5t-118.5 57.5q-73 0 -119.5 -57t-46.5 -148
q0 -87 47.5 -144t118.5 -57zM1257 -20q-149 0 -245.5 102t-96.5 254t97 255t248 103q152 0 247 -103t95 -253q0 -154 -97 -256t-248 -102zM2036 -20q-151 0 -246.5 101.5t-95.5 254.5q0 152 96.5 255t247.5 103t246.5 -103t95.5 -253q0 -153 -97 -255.5t-247 -102.5z
M1260 133q72 0 118.5 56.5t46.5 146.5q0 89 -48 146t-120 57t-117.5 -56.5t-45.5 -144.5q0 -90 47 -147.5t119 -57.5zM2038 133q73 0 119.5 56.5t46.5 146.5q0 89 -48 146t-120 57q-73 0 -119.5 -56.5t-46.5 -144.5q0 -90 47 -147.5t121 -57.5z" />
    <glyph glyph-name="Euro" unicode="&#x20ac;" horiz-adv-x="1413" 
d="M831 209q101 0 192.5 43.5t158.5 120.5l180 -168q-103 -108 -241 -169t-290 -61q-241 0 -437 146t-269 371h-164v145h135q-4 46 -4 68q0 49 6 96h-137v145h174q79 214 271 350t425 136q152 0 289.5 -60.5t241.5 -167.5l-182 -170q-66 76 -157.5 120t-191.5 44
q-130 0 -240.5 -68.5t-174.5 -183.5h536v-145h-590q-10 -52 -10 -96q0 -22 4 -68h596v-145h-553q61 -127 178 -205t254 -78z" />
    <glyph glyph-name="minus" unicode="&#x2212;" horiz-adv-x="1226" 
d="M127 578v213h973v-213h-973z" />
    <glyph glyph-name="a.alt" 
d="M942 1059h250v-1059h-250v164q-64 -91 -158 -140t-209 -49q-211 0 -348 155.5t-137 399.5q0 242 137 397.5t348 155.5q234 0 367 -188v164zM643 188q132 0 215.5 96t83.5 246q0 149 -83.5 244.5t-215.5 95.5q-134 0 -219.5 -95.5t-85.5 -244.5t86 -245.5t219 -96.5z" />
    <glyph glyph-name="aacute.alt" 
d="M958 1444l-299 -266h-174l240 311zM942 1059h250v-1059h-250v164q-64 -91 -158 -140t-209 -49q-211 0 -348 155.5t-137 399.5q0 242 137 397.5t348 155.5q234 0 367 -188v164zM643 188q132 0 215.5 96t83.5 246q0 149 -83.5 244.5t-215.5 95.5q-134 0 -219.5 -95.5
t-85.5 -244.5t86 -245.5t219 -96.5z" />
    <glyph glyph-name="abreve.alt" 
d="M1001 1327q-133 -133 -319 -133q-184 0 -320 133l119 119q88 -88 201 -88t201 88zM942 1059h250v-1059h-250v164q-64 -91 -158 -140t-209 -49q-211 0 -348 155.5t-137 399.5q0 242 137 397.5t348 155.5q234 0 367 -188v164zM643 188q132 0 215.5 96t83.5 246
q0 149 -83.5 244.5t-215.5 95.5q-134 0 -219.5 -95.5t-85.5 -244.5t86 -245.5t219 -96.5z" />
    <glyph glyph-name="acircumflex.alt" 
d="M682 1339l-156 -161h-161l210 295h213l216 -295h-164zM942 1059h250v-1059h-250v164q-64 -91 -158 -140t-209 -49q-211 0 -348 155.5t-137 399.5q0 242 137 397.5t348 155.5q234 0 367 -188v164zM643 188q132 0 215.5 96t83.5 246q0 149 -83.5 244.5t-215.5 95.5
q-134 0 -219.5 -95.5t-85.5 -244.5t86 -245.5t219 -96.5z" />
    <glyph glyph-name="adieresis.alt" 
d="M471 1204q-54 0 -90.5 37.5t-36.5 91.5q0 51 37 89t90 38q52 0 89.5 -38.5t37.5 -88.5q0 -54 -37 -91.5t-90 -37.5zM893 1204q-55 0 -92 37.5t-37 91.5q0 51 37.5 89t91.5 38q52 0 89.5 -38.5t37.5 -88.5q0 -54 -37 -91.5t-90 -37.5zM942 1059h250v-1059h-250v164
q-64 -91 -158 -140t-209 -49q-211 0 -348 155.5t-137 399.5q0 242 137 397.5t348 155.5q234 0 367 -188v164zM643 188q132 0 215.5 96t83.5 246q0 149 -83.5 244.5t-215.5 95.5q-134 0 -219.5 -95.5t-85.5 -244.5t86 -245.5t219 -96.5z" />
    <glyph glyph-name="agrave.alt" 
d="M856 1178h-174l-299 266l233 45zM942 1059h250v-1059h-250v164q-64 -91 -158 -140t-209 -49q-211 0 -348 155.5t-137 399.5q0 242 137 397.5t348 155.5q234 0 367 -188v164zM643 188q132 0 215.5 96t83.5 246q0 149 -83.5 244.5t-215.5 95.5q-134 0 -219.5 -95.5
t-85.5 -244.5t86 -245.5t219 -96.5z" />
    <glyph glyph-name="amacron.alt" 
d="M1024 1354v-154h-684v154h684zM942 1059h250v-1059h-250v164q-64 -91 -158 -140t-209 -49q-211 0 -348 155.5t-137 399.5q0 242 137 397.5t348 155.5q234 0 367 -188v164zM643 188q132 0 215.5 96t83.5 246q0 149 -83.5 244.5t-215.5 95.5q-134 0 -219.5 -95.5
t-85.5 -244.5t86 -245.5t219 -96.5z" />
    <glyph glyph-name="aogonek.alt" 
d="M1276 -162l57 -129q-76 -63 -180 -63q-101 0 -163 61t-62 164q0 73 43 129h-29v164q-64 -91 -158 -140t-209 -49q-211 0 -348 155.5t-137 399.5q0 242 137 397.5t348 155.5q234 0 367 -188v164h250v-1059q-44 0 -73 -28t-29 -72t27.5 -69.5t76.5 -25.5t82 33zM643 188
q132 0 215.5 96t83.5 246q0 149 -83.5 244.5t-215.5 95.5q-134 0 -219.5 -95.5t-85.5 -244.5t86 -245.5t219 -96.5z" />
    <glyph glyph-name="aring.alt" 
d="M682 1194q-92 0 -158.5 66.5t-66.5 160.5q0 93 66.5 159.5t158.5 66.5q94 0 159.5 -66t65.5 -160t-65.5 -160.5t-159.5 -66.5zM682 1534q-46 0 -79.5 -33.5t-33.5 -79.5t33.5 -79t79.5 -33t79.5 33t33.5 79t-33.5 79.5t-79.5 33.5zM942 1059h250v-1059h-250v164
q-64 -91 -158 -140t-209 -49q-211 0 -348 155.5t-137 399.5q0 242 137 397.5t348 155.5q234 0 367 -188v164zM643 188q132 0 215.5 96t83.5 246q0 149 -83.5 244.5t-215.5 95.5q-134 0 -219.5 -95.5t-85.5 -244.5t86 -245.5t219 -96.5z" />
    <glyph glyph-name="atilde.alt" 
d="M549 1288q-37 0 -59.5 -28t-32.5 -89l-129 19q30 262 217 262q39 0 80.5 -18t69.5 -39.5t60 -39.5t56 -18q72 0 92 119l131 -20q-31 -262 -217 -262q-51 0 -102.5 28.5t-94 57t-71.5 28.5zM942 1059h250v-1059h-250v164q-64 -91 -158 -140t-209 -49q-211 0 -348 155.5
t-137 399.5q0 242 137 397.5t348 155.5q234 0 367 -188v164zM643 188q132 0 215.5 96t83.5 246q0 149 -83.5 244.5t-215.5 95.5q-134 0 -219.5 -95.5t-85.5 -244.5t86 -245.5t219 -96.5z" />
    <glyph glyph-name="ascender" 
d="M143 0v1432h250v-1432h-250z" />
    <glyph glyph-name="descender" 
d="M143 -352v1411h250v-1411h-250z" />
    </font>
</defs>
</svg>
