<?xml version="1.0" standalone="no"?>
<!DOCTYPE svg PUBLIC "-//W3C//DTD SVG 1.1//EN" "http://www.w3.org/Graphics/SVG/1.1/DTD/svg11.dtd" >
<svg xmlns="http://www.w3.org/2000/svg" xmlns:xlink="http://www.w3.org/1999/xlink" version="1.1">
<metadata>
Created by FontForge 20170731 at Tue Jan 26 16:34:56 2021
 By Aleksey,,,
Copyright (c) 2016 by Chris Simpson.
</metadata>
<defs>
<font id="Metropolis-MediumItalic" horiz-adv-x="1226" >
  <font-face 
    font-family="Metropolis Medium"
    font-weight="700"
    font-style="italic"
    font-stretch="normal"
    units-per-em="2048"
    panose-1="0 0 8 0 0 0 0 0 0 0"
    ascent="1628"
    descent="-420"
    x-height="1059"
    cap-height="1407"
    bbox="-592 -580 2331 1985"
    underline-thickness="40"
    underline-position="-312"
    slope="-11.75"
    unicode-range="U+0020-2212"
  />
<missing-glyph horiz-adv-x="1024" 
d="M840 1628v-2048h-650v2048h650zM682 1491h-338v-68h133v-75h-135v-68h340v68h-135v75h135v68zM547 1227h-205v-213h340v69h-135v144zM477 1157v-74h-67v74h67zM682 958h-340v-67h135v-76h-135v-67h205v143h135v67zM682 836h-68v-136h-272v-69h340v205zM682 586h-205v-115
h70v47h67v-96h-204v164h-68v-232h340v232zM682 231h-340v-231h340v231zM614 164v-96h-204v96h204zM682 -47h-340v-68h143l-143 -96v-68h340v68h-209l143 96h66v68z" />
    <glyph glyph-name=".notdef" horiz-adv-x="1024" 
d="M840 1628v-2048h-650v2048h650zM682 1491h-338v-68h133v-75h-135v-68h340v68h-135v75h135v68zM547 1227h-205v-213h340v69h-135v144zM477 1157v-74h-67v74h67zM682 958h-340v-67h135v-76h-135v-67h205v143h135v67zM682 836h-68v-136h-272v-69h340v205zM682 586h-205v-115
h70v47h67v-96h-204v164h-68v-232h340v232zM682 231h-340v-231h340v231zM614 164v-96h-204v96h204zM682 -47h-340v-68h143l-143 -96v-68h340v68h-209l143 96h66v68z" />
    <glyph glyph-name=".null" horiz-adv-x="0" 
 />
    <glyph glyph-name="nonmarkingreturn" horiz-adv-x="682" 
 />
    <glyph glyph-name="space" unicode=" " horiz-adv-x="585" 
 />
    <glyph glyph-name="exclam" unicode="!" horiz-adv-x="579" 
d="M197 428l153 979h238l-252 -979h-139zM190 -25q-55 0 -88.5 34.5t-33.5 86.5q0 65 46 108.5t105 43.5q52 0 85.5 -35.5t33.5 -85.5q0 -60 -45.5 -106t-102.5 -46z" />
    <glyph glyph-name="quotedbl" unicode="&#x22;" horiz-adv-x="917" 
d="M272 854q-4 148 4 260q2 63 9.5 109t24.5 87.5t48 63t76 21.5q41 0 66.5 -26.5t25.5 -65.5q0 -29 -55.5 -185t-99.5 -264h-99zM684 854q-4 148 4 260q2 63 9.5 109t24.5 87.5t48 63t76 21.5q41 0 66.5 -26.5t25.5 -65.5q0 -29 -55.5 -183.5t-100.5 -265.5h-98z" />
    <glyph glyph-name="numbersign" unicode="#" horiz-adv-x="1384" 
d="M1346 897h-228l-178 -389h227l-71 -154h-226l-163 -354h-166l164 354h-281l-164 -354h-166l164 354h-221l72 154h219l178 389h-221l67 154h226l163 356h166l-164 -356h281l164 356h166l-164 -356h227zM774 508l178 389h-280l-178 -389h280z" />
    <glyph glyph-name="dollar" unicode="$" horiz-adv-x="1271" 
d="M768 797q203 -53 291 -129t88 -205q0 -204 -153 -337.5t-396 -145.5l-27 -132h-172l29 140q-125 22 -235.5 80.5t-180.5 140.5l146 141q56 -65 138 -112t171 -68l96 467q-177 49 -257.5 119.5t-80.5 191.5q0 196 139 330t363 154l27 122h172l-27 -131q107 -19 206 -70
t167 -124l-139 -146q-53 57 -125.5 98.5t-147.5 59.5zM438 989q0 -48 39 -82t129 -65l84 401q-115 -20 -183.5 -89.5t-68.5 -164.5zM637 164q135 17 216 89t81 175q0 54 -48 92.5t-161 71.5z" />
    <glyph glyph-name="percent" unicode="%" horiz-adv-x="1656" 
d="M475 711q-130 0 -205 78.5t-75 203.5q0 110 53 208.5t145.5 158t200.5 59.5q132 0 207.5 -79t75.5 -205q0 -170 -119 -297t-283 -127zM152 0l1259 1407h168l-1260 -1407h-167zM475 842q101 0 175.5 92t74.5 203q0 68 -35 108.5t-96 40.5q-68 0 -126.5 -45t-91 -112.5
t-32.5 -135.5t35.5 -109.5t95.5 -41.5zM1130 -20q-129 0 -205.5 79t-76.5 205q0 108 53.5 206t146.5 158t201 60q130 0 205.5 -80t75.5 -205q0 -109 -53.5 -206.5t-146 -157t-200.5 -59.5zM1130 113q104 0 178 94t74 201q0 67 -36.5 108t-96.5 41q-101 0 -175.5 -92
t-74.5 -203q0 -69 35 -109t96 -40z" />
    <glyph glyph-name="ampersand" unicode="&#x26;" horiz-adv-x="1376" 
d="M1294 635q-143 -213 -270 -348q28 -36 87 -114.5t89 -117.5l-184 -69q-54 70 -129 172q-221 -183 -461 -183q-174 0 -280.5 88t-106.5 238q0 176 109 295.5t305 200.5q-64 119 -64 215q0 177 129 294t305 117q135 0 218 -79.5t83 -202.5q0 -65 -22 -120t-56.5 -95.5
t-92 -78.5t-113 -64.5t-135.5 -59.5q96 -141 219 -301q112 123 219 303zM819 1262q-99 0 -171.5 -69t-72.5 -167q0 -80 46 -172q76 26 128 50.5t98.5 58t69.5 77.5t23 99t-32.5 89t-88.5 34zM451 143q162 0 337 148q-142 197 -251 368q-299 -128 -299 -337
q0 -84 59.5 -131.5t153.5 -47.5z" />
    <glyph glyph-name="quotesingle" unicode="'" horiz-adv-x="505" 
d="M272 854q-4 148 4 260q2 63 9.5 109t24.5 87.5t48 63t76 21.5q41 0 66.5 -26.5t25.5 -65.5q0 -29 -55.5 -185t-99.5 -264h-99z" />
    <glyph glyph-name="parenleft" unicode="(" horiz-adv-x="755" 
d="M385 -344q-137 130 -210 300.5t-73 367.5q0 323 172 617.5t465 496.5l95 -121q-529 -445 -529 -1018q0 -150 49 -281t148 -260z" />
    <glyph glyph-name="parenright" unicode=")" horiz-adv-x="753" 
d="M20 -352l-92 123q529 445 529 1015q0 151 -49 281.5t-148 261.5l117 101q136 -130 209 -299.5t73 -364.5q0 -325 -172.5 -620.5t-466.5 -497.5z" />
    <glyph glyph-name="asterisk" unicode="*" horiz-adv-x="829" 
d="M461 750q-25 0 -39.5 15.5t-9.5 37.5q9 47 43.5 134.5t42.5 115.5q-25 -16 -104 -74.5t-124 -81.5q-22 -11 -43 -4t-28 29q-9 23 0.5 44.5t31.5 32.5q47 24 140 55.5t114 39.5q-15 7 -97 38.5t-118 55.5q-16 11 -17.5 33.5t15.5 44.5q19 22 44 29t40 -5q35 -24 92 -82.5
t72 -72.5q2 25 4 113.5t12 135.5q3 22 24 38t46 16q26 0 40 -16t11 -38q-11 -49 -48.5 -144t-41.5 -105q22 14 103.5 72.5t126.5 82.5q22 11 43 4t28 -28q9 -22 -1.5 -44.5t-31.5 -33.5q-46 -24 -136 -54t-115 -40q17 -8 97 -39.5t116 -55.5q15 -11 16 -33t-14 -44
q-19 -22 -44 -29.5t-40 4.5q-35 24 -91.5 83t-72.5 73q-2 -28 -2.5 -78.5t-3.5 -93t-11 -78.5q-3 -22 -23.5 -37.5t-45.5 -15.5z" />
    <glyph glyph-name="plus" unicode="+" horiz-adv-x="1222" 
d="M1141 774l-39 -182h-385l-80 -385h-188l79 385h-383l39 182h383l82 389h189l-82 -389h385z" />
    <glyph glyph-name="comma" unicode="," horiz-adv-x="575" 
d="M92 -287l-84 76q100 85 162 195q-47 0 -78 31t-31 81q0 64 45.5 108t104.5 44t92 -41.5t33 -108.5t-35.5 -136.5t-83 -123t-125.5 -125.5z" />
    <glyph glyph-name="hyphen" unicode="-" horiz-adv-x="757" 
d="M94 467l39 184h541l-39 -184h-541z" />
    <glyph glyph-name="period" unicode="." horiz-adv-x="540" 
d="M172 -25q-55 0 -89 34.5t-34 86.5q0 65 46.5 108.5t105.5 43.5q52 0 85 -35t33 -86q0 -60 -45 -106t-102 -46z" />
    <glyph glyph-name="slash" unicode="/" horiz-adv-x="886" 
d="M-180 -152l1063 1674h227l-1063 -1674h-227z" />
    <glyph glyph-name="zero" unicode="0" horiz-adv-x="1425" 
d="M610 -25q-222 0 -351.5 147t-129.5 392q0 136 36 270.5t105 250.5t160 205.5t209.5 140.5t245.5 51q224 0 353.5 -147t129.5 -392q0 -136 -36 -270.5t-104.5 -250.5t-160 -205.5t-210.5 -140.5t-247 -51zM623 166q113 0 215 66t171 170.5t109.5 232.5t40.5 252
q0 162 -76 258t-209 96q-113 0 -215 -66t-171 -170.5t-109.5 -232t-40.5 -250.5q0 -163 75.5 -259.5t209.5 -96.5z" />
    <glyph glyph-name="one" unicode="1" horiz-adv-x="763" 
d="M262 0l244 1161l-273 -155l-59 149l422 252h168l-293 -1407h-209z" />
    <glyph glyph-name="two" unicode="2" horiz-adv-x="1224" 
d="M-8 0l31 170l604 432q76 55 134.5 106t111.5 110.5t81.5 122.5t28.5 124q0 83 -59.5 131.5t-149.5 48.5q-213 0 -418 -215l-123 137q249 265 558 265q179 0 292 -96.5t113 -254.5q0 -92 -33.5 -177.5t-97.5 -162t-137.5 -140t-173.5 -134.5l-396 -274h674l-41 -193h-999z
" />
    <glyph glyph-name="three" unicode="3" horiz-adv-x="1212" 
d="M498 -25q-174 0 -299 68t-191 178l152 125q55 -88 142.5 -136t201.5 -48q152 0 262.5 86t110.5 209q0 164 -289 161h-162l39 185l147 -2q148 0 254 75.5t109 194.5q2 78 -62 126t-170 48q-201 0 -403 -192l-111 137q239 242 539 242q192 0 307 -89t115 -233t-95 -247
t-249 -146q98 -23 166.5 -93t68.5 -182q0 -135 -82.5 -243.5t-215 -166t-285.5 -57.5z" />
    <glyph glyph-name="four" unicode="4" horiz-adv-x="1294" 
d="M682 0l68 324h-695l8 165l871 918h248l-187 -901h203l-39 -182h-203l-67 -324h-207zM297 506h491l142 665z" />
    <glyph glyph-name="five" unicode="5" horiz-adv-x="1239" 
d="M508 -25q-309 0 -475 226l149 139q139 -182 342 -182q156 0 272.5 105t116.5 245q0 93 -66 147t-181 54q-162 0 -332 -109l-135 72l172 735h866l-41 -193h-668l-104 -413q142 86 301 86q175 0 286 -93.5t111 -256.5q0 -118 -48.5 -223t-131.5 -179t-196 -117t-238 -43z
" />
    <glyph glyph-name="six" unicode="6" horiz-adv-x="1290" 
d="M766 889q177 0 290 -95t113 -259q0 -153 -83 -282.5t-222 -203.5t-299 -74q-226 0 -336 128t-110 350q0 142 37 285t106.5 267t161.5 220t211 151.5t246 55.5q233 0 387 -168l-129 -150q-58 66 -120.5 98.5t-150.5 32.5q-86 0 -167.5 -43.5t-146 -118t-113.5 -169
t-79 -199.5q81 84 187.5 129t216.5 45zM567 152q101 0 192 52t145 135t54 173q0 96 -68 149.5t-179 53.5q-123 0 -228 -68t-157 -178v-14q0 -142 59 -222.5t182 -80.5z" />
    <glyph glyph-name="seven" unicode="7" horiz-adv-x="1232" 
d="M156 0l837 1214h-737l39 193h983l-29 -156l-854 -1251h-239z" />
    <glyph glyph-name="eight" unicode="8" horiz-adv-x="1255" 
d="M524 -25q-207 0 -337 91.5t-130 244.5q0 149 106 258.5t275 163.5q-91 39 -144.5 106.5t-53.5 161.5q0 79 32.5 148.5t87.5 120.5t127 88t152.5 55.5t161.5 18.5q187 0 311.5 -88.5t124.5 -235.5q0 -135 -91.5 -233t-244.5 -154q102 -38 164.5 -115.5t62.5 -181.5
q0 -134 -87.5 -238.5t-224 -157.5t-292.5 -53zM670 805q62 3 125.5 25t115 57.5t84.5 86.5t33 107q0 75 -65.5 121.5t-169.5 46.5q-138 0 -246.5 -79.5t-108.5 -190.5q0 -78 71 -123.5t161 -50.5zM535 158q98 0 187.5 35.5t146.5 101.5t57 145q0 57 -41.5 102t-100.5 67
t-122 24q-87 -2 -176.5 -40.5t-152.5 -108t-63 -148.5q0 -81 74 -129.5t191 -48.5z" />
    <glyph glyph-name="nine" unicode="9" horiz-adv-x="1290" 
d="M799 1432q226 0 336 -128t110 -350q0 -142 -37 -285t-106.5 -267t-161.5 -220t-211 -151.5t-246 -55.5q-233 0 -387 168l129 150q58 -66 120.5 -98.5t150.5 -32.5q114 0 218 76t175.5 194t111.5 260q-81 -84 -187 -129t-216 -45q-177 0 -290 95t-113 259q0 153 83 282.5
t222 203.5t299 74zM653 692q123 0 228 68t157 178v14q0 142 -59 222.5t-182 80.5q-101 0 -192 -52t-145 -135t-54 -173q0 -96 68 -149.5t179 -53.5z" />
    <glyph glyph-name="colon" unicode=":" horiz-adv-x="542" 
d="M342 788q-56 0 -89.5 34.5t-33.5 88.5q0 64 46 107t106 43q52 0 85 -35t33 -86q0 -60 -45 -106t-102 -46zM172 -25q-54 0 -87.5 34.5t-33.5 86.5q0 65 45.5 108.5t104.5 43.5q53 0 85.5 -35t32.5 -86q0 -60 -44.5 -106t-102.5 -46z" />
    <glyph glyph-name="semicolon" unicode=";" horiz-adv-x="581" 
d="M358 825q-55 0 -88.5 34.5t-33.5 86.5q0 65 46 108.5t105 43.5q52 0 85.5 -35.5t33.5 -85.5q0 -60 -45.5 -106t-102.5 -46zM96 -287l-84 76q100 85 162 195q-47 0 -77.5 31t-30.5 81q0 64 45 108t104 44t92 -41.5t33 -108.5t-35.5 -136.5t-83 -123t-125.5 -125.5z" />
    <glyph glyph-name="less" unicode="&#x3c;" horiz-adv-x="1206" 
d="M981 176l-848 449l33 157l1032 449l-35 -176l-833 -350l686 -351z" />
    <glyph glyph-name="equal" unicode="=" horiz-adv-x="1222" 
d="M195 823l38 183h957l-39 -183h-956zM98 367l39 182h957l-39 -182h-957z" />
    <glyph glyph-name="greater" unicode="&#x3e;" horiz-adv-x="1206" 
d="M80 176l35 178l833 351l-684 350l35 176l846 -449l-31 -157z" />
    <glyph glyph-name="question" unicode="?" horiz-adv-x="1042" 
d="M344 424l74 369q110 7 209.5 42.5t167 100t67.5 141.5q0 73 -52.5 120.5t-147.5 47.5q-183 0 -365 -178l-109 139q233 226 504 226q177 0 280 -89.5t103 -230.5q0 -87 -40 -166t-107.5 -137.5t-152 -100.5t-177.5 -61l-45 -223h-209zM385 -25q-55 0 -89 34.5t-34 86.5
q0 65 46.5 108.5t105.5 43.5q52 0 85 -35t33 -86q0 -60 -45 -106t-102 -46z" />
    <glyph glyph-name="at" unicode="@" horiz-adv-x="1806" 
d="M713 -238q-185 0 -331 81.5t-226 222t-80 313.5q0 126 42 252.5t114 236t173 205.5t216 163.5t245 106.5t258 39q138 0 256.5 -45.5t200 -124t128 -186.5t46.5 -231q0 -155 -65.5 -301t-183 -241t-253.5 -95q-97 0 -150 45.5t-56 124.5q-75 -77 -168 -123.5t-189 -46.5
q-127 0 -201.5 72.5t-74.5 195.5q0 106 52 216.5t133.5 195t189 138.5t212.5 54q99 0 159.5 -44.5t84.5 -115.5l53 129l170 -12q-26 -65 -71.5 -174.5t-67 -163.5t-47.5 -121.5t-36.5 -105t-10.5 -57.5q0 -44 26.5 -68.5t75.5 -24.5q95 0 175.5 82.5t122.5 199t42 228.5
q0 225 -160.5 375t-412.5 150q-175 0 -348.5 -78.5t-304 -205t-212 -294t-81.5 -336.5q0 -117 42 -219.5t116.5 -177t182.5 -117.5t234 -43q125 0 233 29.5t232 95.5l29 -57q-133 -74 -255 -108t-259 -34zM774 307q101 0 192.5 65.5t144 164t52.5 196.5q0 70 -42 109
t-122 39q-97 0 -189.5 -61t-149 -157t-56.5 -194q0 -76 44.5 -119t125.5 -43z" />
    <glyph glyph-name="A" unicode="A" horiz-adv-x="1554" 
d="M1167 0l-65 293h-729l-187 -293h-233l897 1407h231l-2 -2l312 -1405h-224zM487 473h576l-150 670z" />
    <glyph glyph-name="B" unicode="B" horiz-adv-x="1409" 
d="M68 0l292 1407h662q151 0 245.5 -82t94.5 -211q0 -114 -71 -213t-199 -164q83 -44 134.5 -125t51.5 -166q0 -122 -69.5 -225t-187 -162t-253.5 -59h-700zM446 821h402q123 0 210 75t87 179q0 67 -55 108.5t-144 41.5h-416zM313 182h432q137 0 234.5 85.5t97.5 205.5
q0 77 -60.5 124.5t-158.5 47.5h-448z" />
    <glyph glyph-name="C" unicode="C" horiz-adv-x="1411" 
d="M725 -25q-160 0 -298 81.5t-219 221.5t-81 304q0 224 121.5 420.5t327 313t440.5 116.5q132 0 263 -63.5t210 -164.5l-166 -129q-53 74 -145.5 120t-190.5 46q-129 0 -249.5 -53.5t-208.5 -142.5t-140.5 -211t-52.5 -252q0 -84 34 -161.5t90.5 -133t133.5 -88.5t160 -33
q93 0 206.5 49.5t200.5 126.5l123 -149q-113 -96 -269.5 -157t-289.5 -61z" />
    <glyph glyph-name="D" unicode="D" horiz-adv-x="1560" 
d="M68 0l292 1407h480q287 0 469 -158t182 -407q0 -168 -75 -324t-200.5 -269t-297.5 -181t-357 -68h-493zM315 188h283q182 0 339.5 87.5t250 236t92.5 319.5q0 169 -127.5 278.5t-325.5 109.5h-297z" />
    <glyph glyph-name="E" unicode="E" horiz-adv-x="1294" 
d="M1331 1214h-827l-80 -401h743l-39 -192h-747l-86 -428h823l-41 -193h-1034l293 1407h1034z" />
    <glyph glyph-name="F" unicode="F" horiz-adv-x="1263" 
d="M1331 1214h-827l-82 -409h743l-39 -193h-747l-127 -612h-209l293 1407h1034z" />
    <glyph glyph-name="G" unicode="G" horiz-adv-x="1513" 
d="M801 571l39 181h581l-116 -559q-117 -98 -276.5 -158t-301.5 -60q-163 0 -301.5 81.5t-218.5 220t-80 301.5q0 170 73.5 328t194.5 273t285.5 184t339.5 69q140 0 274.5 -63t214.5 -165l-166 -129q-54 75 -151.5 120.5t-200.5 45.5q-129 0 -250.5 -54t-210.5 -144
t-142.5 -212t-53.5 -251q0 -169 124.5 -291.5t297.5 -122.5q86 0 184 35t180 94l56 276h-375z" />
    <glyph glyph-name="H" unicode="H" horiz-adv-x="1488" 
d="M1311 1407h207l-293 -1407h-207l127 621h-768l-127 -621h-207l293 1407h207l-119 -594h766z" />
    <glyph glyph-name="I" unicode="I" horiz-adv-x="518" 
d="M45 0l293 1407h207l-293 -1407h-207z" />
    <glyph glyph-name="J" unicode="J" horiz-adv-x="1105" 
d="M377 -25q-127 0 -238.5 68t-158.5 174l165 125q22 -78 91 -128t157 -50q118 0 212 88t122 223l193 932h206l-198 -956q-44 -210 -198 -343t-353 -133z" />
    <glyph glyph-name="K" unicode="K" horiz-adv-x="1374" 
d="M66 0l292 1407h207l-153 -723l811 723h272l-713 -635l451 -772h-250l-369 631l-254 -219l-88 -412h-206z" />
    <glyph glyph-name="L" unicode="L" horiz-adv-x="1153" 
d="M276 193h744l-41 -193h-954l292 1407h209z" />
    <glyph glyph-name="M" unicode="M" horiz-adv-x="1757" 
d="M68 0l292 1407h205l301 -920l686 920h209l-293 -1407h-206l211 1001l-680 -919l-308 919l-211 -1001h-206z" />
    <glyph glyph-name="N" unicode="N" horiz-adv-x="1579" 
d="M68 0l292 1407h205l586 -1067l225 1067h207l-293 -1407h-203l-585 1067l-228 -1067h-206z" />
    <glyph glyph-name="O" unicode="O" horiz-adv-x="1656" 
d="M721 -25q-162 0 -299.5 80.5t-217 217.5t-79.5 298q0 229 122.5 428t327 316t437.5 117q128 0 239.5 -46t189.5 -125.5t122.5 -189.5t44.5 -235q0 -171 -73 -330t-193.5 -275t-284 -186t-336.5 -70zM750 166q171 0 322 94.5t239 247t88 319.5q0 177 -116.5 295.5
t-297.5 118.5q-129 0 -249 -53.5t-208 -142.5t-141 -210.5t-53 -250.5q0 -170 123 -294t293 -124z" />
    <glyph glyph-name="P" unicode="P" horiz-adv-x="1329" 
d="M43 0l293 1407h584q195 0 317.5 -108.5t122.5 -280.5q0 -143 -85 -265t-229.5 -193t-312.5 -71h-379l-104 -489h-207zM393 682h369q158 0 274.5 98t116.5 230q0 91 -76.5 147.5t-199.5 56.5h-373z" />
    <glyph glyph-name="Q" unicode="Q" horiz-adv-x="1662" 
d="M1608 836q0 -165 -67 -317.5t-185 -272.5l114 -119l-133 -127l-123 129q-229 -154 -493 -154q-162 0 -299.5 80.5t-217 217.5t-79.5 298q0 229 122.5 428t327 316t437.5 117q128 0 239.5 -46t189.5 -125.5t122.5 -189.5t44.5 -235zM750 166q174 0 331 100l-180 191
l133 127l189 -197q83 92 129.5 206t46.5 234q0 177 -116.5 295.5t-297.5 118.5q-129 0 -249 -53.5t-208 -142.5t-141 -210.5t-53 -250.5q0 -170 123 -294t293 -124z" />
    <glyph glyph-name="R" unicode="R" horiz-adv-x="1359" 
d="M1360 1018q0 -181 -131 -322.5t-332 -187.5l307 -508h-229l-297 489h-324l-104 -489h-207l293 1407h584q195 0 317.5 -108.5t122.5 -280.5zM762 682q158 0 274.5 98t116.5 230q0 91 -76.5 147.5t-199.5 56.5h-373l-111 -532h369z" />
    <glyph glyph-name="S" unicode="S" horiz-adv-x="1271" 
d="M553 -23q-154 0 -303.5 64.5t-237.5 167.5l146 141q73 -86 186 -138t223 -52q163 0 265 75.5t102 192.5q0 63 -66.5 104.5t-228.5 83.5q-220 53 -317 126.5t-97 205.5q0 212 159.5 349t410.5 137q129 0 260 -56.5t217 -148.5l-139 -146q-68 76 -168.5 122t-190.5 46
q-149 0 -242.5 -74t-93.5 -188q0 -61 67.5 -102.5t229.5 -81.5q221 -53 316.5 -131t95.5 -211q0 -214 -167.5 -350t-426.5 -136z" />
    <glyph glyph-name="T" unicode="T" horiz-adv-x="1296" 
d="M434 0l254 1214h-463l41 193h1131l-41 -193h-461l-254 -1214h-207z" />
    <glyph glyph-name="U" unicode="U" horiz-adv-x="1533" 
d="M659 -25q-132 0 -236.5 46.5t-167 129.5t-86 197.5t6.5 251.5l168 807h209l-170 -819q-40 -187 45.5 -305.5t257.5 -118.5q177 0 315.5 124t178.5 316l166 803h206l-170 -823q-37 -177 -141.5 -316t-256.5 -216t-325 -77z" />
    <glyph glyph-name="V" unicode="V" horiz-adv-x="1544" 
d="M1440 1407h233l-897 -1407h-231l2 2l-311 1405h223l254 -1143z" />
    <glyph glyph-name="W" unicode="W" horiz-adv-x="2211" 
d="M416 0l-170 1407h227l119 -1073l579 1073h228l127 -1073l571 1073h234l-756 -1407h-207l-135 1120l-610 -1120h-207z" />
    <glyph glyph-name="X" unicode="X" horiz-adv-x="1449" 
d="M1567 1407l-682 -709l379 -698h-242l-293 537l-516 -537h-260l684 709l-381 698h242l293 -539l518 539h258z" />
    <glyph glyph-name="Y" unicode="Y" horiz-adv-x="1390" 
d="M475 0l119 551l-385 856h203l307 -678l579 678h246l-735 -856l-119 -551h-215z" />
    <glyph glyph-name="Z" unicode="Z" horiz-adv-x="1320" 
d="M6 0l29 162l1032 1052h-795l39 193h1082l-31 -162l-1032 -1052h819l-41 -193h-1102z" />
    <glyph glyph-name="bracketleft" unicode="[" horiz-adv-x="763" 
d="M-2 -254l360 1739h508l-30 -144h-340l-301 -1452h337l-28 -143h-506z" />
    <glyph glyph-name="backslash" unicode="\" horiz-adv-x="876" 
d="M557 -152l-367 1674h218l366 -1674h-217z" />
    <glyph glyph-name="bracketright" unicode="]" horiz-adv-x="763" 
d="M-66 -254l29 143h338l303 1452h-338l29 144h508l-361 -1739h-508z" />
    <glyph glyph-name="asciicircum" unicode="^" horiz-adv-x="1001" 
d="M168 846l442 561h150l205 -561h-156l-145 424l-332 -424h-164z" />
    <glyph glyph-name="underscore" unicode="_" horiz-adv-x="1212" 
d="M-176 -297l33 150h1220l-33 -150h-1220z" />
    <glyph glyph-name="grave" unicode="`" horiz-adv-x="694" 
d="M559 1180l-242 262l203 41l180 -303h-141z" />
    <glyph glyph-name="a" unicode="a" horiz-adv-x="1325" 
d="M1077 1059h203l-221 -1059h-203l37 178q-80 -96 -185 -149.5t-221 -53.5q-167 0 -283 123.5t-116 300.5q0 136 49.5 262t132 218.5t197.5 148t240 55.5q107 0 195.5 -64t131.5 -169zM539 152q118 0 219.5 67t161 180.5t59.5 243.5q0 109 -80 186.5t-194 77.5
q-167 0 -290.5 -146t-123.5 -345q0 -109 72.5 -186.5t175.5 -77.5z" />
    <glyph glyph-name="b" unicode="b" horiz-adv-x="1327" 
d="M840 1083q167 0 283 -123t116 -298q0 -136 -49 -262.5t-132 -219.5t-197.5 -149t-239.5 -56q-107 0 -195.5 64.5t-132.5 169.5l-43 -209h-201l297 1432h201l-115 -551q79 95 185 148.5t223 53.5zM621 152q111 0 206.5 67t152 180t56.5 244q0 109 -72.5 186.5t-175.5 77.5
q-118 0 -219.5 -67t-161 -180.5t-59.5 -243.5q0 -109 80.5 -186.5t192.5 -77.5z" />
    <glyph glyph-name="c" unicode="c" horiz-adv-x="1118" 
d="M537 -25q-188 0 -321.5 134.5t-133.5 322.5q0 173 93.5 324t249.5 239t333 88q102 0 199.5 -47t158.5 -123l-153 -114q-35 49 -100 78.5t-134 29.5q-118 0 -220.5 -64t-163 -172t-60.5 -231q0 -119 81 -203.5t195 -84.5q157 0 287 124l121 -137q-191 -164 -432 -164z" />
    <glyph glyph-name="d" unicode="d" horiz-adv-x="1327" 
d="M1153 1432h201l-297 -1432h-201l37 176q-80 -94 -185 -147.5t-221 -53.5q-167 0 -283 123.5t-116 300.5q0 136 49.5 262t132 218.5t197.5 148t240 55.5q107 0 194.5 -63.5t130.5 -167.5zM539 152q147 0 265.5 103t158.5 259l10 47q6 40 6 82q0 109 -80 186.5t-194 77.5
q-167 0 -290.5 -146t-123.5 -345q0 -109 72.5 -186.5t175.5 -77.5z" />
    <glyph glyph-name="e" unicode="e" horiz-adv-x="1159" 
d="M610 459h-336v-31q0 -128 70.5 -200t196.5 -72q90 0 182 33.5t151 86.5l111 -143q-82 -71 -214 -114.5t-251 -43.5q-195 0 -317.5 122.5t-122.5 320.5q0 131 54.5 254.5t143.5 213t208.5 143.5t244.5 54q162 0 273.5 -80t111.5 -210q0 -154 -135.5 -245.5t-370.5 -88.5z
M719 905q-138 0 -246.5 -79t-159.5 -205h328q132 0 204.5 39t72.5 108q0 62 -55.5 99.5t-143.5 37.5z" />
    <glyph glyph-name="f" unicode="f" horiz-adv-x="735" 
d="M686 1475q120 0 209 -82l-92 -125q-25 35 -86 35q-57 0 -102 -40t-56 -96l-22 -108h249l-36 -172h-250l-185 -887h-198l184 887h-158l35 172h158l29 135q28 127 116.5 204t204.5 77z" />
    <glyph glyph-name="g" unicode="g" horiz-adv-x="1284" 
d="M1036 1059h203l-199 -955q-44 -208 -216.5 -332t-403.5 -124q-131 0 -241.5 40t-176.5 105l100 141q45 -53 126 -81.5t180 -28.5q169 0 288 81.5t148 219.5l26 133q-163 -180 -401 -180q-182 0 -289.5 109.5t-107.5 293.5q0 115 45.5 225t122 193t185 133.5t226.5 50.5
q129 0 217.5 -55.5t130.5 -148.5zM530 254q143 0 256.5 91t149.5 224l8 43q4 36 4 54q0 113 -67 177t-183 64q-110 0 -206.5 -57t-153.5 -151.5t-57 -200.5q0 -114 66.5 -179t182.5 -65z" />
    <glyph glyph-name="h" unicode="h" 
d="M786 1083q152 0 242 -88t90 -231q0 -14 -0.5 -25.5t-3 -30t-5.5 -35.5t-9.5 -51t-13 -67t-19 -93t-25 -118t-32 -153.5t-39.5 -190.5h-199q29 140 70 338q50 237 60.5 294t10.5 89q0 88 -47.5 137t-132.5 49q-125 0 -231.5 -77.5t-126.5 -180.5v8l-137 -657h-201
l297 1432h201l-109 -521q64 78 160.5 125t199.5 47z" />
    <glyph glyph-name="i" unicode="i" horiz-adv-x="493" 
d="M397 1235q-48 0 -79 33t-31 80q0 52 39.5 91.5t93.5 39.5q48 0 78 -32t30 -79q0 -52 -40 -92.5t-91 -40.5zM35 0l221 1059h203l-221 -1059h-203z" />
    <glyph glyph-name="j" unicode="j" horiz-adv-x="493" 
d="M410 1235q-50 0 -80.5 33t-30.5 80q0 51 39.5 91t93.5 40q47 0 78 -32.5t31 -78.5q0 -52 -40.5 -92.5t-90.5 -40.5zM-106 -365q-101 0 -181 39l47 154q43 -18 113 -18q54 0 97.5 39.5t54.5 95.5l231 1114h203l-238 -1141q-28 -128 -117.5 -205.5t-209.5 -77.5z" />
    <glyph glyph-name="k" unicode="k" horiz-adv-x="1134" 
d="M1225 1059l-557 -479l311 -580h-236l-237 444l-213 -176l-55 -268h-201l297 1432h201l-191 -914l629 541h252z" />
    <glyph glyph-name="l" unicode="l" horiz-adv-x="495" 
d="M39 0l297 1432h201l-297 -1432h-201z" />
    <glyph glyph-name="m" unicode="m" horiz-adv-x="1855" 
d="M1432 1083q147 0 234 -87.5t87 -229.5q0 -37 -11.5 -97.5t-64.5 -312.5q-14 -65 -22 -104.5t-23.5 -111.5t-29.5 -140h-199q138 661 143 693q2 16 2 28q0 89 -43.5 137.5t-128.5 48.5q-106 0 -198.5 -67.5t-118.5 -169.5q-7 -38 -139 -670h-199q138 661 143 693
q2 16 2 28q-2 89 -44.5 137.5t-127.5 48.5q-103 0 -193 -63.5t-120 -161.5l-143 -682h-203l221 1059h203l-29 -137q55 76 140 118.5t182 42.5q114 0 193.5 -57t109.5 -156q53 98 156.5 155.5t220.5 57.5z" />
    <glyph glyph-name="n" unicode="n" 
d="M786 1083q152 0 242 -88t90 -231q0 -14 -0.5 -25.5t-3 -30t-5.5 -35.5t-9.5 -51t-13 -67t-19 -93t-25 -118t-32 -153.5t-39.5 -190.5h-199q29 140 70 338q50 237 60.5 294t10.5 89q0 88 -47.5 137t-132.5 49q-120 0 -223 -71t-131 -170l-139 -666h-203l221 1059h203
l-29 -141q62 74 158 119.5t196 45.5z" />
    <glyph glyph-name="o" unicode="o" horiz-adv-x="1296" 
d="M535 -25q-187 0 -320 134.5t-133 322.5q0 130 55.5 250.5t147 208t215.5 140t256 52.5q124 0 229.5 -61.5t167 -166.5t61.5 -228q0 -173 -93.5 -324t-250.5 -239.5t-335 -88.5zM561 152q120 0 224.5 63.5t166.5 170.5t62 230q0 120 -84 205.5t-201 85.5q-118 0 -221 -64
t-164 -172t-61 -231q0 -118 82 -203t196 -85z" />
    <glyph glyph-name="p" unicode="p" horiz-adv-x="1327" 
d="M840 1083q167 0 283 -123t116 -298q0 -136 -49 -262.5t-132 -219.5t-197.5 -149t-239.5 -56q-107 0 -196 65t-132 171l-117 -563h-201l293 1411h201l-37 -180q80 96 186 150t222 54zM621 152q111 0 206.5 67t152 180t56.5 244q0 109 -72.5 186.5t-175.5 77.5
q-118 0 -219.5 -67t-161 -180.5t-59.5 -243.5q0 -109 80.5 -186.5t192.5 -77.5z" />
    <glyph glyph-name="q" unicode="q" horiz-adv-x="1327" 
d="M1077 1059h201l-293 -1411h-201l111 530q-79 -95 -185 -149t-223 -54q-167 0 -283 123.5t-116 300.5q0 136 49.5 262t132 218.5t197.5 148t240 55.5q107 0 195.5 -64t131.5 -169zM539 152q118 0 219.5 67t161 180.5t59.5 243.5q0 109 -80 186.5t-194 77.5
q-167 0 -290.5 -146t-123.5 -345q0 -109 72.5 -186.5t175.5 -77.5z" />
    <glyph glyph-name="r" unicode="r" horiz-adv-x="827" 
d="M430 866q71 102 184 159.5t248 57.5l-24 -176q-165 0 -293.5 -88t-171.5 -227l-123 -592h-203l221 1059h203z" />
    <glyph glyph-name="s" unicode="s" horiz-adv-x="1019" 
d="M426 -25q-120 0 -233 43.5t-197 120.5l117 133q69 -59 154 -90.5t165 -31.5q105 0 179.5 50t74.5 119q0 40 -44.5 73t-152.5 65q-171 48 -246 105t-75 155q0 161 125 263.5t319 102.5q204 0 377 -127l-110 -143q-129 96 -273 96q-103 0 -170 -45t-67 -114q0 -33 45.5 -63
t158.5 -71q166 -48 240 -107.5t74 -160.5q0 -155 -134.5 -264t-326.5 -109z" />
    <glyph glyph-name="t" unicode="t" horiz-adv-x="782" 
d="M750 887h-248q-133 -634 -133 -651q0 -39 20 -61.5t53 -22.5q37 0 72 13.5t53 31.5l56 -152q-106 -70 -222 -70q-105 0 -169 64t-64 166q0 31 12 93t69 333q33 156 54 256h-160l35 172h160l61 291h199l-61 -291h249z" />
    <glyph glyph-name="u" unicode="u" 
d="M987 1059h203l-221 -1059h-203l29 141q-62 -75 -158.5 -120.5t-196.5 -45.5q-152 0 -241.5 88.5t-89.5 231.5q0 14 0.5 25.5t3 30t5.5 35.5t9.5 51t13 67t19 93t25 118t32 153.5t39.5 190.5h199q-18 -85 -35.5 -169.5t-29 -140t-23 -110t-18.5 -87.5t-13.5 -65t-10 -50.5
t-6.5 -35t-4 -27t-1.5 -19t-0.5 -17.5q0 -88 48 -137t133 -49q120 0 223 71t131 170z" />
    <glyph glyph-name="v" unicode="v" horiz-adv-x="1181" 
d="M389 0l-233 1059h215l155 -823l498 823h223l-667 -1059h-191z" />
    <glyph glyph-name="w" unicode="w" horiz-adv-x="1712" 
d="M305 0l-135 1059h203l78 -789l428 789h170l98 -789l407 789h211l-577 -1059h-187l-88 786l-421 -786h-187z" />
    <glyph glyph-name="x" unicode="x" horiz-adv-x="1138" 
d="M1184 1059l-496 -520l287 -539h-221l-209 389l-369 -389h-233l520 545l-277 514h224l194 -365l348 365h232z" />
    <glyph glyph-name="y" unicode="y" horiz-adv-x="1220" 
d="M156 -369q-109 0 -197 50l66 147q51 -29 116 -29q103 0 170 90l80 105l-229 1065h211l166 -836l495 836h217l-708 -1163q-160 -265 -387 -265z" />
    <glyph glyph-name="z" unicode="z" horiz-adv-x="1067" 
d="M-4 0l29 152l743 725h-578l37 182h850l-30 -152l-746 -725h596l-37 -182h-864z" />
    <glyph glyph-name="braceleft" unicode="{" horiz-adv-x="829" 
d="M545 -340q-199 20 -288 83.5t-89 180.5q0 54 39 227.5t39 215.5q0 60 -37.5 85t-124.5 25l14 135q107 0 166 48.5t80 148.5l57 272q34 167 142.5 244.5t353.5 101.5l4 -133q-124 -18 -190.5 -44.5t-99.5 -71t-50 -125.5l-57 -283q-19 -94 -66.5 -147.5t-136.5 -83.5
q113 -42 113 -168q0 -46 -39 -215.5t-39 -216.5q0 -67 50 -96t189 -50z" />
    <glyph glyph-name="bar" unicode="|" horiz-adv-x="583" 
d="M76 -152l348 1674h149l-348 -1674h-149z" />
    <glyph glyph-name="braceright" unicode="}" horiz-adv-x="831" 
d="M-61 -340l-5 133q123 18 189 45t100 72t51 127l58 280q20 95 67.5 149t135.5 85q-115 41 -115 168q0 45 41 221.5t41 210.5q0 65 -51 93.5t-191 49.5l31 133q199 -20 287 -84t88 -182q0 -53 -38 -224.5t-38 -215.5q0 -60 38 -84.5t126 -24.5l-15 -135
q-106 0 -165.5 -47.5t-81.5 -148.5l-58 -275q-34 -166 -141.5 -244t-353.5 -102z" />
    <glyph glyph-name="asciitilde" unicode="~" horiz-adv-x="919" 
d="M625 610q-43 0 -81 19.5t-60 43t-49.5 43t-51.5 19.5q-85 0 -135 -135l-111 31q42 124 102 185t144 61q42 0 80 -19.5t60 -43t49.5 -43t50.5 -19.5q87 0 137 137l110 -33q-42 -124 -101.5 -185t-143.5 -61z" />
    <glyph glyph-name="exclamdown" unicode="&#xa1;" horiz-adv-x="579" 
d="M389 1083q55 0 89 -34t34 -86q0 -65 -46.5 -108.5t-105.5 -43.5q-52 0 -85 35t-33 86q0 60 45 105.5t102 45.5zM383 631l-154 -979h-237l252 979h139z" />
    <glyph glyph-name="cent" unicode="&#xa2;" horiz-adv-x="1118" 
d="M848 276l121 -137q-170 -144 -375 -162l-27 -129h-172l29 142q-149 37 -245.5 161t-96.5 281q0 117 45 227.5t122 195t181.5 143t220.5 77.5l27 131h172l-27 -129q85 -12 163 -56t130 -108l-153 -114q-28 38 -75.5 65.5t-101.5 36.5l-153 -743q117 25 215 118zM285 440
q0 -90 49.5 -163.5t128.5 -106.5l149 719q-141 -42 -234 -168.5t-93 -280.5z" />
    <glyph glyph-name="sterling" unicode="&#xa3;" horiz-adv-x="1292" 
d="M463 530l-72 -350h744l-39 -180h-1098l18 94l164 86l74 350h-131l31 146h129l59 280q44 212 195.5 344t347.5 132q146 0 259.5 -69t149.5 -173l-168 -125q-9 80 -76.5 129t-162.5 49q-120 0 -217 -88.5t-125 -222.5l-51 -256h387l-31 -146h-387z" />
    <glyph glyph-name="yen" unicode="&#xa5;" horiz-adv-x="1390" 
d="M1544 1407l-633 -737h322l-31 -146h-399l-33 -153h401l-30 -146h-402l-49 -225h-215l49 225h-399l31 146h399l33 153h-402l31 146h324l-332 737h203l307 -678l579 678h246z" />
    <glyph glyph-name="dieresis" unicode="&#xa8;" horiz-adv-x="886" 
d="M397 1214q-46 0 -74 29t-28 72q0 47 36 84t83 37q45 0 73.5 -30.5t28.5 -72.5q0 -47 -37 -83t-82 -36zM803 1214q-45 0 -73 29.5t-28 73.5q0 46 36 82.5t83 36.5q43 0 72 -30.5t29 -72.5q0 -47 -36.5 -83t-82.5 -36z" />
    <glyph glyph-name="macron" unicode="&#xaf;" horiz-adv-x="917" 
d="M270 1208l27 133h659l-26 -133h-660z" />
    <glyph glyph-name="acute" unicode="&#xb4;" horiz-adv-x="704" 
d="M264 1180l307 303l195 -41l-350 -262h-152z" />
    <glyph glyph-name="cedilla" unicode="&#xb8;" horiz-adv-x="649" 
d="M231 -90q58 0 94.5 -33.5t36.5 -87.5q0 -84 -66.5 -135t-162.5 -51q-108 0 -182 63l53 86q44 -41 113 -41q60 0 94.5 22t34.5 62q0 23 -14 38t-37 15q-41 0 -78 -26l-35 43l96 158h127z" />
    <glyph glyph-name="questiondown" unicode="&#xbf;" horiz-adv-x="1042" 
d="M657 1083q55 0 89 -34t34 -86q0 -65 -46 -108.5t-105 -43.5q-52 0 -85.5 35.5t-33.5 85.5q0 60 45 105.5t102 45.5zM698 635l-73 -369q-81 -5 -159.5 -27.5t-142.5 -58.5t-103.5 -88t-39.5 -110q0 -73 53 -120.5t148 -47.5q182 0 364 178l109 -139q-233 -226 -504 -226
q-177 0 -280 89.5t-103 230.5q0 87 40 166t107.5 137.5t152 100.5t177.5 61l45 223h209z" />
    <glyph glyph-name="Agrave" unicode="&#xc0;" horiz-adv-x="1554" 
d="M1055 1528h-142l-241 262l202 41zM1167 0l-65 293h-729l-187 -293h-233l897 1407h231l-2 -2l312 -1405h-224zM487 473h576l-150 670z" />
    <glyph glyph-name="Aacute" unicode="&#xc1;" horiz-adv-x="1554" 
d="M1411 1790l-350 -262h-152l308 303zM1081 1407l-2 -2l312 -1405h-224l-65 293h-729l-187 -293h-233l897 1407h231zM1063 473l-150 670l-426 -670h576z" />
    <glyph glyph-name="Acircumflex" unicode="&#xc2;" horiz-adv-x="1554" 
d="M1036 1696l-194 -168h-146l269 287h178l151 -287h-135zM1167 0l-65 293h-729l-187 -293h-233l897 1407h231l-2 -2l312 -1405h-224zM487 473h576l-150 670z" />
    <glyph glyph-name="Atilde" unicode="&#xc3;" horiz-adv-x="1554" 
d="M901 1649q-85 0 -135 -136l-111 31q42 124 102 185t144 61q42 0 80 -19.5t60 -43t49.5 -43t50.5 -19.5q87 0 137 137l111 -33q-42 -124 -102 -184.5t-144 -60.5q-43 0 -81 19.5t-60 43t-49.5 43t-51.5 19.5zM1167 0l-65 293h-729l-187 -293h-233l897 1407h231l-2 -2
l312 -1405h-224zM487 473h576l-150 670z" />
    <glyph glyph-name="Adieresis" unicode="&#xc4;" horiz-adv-x="1554" 
d="M815 1563q-46 0 -74 29t-28 71q0 48 35.5 84.5t82.5 36.5q45 0 74 -30.5t29 -72.5q0 -47 -37 -82.5t-82 -35.5zM1221 1563q-45 0 -73 29t-28 73q0 46 36 82.5t83 36.5q43 0 71.5 -30.5t28.5 -72.5q0 -47 -36 -82.5t-82 -35.5zM1167 0l-65 293h-729l-187 -293h-233
l897 1407h231l-2 -2l312 -1405h-224zM487 473h576l-150 670z" />
    <glyph glyph-name="Aring" unicode="&#xc5;" horiz-adv-x="1554" 
d="M999 1548q-79 0 -128.5 50t-49.5 126q0 103 83 182t186 79q79 0 128.5 -49.5t49.5 -123.5q0 -104 -83 -184t-186 -80zM1069 1884q-55 0 -99 -42t-44 -97q0 -40 26.5 -67t67.5 -27q54 0 98.5 42.5t44.5 96.5q0 40 -26.5 67t-67.5 27zM1167 0l-65 293h-729l-187 -293h-233
l897 1407h231l-2 -2l312 -1405h-224zM487 473h576l-150 670z" />
    <glyph glyph-name="AE" unicode="&#xc6;" horiz-adv-x="2134" 
d="M2171 1214h-828l-79 -401h743l-39 -192h-747l-86 -428h823l-41 -193h-1034l61 293h-526l-230 -293h-245l1106 1407h1161zM559 473h422l152 731z" />
    <glyph glyph-name="Ccedilla" unicode="&#xc7;" horiz-adv-x="1411" 
d="M1016 1432q132 0 263 -63.5t210 -164.5l-166 -129q-53 74 -145.5 120t-190.5 46q-129 0 -249.5 -53.5t-208.5 -142.5t-140.5 -211t-52.5 -252q0 -84 34 -161.5t90.5 -133t133.5 -88.5t160 -33q93 0 206.5 49.5t200.5 126.5l123 -149q-103 -87 -243 -146.5t-267 -69.5
l-45 -67q58 0 94.5 -33.5t36.5 -87.5q0 -84 -66.5 -135t-162.5 -51q-108 0 -182 63l53 86q44 -41 112 -41q60 0 94.5 22t34.5 62q0 23 -14 38t-37 15q-41 0 -78 -26l-34 43l69 115q-144 19 -263.5 103.5t-189 216t-69.5 282.5q0 224 121.5 420.5t327 313t440.5 116.5z" />
    <glyph glyph-name="Egrave" unicode="&#xc8;" horiz-adv-x="1294" 
d="M1034 1528h-141l-242 262l203 41zM1331 1214h-827l-80 -401h743l-39 -192h-747l-86 -428h823l-41 -193h-1034l293 1407h1034z" />
    <glyph glyph-name="Eacute" unicode="&#xc9;" horiz-adv-x="1294" 
d="M1176 1790l-351 -262h-151l307 303zM1331 1214h-827l-80 -401h743l-39 -192h-747l-86 -428h823l-41 -193h-1034l293 1407h1034z" />
    <glyph glyph-name="Ecircumflex" unicode="&#xca;" horiz-adv-x="1294" 
d="M920 1696l-195 -168h-145l268 287h178l152 -287h-136zM1331 1214h-827l-80 -401h743l-39 -192h-747l-86 -428h823l-41 -193h-1034l293 1407h1034z" />
    <glyph glyph-name="Edieresis" unicode="&#xcb;" horiz-adv-x="1294" 
d="M698 1563q-46 0 -74 29t-28 71q0 47 36 84t83 37q45 0 73.5 -30.5t28.5 -72.5q0 -47 -37 -82.5t-82 -35.5zM1104 1563q-45 0 -72.5 29t-27.5 73q0 46 35.5 82.5t82.5 36.5q43 0 72 -30.5t29 -72.5q0 -47 -36.5 -82.5t-82.5 -35.5zM1331 1214h-827l-80 -401h743l-39 -192
h-747l-86 -428h823l-41 -193h-1034l293 1407h1034z" />
    <glyph glyph-name="Igrave" unicode="&#xcc;" horiz-adv-x="518" 
d="M406 1528l-242 262l203 41l180 -303h-141zM45 0l293 1407h207l-293 -1407h-207z" />
    <glyph glyph-name="Iacute" unicode="&#xcd;" horiz-adv-x="518" 
d="M381 1528l307 303l195 -41l-351 -262h-151zM45 0l293 1407h207l-293 -1407h-207z" />
    <glyph glyph-name="Icircumflex" unicode="&#xce;" horiz-adv-x="518" 
d="M168 1528l268 287h178l152 -287h-135l-123 168l-195 -168h-145zM45 0l293 1407h207l-293 -1407h-207z" />
    <glyph glyph-name="Idieresis" unicode="&#xcf;" horiz-adv-x="518" 
d="M287 1563q-46 0 -74.5 29t-28.5 71q0 47 36 84t83 37q45 0 74 -30.5t29 -72.5q0 -47 -37 -82.5t-82 -35.5zM692 1563q-45 0 -72.5 29t-27.5 73q0 46 36 82.5t83 36.5q43 0 71.5 -30.5t28.5 -72.5q0 -47 -36.5 -82.5t-82.5 -35.5zM45 0l293 1407h207l-293 -1407h-207z" />
    <glyph glyph-name="Eth" unicode="&#xd0;" horiz-adv-x="1611" 
d="M889 1407q287 0 469 -158t182 -407q0 -168 -75 -324t-200.5 -269t-297.5 -181t-357 -68h-493l129 618h-142l39 193h142l125 596h479zM647 188q182 0 339.5 87.5t250 236t92.5 319.5q0 169 -127 278.5t-325 109.5h-297l-86 -408h385l-41 -193h-383l-90 -430h282z" />
    <glyph glyph-name="Ntilde" unicode="&#xd1;" horiz-adv-x="1579" 
d="M1143 1524q-43 0 -81 19.5t-60 43t-49.5 43t-51.5 19.5q-85 0 -135 -136l-111 31q42 124 102 185t144 61q42 0 80 -19.5t60 -43t49.5 -43t50.5 -19.5q87 0 137 137l111 -33q-42 -124 -102 -184.5t-144 -60.5zM68 0l292 1407h205l586 -1067l225 1067h207l-293 -1407h-203
l-585 1067l-228 -1067h-206z" />
    <glyph glyph-name="Ograve" unicode="&#xd2;" horiz-adv-x="1656" 
d="M969 1528l-242 262l203 41l180 -303h-141zM721 -25q-162 0 -299.5 80.5t-217 217.5t-79.5 298q0 229 122.5 428t327 316t437.5 117q128 0 239.5 -46t189.5 -125.5t122.5 -189.5t44.5 -235q0 -171 -73 -330t-193.5 -275t-284 -186t-336.5 -70zM750 166q171 0 322 94.5
t239 247t88 319.5q0 177 -116.5 295.5t-297.5 118.5q-129 0 -249 -53.5t-208 -142.5t-141 -210.5t-53 -250.5q0 -170 123 -294t293 -124z" />
    <glyph glyph-name="Oacute" unicode="&#xd3;" horiz-adv-x="1656" 
d="M952 1528l308 303l194 -41l-350 -262h-152zM721 -25q-162 0 -299.5 80.5t-217 217.5t-79.5 298q0 229 122.5 428t327 316t437.5 117q128 0 239.5 -46t189.5 -125.5t122.5 -189.5t44.5 -235q0 -171 -73 -330t-193.5 -275t-284 -186t-336.5 -70zM750 166q171 0 322 94.5
t239 247t88 319.5q0 177 -116.5 295.5t-297.5 118.5q-129 0 -249 -53.5t-208 -142.5t-141 -210.5t-53 -250.5q0 -170 123 -294t293 -124z" />
    <glyph glyph-name="Ocircumflex" unicode="&#xd4;" horiz-adv-x="1656" 
d="M731 1528l268 287h179l151 -287h-135l-123 168l-194 -168h-146zM721 -25q-162 0 -299.5 80.5t-217 217.5t-79.5 298q0 229 122.5 428t327 316t437.5 117q128 0 239.5 -46t189.5 -125.5t122.5 -189.5t44.5 -235q0 -171 -73 -330t-193.5 -275t-284 -186t-336.5 -70z
M750 166q171 0 322 94.5t239 247t88 319.5q0 177 -116.5 295.5t-297.5 118.5q-129 0 -249 -53.5t-208 -142.5t-141 -210.5t-53 -250.5q0 -170 123 -294t293 -124z" />
    <glyph glyph-name="Otilde" unicode="&#xd5;" horiz-adv-x="1656" 
d="M1178 1524q-43 0 -81 19.5t-60 43t-49.5 43t-51.5 19.5q-85 0 -135 -136l-111 31q42 124 102 185t144 61q42 0 80 -19.5t60 -43t49.5 -43t50.5 -19.5q87 0 137 137l110 -33q-42 -124 -101.5 -184.5t-143.5 -60.5zM721 -25q-162 0 -299.5 80.5t-217 217.5t-79.5 298
q0 229 122.5 428t327 316t437.5 117q128 0 239.5 -46t189.5 -125.5t122.5 -189.5t44.5 -235q0 -171 -73 -330t-193.5 -275t-284 -186t-336.5 -70zM750 166q171 0 322 94.5t239 247t88 319.5q0 177 -116.5 295.5t-297.5 118.5q-129 0 -249 -53.5t-208 -142.5t-141 -210.5
t-53 -250.5q0 -170 123 -294t293 -124z" />
    <glyph glyph-name="Odieresis" unicode="&#xd6;" horiz-adv-x="1656" 
d="M850 1563q-46 0 -74 29t-28 71q0 48 35.5 84.5t82.5 36.5q45 0 74 -30.5t29 -72.5q0 -47 -37 -82.5t-82 -35.5zM1255 1563q-45 0 -72.5 29t-27.5 73q0 46 36 82.5t83 36.5q43 0 71.5 -30.5t28.5 -72.5q0 -47 -36.5 -82.5t-82.5 -35.5zM721 -25q-162 0 -299.5 80.5
t-217 217.5t-79.5 298q0 229 122.5 428t327 316t437.5 117q128 0 239.5 -46t189.5 -125.5t122.5 -189.5t44.5 -235q0 -171 -73 -330t-193.5 -275t-284 -186t-336.5 -70zM750 166q171 0 322 94.5t239 247t88 319.5q0 177 -116.5 295.5t-297.5 118.5q-129 0 -249 -53.5
t-208 -142.5t-141 -210.5t-53 -250.5q0 -170 123 -294t293 -124z" />
    <glyph glyph-name="multiply" unicode="&#xd7;" horiz-adv-x="1122" 
d="M1053 956l-328 -272l217 -270l-156 -133l-219 272l-325 -270l-109 127l330 274l-217 272l155 134l220 -275l325 272z" />
    <glyph glyph-name="Oslash" unicode="&#xd8;" horiz-adv-x="1656" 
d="M1731 1407l-232 -217q109 -153 109 -354q0 -171 -73 -330t-193.5 -275t-284 -186t-336.5 -70q-215 0 -379 138l-121 -113h-211l234 217q-119 153 -119 354q0 229 122.5 428t327 316t437.5 117q229 0 389 -138l121 113h209zM334 584q0 -122 65 -222l850 791
q-112 88 -264 88q-129 0 -249 -53.5t-208 -142.5t-141 -210.5t-53 -250.5zM1399 827q0 121 -58 217l-845 -788q111 -90 254 -90q171 0 322 94.5t239 247t88 319.5z" />
    <glyph glyph-name="Ugrave" unicode="&#xd9;" horiz-adv-x="1533" 
d="M987 1528l-242 262l203 41l180 -303h-141zM659 -25q-132 0 -236.5 46.5t-167 129.5t-86 197.5t6.5 251.5l168 807h209l-170 -819q-40 -187 45.5 -305.5t257.5 -118.5q177 0 315.5 124t178.5 316l166 803h206l-170 -823q-37 -177 -141.5 -316t-256.5 -216t-325 -77z" />
    <glyph glyph-name="Uacute" unicode="&#xda;" horiz-adv-x="1533" 
d="M768 1528l307 303l195 -41l-350 -262h-152zM659 -25q-132 0 -236.5 46.5t-167 129.5t-86 197.5t6.5 251.5l168 807h209l-170 -819q-40 -187 45.5 -305.5t257.5 -118.5q177 0 315.5 124t178.5 316l166 803h206l-170 -823q-37 -177 -141.5 -316t-256.5 -216t-325 -77z" />
    <glyph glyph-name="Ucircumflex" unicode="&#xdb;" horiz-adv-x="1533" 
d="M674 1528l268 287h178l152 -287h-135l-123 168l-195 -168h-145zM659 -25q-132 0 -236.5 46.5t-167 129.5t-86 197.5t6.5 251.5l168 807h209l-170 -819q-40 -187 45.5 -305.5t257.5 -118.5q177 0 315.5 124t178.5 316l166 803h206l-170 -823q-37 -177 -141.5 -316
t-256.5 -216t-325 -77z" />
    <glyph glyph-name="Udieresis" unicode="&#xdc;" horiz-adv-x="1533" 
d="M793 1563q-46 0 -74.5 29t-28.5 71q0 47 36 84t83 37q45 0 73.5 -30.5t28.5 -72.5q0 -47 -36.5 -82.5t-81.5 -35.5zM1198 1563q-45 0 -72.5 29t-27.5 73q0 46 36 82.5t83 36.5q43 0 71.5 -30.5t28.5 -72.5q0 -47 -36.5 -82.5t-82.5 -35.5zM659 -25q-132 0 -236.5 46.5
t-167 129.5t-86 197.5t6.5 251.5l168 807h209l-170 -819q-40 -187 45.5 -305.5t257.5 -118.5q177 0 315.5 124t178.5 316l166 803h206l-170 -823q-37 -177 -141.5 -316t-256.5 -216t-325 -77z" />
    <glyph glyph-name="Yacute" unicode="&#xdd;" horiz-adv-x="1390" 
d="M676 1528l307 303l195 -41l-351 -262h-151zM475 0l119 551l-385 856h203l307 -678l579 678h246l-735 -856l-119 -551h-215z" />
    <glyph glyph-name="Thorn" unicode="&#xde;" horiz-adv-x="1331" 
d="M43 0l293 1407h209l-49 -240h374q196 0 319.5 -105.5t123.5 -273.5q0 -151 -86 -275.5t-227.5 -193.5t-305.5 -69h-391l-53 -250h-207zM344 442h348q169 0 290.5 96t121.5 238q0 93 -76.5 145t-210.5 52h-362z" />
    <glyph glyph-name="germandbls" unicode="&#xdf;" horiz-adv-x="1204" 
d="M47 0l227 1081q35 167 178 270t336 103q179 0 285.5 -87.5t106.5 -229.5q0 -129 -73.5 -232t-201.5 -168q89 -46 138 -121.5t49 -169.5q0 -127 -70.5 -230t-187 -159.5t-252.5 -56.5h-176l38 182h115q130 0 229.5 86.5t102.5 202.5q2 79 -58 126.5t-163 47.5h-129l37 176
h84q117 0 209 86t92 191q0 71 -51.5 115t-139.5 44q-108 0 -194.5 -67.5t-108.5 -167.5l-215 -1022h-207z" />
    <glyph glyph-name="agrave" unicode="&#xe0;" horiz-adv-x="1325" 
d="M915 1180h-141l-242 262l203 41zM1077 1059h203l-221 -1059h-203l37 178q-80 -96 -185 -149.5t-221 -53.5q-167 0 -283 123.5t-116 300.5q0 136 49.5 262t132 218.5t197.5 148t240 55.5q107 0 195.5 -64t131.5 -169zM539 152q118 0 219.5 67t161 180.5t59.5 243.5
q0 109 -80 186.5t-194 77.5q-167 0 -290.5 -146t-123.5 -345q0 -109 72.5 -186.5t175.5 -77.5z" />
    <glyph glyph-name="aacute" unicode="&#xe1;" horiz-adv-x="1325" 
d="M1057 1442l-350 -262h-152l307 303zM1077 1059h203l-221 -1059h-203l37 178q-80 -96 -185 -149.5t-221 -53.5q-167 0 -283 123.5t-116 300.5q0 136 49.5 262t132 218.5t197.5 148t240 55.5q107 0 195.5 -64t131.5 -169zM539 152q118 0 219.5 67t161 180.5t59.5 243.5
q0 109 -80 186.5t-194 77.5q-167 0 -290.5 -146t-123.5 -345q0 -109 72.5 -186.5t175.5 -77.5z" />
    <glyph glyph-name="acircumflex" unicode="&#xe2;" horiz-adv-x="1325" 
d="M801 1348l-195 -168h-145l268 286h178l152 -286h-135zM1077 1059h203l-221 -1059h-203l37 178q-80 -96 -185 -149.5t-221 -53.5q-167 0 -283 123.5t-116 300.5q0 136 49.5 262t132 218.5t197.5 148t240 55.5q107 0 195.5 -64t131.5 -169zM539 152q118 0 219.5 67
t161 180.5t59.5 243.5q0 109 -80 186.5t-194 77.5q-167 0 -290.5 -146t-123.5 -345q0 -109 72.5 -186.5t175.5 -77.5z" />
    <glyph glyph-name="atilde" unicode="&#xe3;" horiz-adv-x="1325" 
d="M666 1300q-86 0 -136 -135l-110 31q42 124 102 185t144 61q42 0 79.5 -19.5t60 -43t49.5 -43t50 -19.5q87 0 137 137l111 -33q-42 -124 -102 -184.5t-144 -60.5q-43 0 -80.5 19.5t-60 42.5t-49.5 42.5t-51 19.5zM1077 1059h203l-221 -1059h-203l37 178
q-80 -96 -185 -149.5t-221 -53.5q-167 0 -283 123.5t-116 300.5q0 136 49.5 262t132 218.5t197.5 148t240 55.5q107 0 195.5 -64t131.5 -169zM539 152q118 0 219.5 67t161 180.5t59.5 243.5q0 109 -80 186.5t-194 77.5q-167 0 -290.5 -146t-123.5 -345q0 -109 72.5 -186.5
t175.5 -77.5z" />
    <glyph glyph-name="adieresis" unicode="&#xe4;" horiz-adv-x="1325" 
d="M580 1214q-46 0 -74.5 29.5t-28.5 71.5q0 47 36 84t83 37q45 0 73.5 -30.5t28.5 -72.5q0 -47 -36.5 -83t-81.5 -36zM985 1214q-45 0 -72.5 29.5t-27.5 73.5q0 46 36 82.5t83 36.5q43 0 71.5 -30.5t28.5 -72.5q0 -47 -36.5 -83t-82.5 -36zM1077 1059h203l-221 -1059h-203
l37 178q-80 -96 -185 -149.5t-221 -53.5q-167 0 -283 123.5t-116 300.5q0 136 49.5 262t132 218.5t197.5 148t240 55.5q107 0 195.5 -64t131.5 -169zM539 152q118 0 219.5 67t161 180.5t59.5 243.5q0 109 -80 186.5t-194 77.5q-167 0 -290.5 -146t-123.5 -345
q0 -109 72.5 -186.5t175.5 -77.5z" />
    <glyph glyph-name="aring" unicode="&#xe5;" horiz-adv-x="1325" 
d="M764 1200q-79 0 -128.5 50t-49.5 126q0 103 82.5 181.5t185.5 78.5q79 0 128.5 -49t49.5 -123q0 -104 -82.5 -184t-185.5 -80zM834 1536q-55 0 -99.5 -42t-44.5 -97q0 -40 26.5 -67t67.5 -27q54 0 99 42.5t45 96.5q0 40 -26.5 67t-67.5 27zM1077 1059h203l-221 -1059
h-203l37 178q-80 -96 -185 -149.5t-221 -53.5q-167 0 -283 123.5t-116 300.5q0 136 49.5 262t132 218.5t197.5 148t240 55.5q107 0 195.5 -64t131.5 -169zM539 152q118 0 219.5 67t161 180.5t59.5 243.5q0 109 -80 186.5t-194 77.5q-167 0 -290.5 -146t-123.5 -345
q0 -109 72.5 -186.5t175.5 -77.5z" />
    <glyph glyph-name="ae" unicode="&#xe6;" horiz-adv-x="1900" 
d="M1354 459h-336v-31q0 -128 70 -200t196 -72q90 0 182.5 33.5t151.5 86.5l111 -143q-82 -71 -214 -114.5t-251 -43.5q-130 0 -231 57t-156 158q-84 -100 -208.5 -157.5t-260.5 -57.5q-199 0 -296.5 95.5t-62.5 259.5q30 149 167.5 242.5t311.5 93.5q156 0 322 -64l10 47
q13 50 8 97.5t-23.5 85t-67 60.5t-122.5 23q-125 0 -321 -92l-58 156q230 104 408 104q135 0 221 -51t121 -143q93 91 209 142.5t240 51.5q162 0 273.5 -80t111.5 -210q0 -154 -135.5 -245.5t-370.5 -88.5zM1462 905q-138 0 -246 -79t-159 -205h327q132 0 204.5 39t72.5 108
q0 62 -55.5 99.5t-143.5 37.5zM442 135q126 0 235 81.5t132 191.5l14 69q-118 37 -268 37q-112 0 -204.5 -60t-110.5 -149q-17 -81 36 -125.5t166 -44.5z" />
    <glyph glyph-name="ccedilla" unicode="&#xe7;" horiz-adv-x="1118" 
d="M969 139q-173 -147 -379 -162l-45 -67q58 0 94.5 -33.5t36.5 -87.5q0 -84 -67 -135t-163 -51q-108 0 -182 63l53 86q44 -41 113 -41q60 0 94.5 22t34.5 62q0 23 -14 38t-37 15q-41 0 -78 -26l-35 43l72 117q-165 25 -275 153.5t-110 296.5q0 173 93.5 324t249.5 239
t333 88q102 0 199.5 -47t158.5 -123l-153 -114q-35 49 -100 78.5t-134 29.5q-118 0 -220.5 -64t-163 -172t-60.5 -231q0 -119 81 -203.5t195 -84.5q157 0 287 124z" />
    <glyph glyph-name="egrave" unicode="&#xe8;" horiz-adv-x="1159" 
d="M907 1180h-141l-242 262l203 41zM610 459h-336v-31q0 -128 70.5 -200t196.5 -72q90 0 182 33.5t151 86.5l111 -143q-82 -71 -214 -114.5t-251 -43.5q-195 0 -317.5 122.5t-122.5 320.5q0 131 54.5 254.5t143.5 213t208.5 143.5t244.5 54q162 0 273.5 -80t111.5 -210
q0 -154 -135.5 -245.5t-370.5 -88.5zM719 905q-138 0 -246.5 -79t-159.5 -205h328q132 0 204.5 39t72.5 108q0 62 -55.5 99.5t-143.5 37.5z" />
    <glyph glyph-name="eacute" unicode="&#xe9;" horiz-adv-x="1159" 
d="M1049 1442l-351 -262h-151l307 303zM610 459h-336v-31q0 -128 70.5 -200t196.5 -72q90 0 182 33.5t151 86.5l111 -143q-82 -71 -214 -114.5t-251 -43.5q-195 0 -317.5 122.5t-122.5 320.5q0 131 54.5 254.5t143.5 213t208.5 143.5t244.5 54q162 0 273.5 -80t111.5 -210
q0 -154 -135.5 -245.5t-370.5 -88.5zM719 905q-138 0 -246.5 -79t-159.5 -205h328q132 0 204.5 39t72.5 108q0 62 -55.5 99.5t-143.5 37.5z" />
    <glyph glyph-name="ecircumflex" unicode="&#xea;" horiz-adv-x="1159" 
d="M793 1348l-195 -168h-145l268 286h178l152 -286h-136zM610 459h-336v-31q0 -128 70.5 -200t196.5 -72q90 0 182 33.5t151 86.5l111 -143q-82 -71 -214 -114.5t-251 -43.5q-195 0 -317.5 122.5t-122.5 320.5q0 131 54.5 254.5t143.5 213t208.5 143.5t244.5 54
q162 0 273.5 -80t111.5 -210q0 -154 -135.5 -245.5t-370.5 -88.5zM719 905q-138 0 -246.5 -79t-159.5 -205h328q132 0 204.5 39t72.5 108q0 62 -55.5 99.5t-143.5 37.5z" />
    <glyph glyph-name="edieresis" unicode="&#xeb;" horiz-adv-x="1159" 
d="M571 1214q-46 0 -74 29t-28 72q0 47 36 84t83 37q45 0 73.5 -30.5t28.5 -72.5q0 -47 -37 -83t-82 -36zM977 1214q-45 0 -72.5 29.5t-27.5 73.5q0 46 35.5 82.5t82.5 36.5q43 0 72 -30.5t29 -72.5q0 -47 -36.5 -83t-82.5 -36zM610 459h-336v-31q0 -128 70.5 -200
t196.5 -72q90 0 182 33.5t151 86.5l111 -143q-82 -71 -214 -114.5t-251 -43.5q-195 0 -317.5 122.5t-122.5 320.5q0 131 54.5 254.5t143.5 213t208.5 143.5t244.5 54q162 0 273.5 -80t111.5 -210q0 -154 -135.5 -245.5t-370.5 -88.5zM719 905q-138 0 -246.5 -79t-159.5 -205
h328q132 0 204.5 39t72.5 108q0 62 -55.5 99.5t-143.5 37.5z" />
    <glyph glyph-name="igrave" unicode="&#xec;" horiz-adv-x="493" 
d="M307 1180l-241 262l202 41l181 -303h-142zM35 0l221 1059h203l-221 -1059h-203z" />
    <glyph glyph-name="iacute" unicode="&#xed;" horiz-adv-x="493" 
d="M303 1180l307 303l195 -41l-350 -262h-152zM35 0l221 1059h203l-221 -1059h-203z" />
    <glyph glyph-name="icircumflex" unicode="&#xee;" horiz-adv-x="493" 
d="M84 1180l268 286h178l152 -286h-135l-123 168l-195 -168h-145zM35 0l221 1059h203l-221 -1059h-203z" />
    <glyph glyph-name="idieresis" unicode="&#xef;" horiz-adv-x="493" 
d="M203 1214q-46 0 -74.5 29.5t-28.5 71.5q0 47 36 84t83 37q45 0 74 -30.5t29 -72.5q0 -47 -37 -83t-82 -36zM608 1214q-45 0 -72.5 29.5t-27.5 73.5q0 46 36 82.5t83 36.5q43 0 71.5 -30.5t28.5 -72.5q0 -47 -36.5 -83t-82.5 -36zM35 0l221 1059h203l-221 -1059h-203z" />
    <glyph glyph-name="eth" unicode="&#xf0;" horiz-adv-x="1290" 
d="M963 1247q119 -136 178 -266t59 -274q0 -191 -84 -358.5t-235.5 -270.5t-333.5 -103q-205 0 -327 116.5t-122 307.5q0 161 76 303t209.5 229t290.5 87q192 0 311 -160q-43 164 -190 320l-265 -109l-34 137l188 78q-43 39 -137 113l198 71q103 -98 115 -110l221 90
l33 -137zM557 154q112 0 210 62t155 164t57 216q0 111 -67 180.5t-187 69.5q-114 0 -212 -62t-155 -164t-57 -217q0 -116 68 -182.5t188 -66.5z" />
    <glyph glyph-name="ntilde" unicode="&#xf1;" 
d="M664 1300q-86 0 -136 -135l-110 31q42 124 102 185t144 61q42 0 79.5 -19.5t60 -43t49.5 -43t50 -19.5q87 0 137 137l111 -33q-42 -124 -102 -184.5t-144 -60.5q-43 0 -80.5 19.5t-60 42.5t-49.5 42.5t-51 19.5zM786 1083q152 0 242 -88t90 -231q0 -14 -0.5 -25.5t-3 -30
t-5.5 -35.5t-9.5 -51t-13 -67t-19 -93t-25 -118t-32 -153.5t-39.5 -190.5h-199q29 140 70 338q50 237 60.5 294t10.5 89q0 88 -47.5 137t-132.5 49q-120 0 -223 -71t-131 -170l-139 -666h-203l221 1059h203l-29 -141q62 74 158 119.5t196 45.5z" />
    <glyph glyph-name="ograve" unicode="&#xf2;" horiz-adv-x="1296" 
d="M788 1180l-241 262l203 41l180 -303h-142zM535 -25q-187 0 -320 134.5t-133 322.5q0 130 55.5 250.5t147 208t215.5 140t256 52.5q124 0 229.5 -61.5t167 -166.5t61.5 -228q0 -173 -93.5 -324t-250.5 -239.5t-335 -88.5zM561 152q120 0 224.5 63.5t166.5 170.5t62 230
q0 120 -84 205.5t-201 85.5q-118 0 -221 -64t-164 -172t-61 -231q0 -118 82 -203t196 -85z" />
    <glyph glyph-name="oacute" unicode="&#xf3;" horiz-adv-x="1296" 
d="M569 1180l308 303l194 -41l-350 -262h-152zM535 -25q-187 0 -320 134.5t-133 322.5q0 130 55.5 250.5t147 208t215.5 140t256 52.5q124 0 229.5 -61.5t167 -166.5t61.5 -228q0 -173 -93.5 -324t-250.5 -239.5t-335 -88.5zM561 152q120 0 224.5 63.5t166.5 170.5t62 230
q0 120 -84 205.5t-201 85.5q-118 0 -221 -64t-164 -172t-61 -231q0 -118 82 -203t196 -85z" />
    <glyph glyph-name="ocircumflex" unicode="&#xf4;" horiz-adv-x="1296" 
d="M475 1180l268 286h179l151 -286h-135l-123 168l-194 -168h-146zM535 -25q-187 0 -320 134.5t-133 322.5q0 130 55.5 250.5t147 208t215.5 140t256 52.5q124 0 229.5 -61.5t167 -166.5t61.5 -228q0 -173 -93.5 -324t-250.5 -239.5t-335 -88.5zM561 152q120 0 224.5 63.5
t166.5 170.5t62 230q0 120 -84 205.5t-201 85.5q-118 0 -221 -64t-164 -172t-61 -231q0 -118 82 -203t196 -85z" />
    <glyph glyph-name="otilde" unicode="&#xf5;" horiz-adv-x="1296" 
d="M922 1176q-43 0 -81 19.5t-60 42.5t-49.5 42.5t-51.5 19.5q-86 0 -135 -135l-111 31q42 124 102 185t144 61q42 0 80 -19.5t60 -43t49.5 -43t50.5 -19.5q87 0 137 137l110 -33q-42 -124 -101.5 -184.5t-143.5 -60.5zM535 -25q-187 0 -320 134.5t-133 322.5
q0 130 55.5 250.5t147 208t215.5 140t256 52.5q124 0 229.5 -61.5t167 -166.5t61.5 -228q0 -173 -93.5 -324t-250.5 -239.5t-335 -88.5zM561 152q120 0 224.5 63.5t166.5 170.5t62 230q0 120 -84 205.5t-201 85.5q-118 0 -221 -64t-164 -172t-61 -231q0 -118 82 -203
t196 -85z" />
    <glyph glyph-name="odieresis" unicode="&#xf6;" horiz-adv-x="1296" 
d="M594 1214q-46 0 -74 29t-28 72q0 48 35.5 84.5t82.5 36.5q45 0 74 -30.5t29 -72.5q0 -47 -37 -83t-82 -36zM999 1214q-45 0 -72.5 29.5t-27.5 73.5q0 46 36 82.5t83 36.5q43 0 71.5 -30.5t28.5 -72.5q0 -47 -36.5 -83t-82.5 -36zM535 -25q-187 0 -320 134.5t-133 322.5
q0 130 55.5 250.5t147 208t215.5 140t256 52.5q124 0 229.5 -61.5t167 -166.5t61.5 -228q0 -173 -93.5 -324t-250.5 -239.5t-335 -88.5zM561 152q120 0 224.5 63.5t166.5 170.5t62 230q0 120 -84 205.5t-201 85.5q-118 0 -221 -64t-164 -172t-61 -231q0 -118 82 -203
t196 -85z" />
    <glyph glyph-name="divide" unicode="&#xf7;" horiz-adv-x="1222" 
d="M707 905q-53 0 -85 33t-32 84q0 61 42.5 101t98.5 40q50 0 82.5 -34t32.5 -82q0 -56 -43 -99t-96 -43zM145 594l39 182h957l-39 -182h-957zM561 205q-53 0 -85 33t-32 84q0 61 43 101t99 40q50 0 81 -33t31 -80q0 -58 -41.5 -101.5t-95.5 -43.5z" />
    <glyph glyph-name="oslash" unicode="&#xf8;" horiz-adv-x="1296" 
d="M1309 1059l-181 -168q86 -119 86 -264q0 -173 -93.5 -324t-250.5 -239.5t-335 -88.5q-152 0 -277 97l-78 -72h-192l178 168q-84 117 -84 264q0 130 55.5 250.5t147 208t215.5 140t256 52.5q157 0 282 -98l78 74h193zM283 440q0 -71 32 -133l580 545q-74 55 -166 55
q-118 0 -221 -64t-164 -172t-61 -231zM1014 616q0 68 -33 136l-582 -545q74 -55 162 -55q120 0 224.5 63.5t166.5 170.5t62 230z" />
    <glyph glyph-name="ugrave" unicode="&#xf9;" 
d="M907 1180h-141l-242 262l203 41zM987 1059h203l-221 -1059h-203l29 141q-62 -75 -158.5 -120.5t-196.5 -45.5q-152 0 -241.5 88.5t-89.5 231.5q0 14 0.5 25.5t3 30t5.5 35.5t9.5 51t13 67t19 93t25 118t32 153.5t39.5 190.5h199q-18 -85 -35.5 -169.5t-29 -140t-23 -110
t-18.5 -87.5t-13.5 -65t-10 -50.5t-6.5 -35t-4 -27t-1.5 -19t-0.5 -17.5q0 -88 48 -137t133 -49q120 0 223 71t131 170z" />
    <glyph glyph-name="uacute" unicode="&#xfa;" 
d="M1049 1442l-351 -262h-151l307 303zM987 1059h203l-221 -1059h-203l29 141q-62 -75 -158.5 -120.5t-196.5 -45.5q-152 0 -241.5 88.5t-89.5 231.5q0 14 0.5 25.5t3 30t5.5 35.5t9.5 51t13 67t19 93t25 118t32 153.5t39.5 190.5h199q-18 -85 -35.5 -169.5t-29 -140
t-23 -110t-18.5 -87.5t-13.5 -65t-10 -50.5t-6.5 -35t-4 -27t-1.5 -19t-0.5 -17.5q0 -88 48 -137t133 -49q120 0 223 71t131 170z" />
    <glyph glyph-name="ucircumflex" unicode="&#xfb;" 
d="M793 1348l-195 -168h-145l268 286h178l152 -286h-136zM987 1059h203l-221 -1059h-203l29 141q-62 -75 -158.5 -120.5t-196.5 -45.5q-152 0 -241.5 88.5t-89.5 231.5q0 14 0.5 25.5t3 30t5.5 35.5t9.5 51t13 67t19 93t25 118t32 153.5t39.5 190.5h199
q-18 -85 -35.5 -169.5t-29 -140t-23 -110t-18.5 -87.5t-13.5 -65t-10 -50.5t-6.5 -35t-4 -27t-1.5 -19t-0.5 -17.5q0 -88 48 -137t133 -49q120 0 223 71t131 170z" />
    <glyph glyph-name="udieresis" unicode="&#xfc;" 
d="M571 1214q-46 0 -74 29t-28 72q0 47 36 84t83 37q45 0 73.5 -30.5t28.5 -72.5q0 -47 -37 -83t-82 -36zM977 1214q-45 0 -72.5 29.5t-27.5 73.5q0 46 35.5 82.5t82.5 36.5q43 0 72 -30.5t29 -72.5q0 -47 -36.5 -83t-82.5 -36zM987 1059h203l-221 -1059h-203l29 141
q-62 -75 -158.5 -120.5t-196.5 -45.5q-152 0 -241.5 88.5t-89.5 231.5q0 14 0.5 25.5t3 30t5.5 35.5t9.5 51t13 67t19 93t25 118t32 153.5t39.5 190.5h199q-18 -85 -35.5 -169.5t-29 -140t-23 -110t-18.5 -87.5t-13.5 -65t-10 -50.5t-6.5 -35t-4 -27t-1.5 -19t-0.5 -17.5
q0 -88 48 -137t133 -49q120 0 223 71t131 170z" />
    <glyph glyph-name="yacute" unicode="&#xfd;" horiz-adv-x="1220" 
d="M532 1180l308 303l194 -41l-350 -262h-152zM156 -369q-109 0 -197 50l66 147q51 -29 116 -29q103 0 170 90l80 105l-229 1065h211l166 -836l495 836h217l-708 -1163q-160 -265 -387 -265z" />
    <glyph glyph-name="thorn" unicode="&#xfe;" horiz-adv-x="1327" 
d="M840 1083q167 0 283 -123t116 -298q0 -136 -49 -262.5t-132 -219.5t-197.5 -149t-239.5 -56q-107 0 -195.5 64.5t-132.5 169.5l-117 -561h-201l371 1784h201l-115 -553q80 96 186 150t222 54zM621 152q111 0 206.5 67t152 180t56.5 244q0 109 -72.5 186.5t-175.5 77.5
q-118 0 -219.5 -67t-161 -180.5t-59.5 -243.5q0 -109 80.5 -186.5t192.5 -77.5z" />
    <glyph glyph-name="ydieresis" unicode="&#xff;" horiz-adv-x="1220" 
d="M557 1214q-46 0 -74 29t-28 72q0 48 35.5 84.5t82.5 36.5q45 0 74 -30.5t29 -72.5q0 -47 -37 -83t-82 -36zM963 1214q-45 0 -73 29.5t-28 73.5q0 46 36 82.5t83 36.5q43 0 71.5 -30.5t28.5 -72.5q0 -47 -36 -83t-82 -36zM156 -369q-109 0 -197 50l66 147q51 -29 116 -29
q103 0 170 90l80 105l-229 1065h211l166 -836l495 836h217l-708 -1163q-160 -265 -387 -265z" />
    <glyph glyph-name="Amacron" unicode="&#x100;" horiz-adv-x="1554" 
d="M1358 1690l-27 -134h-659l26 134h660zM1167 0l-65 293h-729l-187 -293h-233l897 1407h231l-2 -2l312 -1405h-224zM487 473h576l-150 670z" />
    <glyph glyph-name="amacron" unicode="&#x101;" horiz-adv-x="1325" 
d="M1122 1341l-26 -133h-660l27 133h659zM1077 1059h203l-221 -1059h-203l37 178q-80 -96 -185 -149.5t-221 -53.5q-167 0 -283 123.5t-116 300.5q0 136 49.5 262t132 218.5t197.5 148t240 55.5q107 0 195.5 -64t131.5 -169zM539 152q118 0 219.5 67t161 180.5t59.5 243.5
q0 109 -80 186.5t-194 77.5q-167 0 -290.5 -146t-123.5 -345q0 -109 72.5 -186.5t175.5 -77.5z" />
    <glyph glyph-name="Abreve" unicode="&#x102;" horiz-adv-x="1554" 
d="M1010 1548q-177 0 -289 131l123 101q32 -39 79.5 -60.5t98.5 -21.5q115 0 225 88l92 -113q-148 -125 -329 -125zM1167 0l-65 293h-729l-187 -293h-233l897 1407h231l-2 -2l312 -1405h-224zM487 473h576l-150 670z" />
    <glyph glyph-name="abreve" unicode="&#x103;" horiz-adv-x="1325" 
d="M774 1200q-177 0 -289 131l123 101q32 -39 79.5 -60.5t98.5 -21.5q116 0 226 88l92 -113q-148 -125 -330 -125zM1077 1059h203l-221 -1059h-203l37 178q-80 -96 -185 -149.5t-221 -53.5q-167 0 -283 123.5t-116 300.5q0 136 49.5 262t132 218.5t197.5 148t240 55.5
q107 0 195.5 -64t131.5 -169zM539 152q118 0 219.5 67t161 180.5t59.5 243.5q0 109 -80 186.5t-194 77.5q-167 0 -290.5 -146t-123.5 -345q0 -109 72.5 -186.5t175.5 -77.5z" />
    <glyph glyph-name="Aogonek" unicode="&#x104;" horiz-adv-x="1554" 
d="M1438 -172l47 -125q-76 -57 -178 -57q-90 0 -142.5 48t-52.5 132q0 104 70 174h-15l-65 293h-729l-187 -293h-233l897 1407h231l-2 -2l312 -1403l6 -2q-63 0 -104.5 -41t-41.5 -104q0 -32 21 -50t59 -18q66 0 107 41zM487 473h576l-150 670z" />
    <glyph glyph-name="aogonek" unicode="&#x105;" horiz-adv-x="1325" 
d="M999 -213q66 0 107 41l47 -125q-76 -57 -178 -57q-90 0 -142.5 48t-52.5 132q0 110 78 182l35 170q-80 -96 -185 -149.5t-221 -53.5q-167 0 -283 123.5t-116 300.5q0 136 49.5 262t132 218.5t197.5 148t240 55.5q107 0 195.5 -64t131.5 -169l43 209h203l-221 -1057l6 -2
q-63 0 -104 -41t-41 -104q0 -32 20.5 -50t58.5 -18zM539 152q118 0 219.5 67t161 180.5t59.5 243.5q0 109 -80 186.5t-194 77.5q-167 0 -290.5 -146t-123.5 -345q0 -109 72.5 -186.5t175.5 -77.5z" />
    <glyph glyph-name="Cacute" unicode="&#x106;" horiz-adv-x="1411" 
d="M797 1528l307 303l194 -41l-350 -262h-151zM725 -25q-160 0 -298 81.5t-219 221.5t-81 304q0 224 121.5 420.5t327 313t440.5 116.5q132 0 263 -63.5t210 -164.5l-166 -129q-53 74 -145.5 120t-190.5 46q-129 0 -249.5 -53.5t-208.5 -142.5t-140.5 -211t-52.5 -252
q0 -84 34 -161.5t90.5 -133t133.5 -88.5t160 -33q93 0 206.5 49.5t200.5 126.5l123 -149q-113 -96 -269.5 -157t-289.5 -61z" />
    <glyph glyph-name="cacute" unicode="&#x107;" horiz-adv-x="1118" 
d="M547 1180l307 303l195 -41l-351 -262h-151zM537 -25q-188 0 -321.5 134.5t-133.5 322.5q0 173 93.5 324t249.5 239t333 88q102 0 199.5 -47t158.5 -123l-153 -114q-35 49 -100 78.5t-134 29.5q-118 0 -220.5 -64t-163 -172t-60.5 -231q0 -119 81 -203.5t195 -84.5
q157 0 287 124l121 -137q-191 -164 -432 -164z" />
    <glyph glyph-name="Ccaron" unicode="&#x10c;" horiz-adv-x="1411" 
d="M915 1528l-147 287h133l121 -168l197 168h147l-272 -287h-179zM725 -25q-160 0 -298 81.5t-219 221.5t-81 304q0 224 121.5 420.5t327 313t440.5 116.5q132 0 263 -63.5t210 -164.5l-166 -129q-53 74 -145.5 120t-190.5 46q-129 0 -249.5 -53.5t-208.5 -142.5
t-140.5 -211t-52.5 -252q0 -84 34 -161.5t90.5 -133t133.5 -88.5t160 -33q93 0 206.5 49.5t200.5 126.5l123 -149q-113 -96 -269.5 -157t-289.5 -61z" />
    <glyph glyph-name="ccaron" unicode="&#x10d;" horiz-adv-x="1118" 
d="M666 1180l-148 286h133l121 -168l197 168h147l-272 -286h-178zM537 -25q-188 0 -321.5 134.5t-133.5 322.5q0 173 93.5 324t249.5 239t333 88q102 0 199.5 -47t158.5 -123l-153 -114q-35 49 -100 78.5t-134 29.5q-118 0 -220.5 -64t-163 -172t-60.5 -231
q0 -119 81 -203.5t195 -84.5q157 0 287 124l121 -137q-191 -164 -432 -164z" />
    <glyph glyph-name="Dcaron" unicode="&#x10e;" horiz-adv-x="1560" 
d="M778 1528l-147 287h133l121 -168l196 168h148l-273 -287h-178zM68 0l292 1407h480q287 0 469 -158t182 -407q0 -168 -75 -324t-200.5 -269t-297.5 -181t-357 -68h-493zM315 188h283q182 0 339.5 87.5t250 236t92.5 319.5q0 169 -127.5 278.5t-325.5 109.5h-297z" />
    <glyph glyph-name="dcaron" unicode="&#x10f;" horiz-adv-x="1323" 
d="M1032 852l121 580h201l-297 -1432h-201l37 176q-80 -94 -185 -147.5t-221 -53.5q-167 0 -283 123.5t-116 300.5q0 136 49.5 262t132 218.5t197.5 148t240 55.5q107 0 194.5 -63.5t130.5 -167.5zM1599 1432q49 0 76 -34t27 -91q0 -79 -47 -146t-150 -166l-69 64
q87 78 135 160q-40 -3 -65 24t-25 68q0 46 35.5 83.5t82.5 37.5zM539 152q147 0 265.5 103t158.5 259l10 47q6 40 6 82q0 109 -80 186.5t-194 77.5q-167 0 -290.5 -146t-123.5 -345q0 -109 72.5 -186.5t175.5 -77.5z" />
    <glyph glyph-name="Dcroat" unicode="&#x110;" horiz-adv-x="1611" 
d="M889 1407q287 0 469 -158t182 -407q0 -168 -75 -324t-200.5 -269t-297.5 -181t-357 -68h-493l129 618h-142l39 193h142l125 596h479zM647 188q182 0 339.5 87.5t250 236t92.5 319.5q0 169 -127 278.5t-325 109.5h-297l-86 -408h385l-41 -193h-383l-90 -430h282z" />
    <glyph glyph-name="dcroat" unicode="&#x111;" horiz-adv-x="1366" 
d="M1456 1309l-26 -119h-125l-248 -1190h-201l37 176q-80 -94 -185 -147.5t-221 -53.5q-167 0 -283 123.5t-116 300.5q0 136 49.5 262t132 218.5t197.5 148t240 55.5q107 0 194.5 -63.5t130.5 -167.5l72 338h-342l26 119h340l25 123h201l-25 -123h127zM539 152
q147 0 265.5 103t158.5 259l10 47q6 40 6 82q0 109 -80 186.5t-194 77.5q-167 0 -290.5 -146t-123.5 -345q0 -109 72.5 -186.5t175.5 -77.5z" />
    <glyph glyph-name="Emacron" unicode="&#x112;" horiz-adv-x="1294" 
d="M1241 1690l-27 -134h-659l27 134h659zM1331 1214h-827l-80 -401h743l-39 -192h-747l-86 -428h823l-41 -193h-1034l293 1407h1034z" />
    <glyph glyph-name="emacron" unicode="&#x113;" horiz-adv-x="1159" 
d="M1114 1341l-27 -133h-659l27 133h659zM610 459h-336v-31q0 -128 70.5 -200t196.5 -72q90 0 182 33.5t151 86.5l111 -143q-82 -71 -214 -114.5t-251 -43.5q-195 0 -317.5 122.5t-122.5 320.5q0 131 54.5 254.5t143.5 213t208.5 143.5t244.5 54q162 0 273.5 -80t111.5 -210
q0 -154 -135.5 -245.5t-370.5 -88.5zM719 905q-138 0 -246.5 -79t-159.5 -205h328q132 0 204.5 39t72.5 108q0 62 -55.5 99.5t-143.5 37.5z" />
    <glyph glyph-name="Edotaccent" unicode="&#x116;" horiz-adv-x="1294" 
d="M901 1563q-46 0 -74 29t-28 71q0 47 36 84t83 37q45 0 73.5 -30.5t28.5 -72.5q0 -47 -37 -82.5t-82 -35.5zM1331 1214h-827l-80 -401h743l-39 -192h-747l-86 -428h823l-41 -193h-1034l293 1407h1034z" />
    <glyph glyph-name="edotaccent" unicode="&#x117;" horiz-adv-x="1159" 
d="M774 1214q-46 0 -74 29t-28 72q0 47 36 84t83 37q45 0 73.5 -30.5t28.5 -72.5q0 -47 -37 -83t-82 -36zM610 459h-336v-31q0 -128 70.5 -200t196.5 -72q90 0 182 33.5t151 86.5l111 -143q-82 -71 -214 -114.5t-251 -43.5q-195 0 -317.5 122.5t-122.5 320.5
q0 131 54.5 254.5t143.5 213t208.5 143.5t244.5 54q162 0 273.5 -80t111.5 -210q0 -154 -135.5 -245.5t-370.5 -88.5zM719 905q-138 0 -246.5 -79t-159.5 -205h328q132 0 204.5 39t72.5 108q0 62 -55.5 99.5t-143.5 37.5z" />
    <glyph glyph-name="Eogonek" unicode="&#x118;" horiz-adv-x="1294" 
d="M1331 1214h-827l-80 -401h743l-39 -192h-747l-86 -428h823l-41 -193h-420q-63 0 -104 -41t-41 -104q0 -32 21 -50t59 -18q65 0 106 41l47 -125q-76 -57 -178 -57q-90 0 -142 48t-52 132q0 105 69 174h-399l293 1407h1034z" />
    <glyph glyph-name="eogonek" unicode="&#x119;" horiz-adv-x="1159" 
d="M610 459h-336v-31q0 -128 70.5 -200t196.5 -72q90 0 182 33.5t151 86.5l111 -143q-81 -70 -210.5 -113t-248.5 -45q-63 0 -104 -41t-41 -104q0 -32 21 -50t59 -18q65 0 106 41l47 -125q-76 -57 -178 -57q-90 0 -142 48t-52 132q0 65 28 118.5t78 86.5q-124 45 -196 154
t-72 258q0 131 54.5 254.5t143.5 213t208.5 143.5t244.5 54q162 0 273.5 -80t111.5 -210q0 -154 -135.5 -245.5t-370.5 -88.5zM719 905q-138 0 -246.5 -79t-159.5 -205h328q132 0 204.5 39t72.5 108q0 62 -55.5 99.5t-143.5 37.5z" />
    <glyph glyph-name="Ecaron" unicode="&#x11a;" horiz-adv-x="1294" 
d="M971 1528h-178l-148 287h133l121 -168l197 168h147zM1331 1214h-827l-80 -401h743l-39 -192h-747l-86 -428h823l-41 -193h-1034l293 1407h1034z" />
    <glyph glyph-name="ecaron" unicode="&#x11b;" horiz-adv-x="1159" 
d="M844 1180h-178l-148 286h133l121 -168l197 168h147zM731 1083q162 0 273.5 -80t111.5 -210q0 -154 -135.5 -245.5t-370.5 -88.5h-336v-31q0 -128 70.5 -200t196.5 -72q90 0 182 33.5t151 86.5l111 -143q-82 -71 -214 -114.5t-251 -43.5q-195 0 -317.5 122.5t-122.5 320.5
q0 131 54.5 254.5t143.5 213t208.5 143.5t244.5 54zM641 621q132 0 204.5 39t72.5 108q0 62 -55.5 99.5t-143.5 37.5q-138 0 -246.5 -79t-159.5 -205h328z" />
    <glyph glyph-name="Gbreve" unicode="&#x11e;" horiz-adv-x="1513" 
d="M1047 1548q-177 0 -289 131l123 101q32 -39 79.5 -60.5t98.5 -21.5q115 0 225 88l92 -113q-148 -125 -329 -125zM801 571l39 181h581l-116 -559q-117 -98 -276.5 -158t-301.5 -60q-163 0 -301.5 81.5t-218.5 220t-80 301.5q0 170 73.5 328t194.5 273t285.5 184t339.5 69
q140 0 274.5 -63t214.5 -165l-166 -129q-54 75 -151.5 120.5t-200.5 45.5q-129 0 -250.5 -54t-210.5 -144t-142.5 -212t-53.5 -251q0 -169 124.5 -291.5t297.5 -122.5q86 0 184 35t180 94l56 276h-375z" />
    <glyph glyph-name="gbreve" unicode="&#x11f;" horiz-adv-x="1284" 
d="M780 1200q-176 0 -288 131l122 101q32 -39 80 -60.5t99 -21.5q115 0 225 88l92 -113q-148 -125 -330 -125zM1036 1059h203l-199 -955q-44 -208 -216.5 -332t-403.5 -124q-131 0 -241.5 40t-176.5 105l100 141q45 -53 126 -81.5t180 -28.5q169 0 288 81.5t148 219.5
l26 133q-163 -180 -401 -180q-182 0 -289.5 109.5t-107.5 293.5q0 115 45.5 225t122 193t185 133.5t226.5 50.5q129 0 217.5 -55.5t130.5 -148.5zM530 254q143 0 256.5 91t149.5 224l8 43q4 36 4 54q0 113 -67 177t-183 64q-110 0 -206.5 -57t-153.5 -151.5t-57 -200.5
q0 -114 66.5 -179t182.5 -65z" />
    <glyph glyph-name="Gcommaaccent" unicode="&#x122;" horiz-adv-x="1513" 
d="M801 571l39 181h581l-116 -559q-117 -98 -276.5 -158t-301.5 -60q-163 0 -301.5 81.5t-218.5 220t-80 301.5q0 170 73.5 328t194.5 273t285.5 184t339.5 69q140 0 274.5 -63t214.5 -165l-166 -129q-54 75 -151.5 120.5t-200.5 45.5q-129 0 -250.5 -54t-210.5 -144
t-142.5 -212t-53.5 -251q0 -169 124.5 -291.5t297.5 -122.5q86 0 184 35t180 94l56 276h-375zM682 -143q49 0 75.5 -34t26.5 -91q0 -55 -27.5 -109.5t-64 -95.5t-104.5 -107l-70 64q87 78 135 160q-40 -3 -65 24t-25 68q0 46 36 83.5t83 37.5z" />
    <glyph glyph-name="gcommaaccent" unicode="&#x123;" horiz-adv-x="1228" 
d="M807 1214q-49 0 -75.5 34t-26.5 91q0 55 27.5 109.5t64 95.5t104.5 107l70 -64q-87 -78 -135 -160q40 3 65 -24t25 -68q0 -46 -36 -83.5t-83 -37.5zM1036 1059h203l-199 -955q-44 -208 -216.5 -332t-403.5 -124q-131 0 -241.5 40t-176.5 105l100 141q45 -53 126 -81.5
t180 -28.5q169 0 288 81.5t148 219.5l26 133q-163 -180 -401 -180q-182 0 -289.5 109.5t-107.5 293.5q0 115 45.5 225t122 193t185 133.5t226.5 50.5q129 0 217.5 -55.5t130.5 -148.5zM530 254q143 0 256.5 91t149.5 224l8 43q4 36 4 54q0 113 -67 177t-183 64
q-110 0 -206.5 -57t-153.5 -151.5t-57 -200.5q0 -114 66.5 -179t182.5 -65z" />
    <glyph glyph-name="Imacron" unicode="&#x12a;" horiz-adv-x="518" 
d="M143 1556l27 134h659l-26 -134h-660zM45 0l293 1407h207l-293 -1407h-207z" />
    <glyph glyph-name="imacron" unicode="&#x12b;" horiz-adv-x="493" 
d="M59 1208l27 133h659l-26 -133h-660zM35 0l221 1059h203l-221 -1059h-203z" />
    <glyph glyph-name="Iogonek" unicode="&#x12e;" horiz-adv-x="518" 
d="M193 -213q65 0 106 41l47 -125q-76 -57 -178 -57q-90 0 -142.5 48t-52.5 132q0 107 72 176l293 1405h207l-293 -1405l6 -2q-63 0 -104 -41t-41 -104q0 -32 21 -50t59 -18z" />
    <glyph glyph-name="iogonek" unicode="&#x12f;" horiz-adv-x="493" 
d="M422 1436q45 0 73.5 -30.5t28.5 -72.5q0 -47 -36.5 -83t-81.5 -36q-46 0 -74.5 29.5t-28.5 71.5q0 47 36 84t83 37zM43 35l213 1024h203l-221 -1059h-95q-63 0 -104 -41t-41 -104q0 -32 21 -50t59 -18q65 0 106 41l47 -125q-76 -57 -178 -57q-90 0 -142 48t-52 132
q0 75 38.5 135t102.5 88z" />
    <glyph glyph-name="Idotaccent" unicode="&#x130;" horiz-adv-x="518" 
d="M489 1563q-46 0 -74 29t-28 71q0 47 36 84t83 37q45 0 73.5 -30.5t28.5 -72.5q0 -47 -37 -82.5t-82 -35.5zM45 0l293 1407h207l-293 -1407h-207z" />
    <glyph glyph-name="dotlessi" unicode="&#x131;" horiz-adv-x="493" 
d="M35 0l221 1059h203l-221 -1059h-203z" />
    <glyph glyph-name="Kcommaaccent" unicode="&#x136;" horiz-adv-x="1374" 
d="M66 0l292 1407h207l-153 -723l811 723h272l-713 -635l451 -772h-250l-369 631l-254 -219l-88 -412h-206zM475 -580l-69 64q87 78 135 160q-40 -3 -65 24t-25 68q0 46 35.5 83.5t82.5 37.5q49 0 76 -34t27 -91q0 -79 -47 -146t-150 -166z" />
    <glyph glyph-name="kcommaaccent" unicode="&#x137;" horiz-adv-x="1134" 
d="M1225 1059l-557 -479l311 -580h-236l-237 444l-213 -176l-55 -268h-201l297 1432h201l-191 -914l629 541h252zM444 -143q49 0 76 -34t27 -91q0 -79 -47 -146t-150 -166l-69 64q87 78 135 160q-40 -3 -65 24t-25 68q0 46 35.5 83.5t82.5 37.5z" />
    <glyph glyph-name="Lacute" unicode="&#x139;" horiz-adv-x="1153" 
d="M874 1790l-350 -262h-151l307 303zM276 193h744l-41 -193h-954l292 1407h209z" />
    <glyph glyph-name="lacute" unicode="&#x13a;" horiz-adv-x="495" 
d="M362 1552l308 303l194 -40l-350 -263h-152zM39 0l297 1432h201l-297 -1432h-201z" />
    <glyph glyph-name="Lcaron" unicode="&#x13d;" horiz-adv-x="1153" 
d="M877 1307q0 -79 -47 -146t-150 -166l-70 64q87 78 135 160q-40 -3 -65 24t-25 68q0 46 36 83.5t83 37.5q49 0 76 -34t27 -91zM276 193h744l-41 -193h-954l292 1407h209z" />
    <glyph glyph-name="lcaron" unicode="&#x13e;" horiz-adv-x="495" 
d="M39 0l297 1432h201l-297 -1432h-201zM686 995l-70 64q89 80 136 160q-40 -3 -65 24t-25 68q0 46 35.5 83.5t82.5 37.5q49 0 76 -34t27 -91q0 -79 -47 -146t-150 -166z" />
    <glyph glyph-name="Lslash" unicode="&#x141;" horiz-adv-x="1249" 
d="M373 193h743l-41 -193h-954l112 537l-176 -80l37 190l178 82l142 678h209l-117 -569l295 135l-37 -191l-297 -137z" />
    <glyph glyph-name="lslash" unicode="&#x142;" horiz-adv-x="663" 
d="M674 915l-37 -192l-174 -80l-133 -643h-201l113 541l-185 -84l37 190l187 86l145 699h201l-123 -596z" />
    <glyph glyph-name="Nacute" unicode="&#x143;" horiz-adv-x="1579" 
d="M791 1528l307 303l194 -41l-350 -262h-151zM68 0l292 1407h205l586 -1067l225 1067h207l-293 -1407h-203l-585 1067l-228 -1067h-206z" />
    <glyph glyph-name="nacute" unicode="&#x144;" 
d="M1055 1442l-350 -262h-152l307 303zM786 1083q152 0 242 -88t90 -231q0 -14 -0.5 -25.5t-3 -30t-5.5 -35.5t-9.5 -51t-13 -67t-19 -93t-25 -118t-32 -153.5t-39.5 -190.5h-199q29 140 70 338q50 237 60.5 294t10.5 89q0 88 -47.5 137t-132.5 49q-120 0 -223 -71
t-131 -170l-139 -666h-203l221 1059h203l-29 -141q62 74 158 119.5t196 45.5z" />
    <glyph glyph-name="Ncommaaccent" unicode="&#x145;" horiz-adv-x="1579" 
d="M68 0l292 1407h205l586 -1067l225 1067h207l-293 -1407h-203l-585 1067l-228 -1067h-206zM543 -580l-70 64q87 78 135 160q-40 -3 -65 24t-25 68q0 46 36 83.5t83 37.5q49 0 75.5 -34t26.5 -91q0 -55 -27.5 -109.5t-64 -95.5t-104.5 -107z" />
    <glyph glyph-name="ncommaaccent" unicode="&#x146;" 
d="M786 1083q152 0 242 -88t90 -231q0 -14 -0.5 -25.5t-3 -30t-5.5 -35.5t-9.5 -51t-13 -67t-19 -93t-25 -118t-32 -153.5t-39.5 -190.5h-199q29 140 70 338q50 237 60.5 294t10.5 89q0 88 -47.5 137t-132.5 49q-120 0 -223 -71t-131 -170l-139 -666h-203l221 1059h203
l-29 -141q62 74 158 119.5t196 45.5zM469 -143q49 0 75.5 -34t26.5 -91q0 -55 -27.5 -109.5t-64 -95.5t-104.5 -107l-70 64q87 78 135 160q-40 -3 -65 24t-25 68q0 46 36 83.5t83 37.5z" />
    <glyph glyph-name="Ncaron" unicode="&#x147;" horiz-adv-x="1579" 
d="M909 1528l-147 287h133l121 -168l196 168h148l-273 -287h-178zM68 0l292 1407h205l586 -1067l225 1067h207l-293 -1407h-203l-585 1067l-228 -1067h-206z" />
    <glyph glyph-name="ncaron" unicode="&#x148;" 
d="M850 1180h-178l-148 286h133l121 -168l197 168h147zM786 1083q152 0 242 -88t90 -231q0 -14 -0.5 -25.5t-3 -30t-5.5 -35.5t-9.5 -51t-13 -67t-19 -93t-25 -118t-32 -153.5t-39.5 -190.5h-199q29 140 70 338q50 237 60.5 294t10.5 89q0 88 -47.5 137t-132.5 49
q-120 0 -223 -71t-131 -170l-139 -666h-203l221 1059h203l-29 -141q62 74 158 119.5t196 45.5z" />
    <glyph glyph-name="Omacron" unicode="&#x14c;" horiz-adv-x="1656" 
d="M707 1556l26 134h660l-27 -134h-659zM721 -25q-162 0 -299.5 80.5t-217 217.5t-79.5 298q0 229 122.5 428t327 316t437.5 117q128 0 239.5 -46t189.5 -125.5t122.5 -189.5t44.5 -235q0 -171 -73 -330t-193.5 -275t-284 -186t-336.5 -70zM750 166q171 0 322 94.5t239 247
t88 319.5q0 177 -116.5 295.5t-297.5 118.5q-129 0 -249 -53.5t-208 -142.5t-141 -210.5t-53 -250.5q0 -170 123 -294t293 -124z" />
    <glyph glyph-name="omacron" unicode="&#x14d;" horiz-adv-x="1296" 
d="M451 1208l26 133h660l-27 -133h-659zM535 -25q-187 0 -320 134.5t-133 322.5q0 130 55.5 250.5t147 208t215.5 140t256 52.5q124 0 229.5 -61.5t167 -166.5t61.5 -228q0 -173 -93.5 -324t-250.5 -239.5t-335 -88.5zM561 152q120 0 224.5 63.5t166.5 170.5t62 230
q0 120 -84 205.5t-201 85.5q-118 0 -221 -64t-164 -172t-61 -231q0 -118 82 -203t196 -85z" />
    <glyph glyph-name="Ohungarumlaut" unicode="&#x150;" horiz-adv-x="1656" 
d="M805 1528l307 303l195 -41l-351 -262h-151zM1239 1528l307 299l193 -41l-348 -258h-152zM721 -25q-162 0 -299.5 80.5t-217 217.5t-79.5 298q0 229 122.5 428t327 316t437.5 117q128 0 239.5 -46t189.5 -125.5t122.5 -189.5t44.5 -235q0 -171 -73 -330t-193.5 -275
t-284 -186t-336.5 -70zM750 166q171 0 322 94.5t239 247t88 319.5q0 177 -116.5 295.5t-297.5 118.5q-129 0 -249 -53.5t-208 -142.5t-141 -210.5t-53 -250.5q0 -170 123 -294t293 -124z" />
    <glyph glyph-name="ohungarumlaut" unicode="&#x151;" horiz-adv-x="1296" 
d="M483 1180l308 303l194 -41l-350 -262h-152zM918 1180l307 299l192 -41l-348 -258h-151zM535 -25q-187 0 -320 134.5t-133 322.5q0 130 55.5 250.5t147 208t215.5 140t256 52.5q124 0 229.5 -61.5t167 -166.5t61.5 -228q0 -173 -93.5 -324t-250.5 -239.5t-335 -88.5z
M561 152q120 0 224.5 63.5t166.5 170.5t62 230q0 120 -84 205.5t-201 85.5q-118 0 -221 -64t-164 -172t-61 -231q0 -118 82 -203t196 -85z" />
    <glyph glyph-name="OE" unicode="&#x152;" horiz-adv-x="2117" 
d="M2154 1214h-827l-80 -401h744l-39 -192h-748l-86 -428h824l-41 -193h-1174q-262 0 -434 158.5t-172 404.5q0 130 49 257.5t135.5 232t197.5 185t242 125t261 44.5h1187zM752 190h153l215 1027h-141q-119 0 -238.5 -56t-209 -146t-145.5 -208.5t-56 -237.5
q0 -170 118.5 -274.5t303.5 -104.5z" />
    <glyph glyph-name="oe" unicode="&#x153;" horiz-adv-x="2078" 
d="M1534 459h-336v-31q0 -128 70 -200t196 -72q90 0 182.5 33.5t151.5 86.5l111 -143q-82 -71 -214 -114.5t-251 -43.5q-135 0 -238.5 61.5t-156.5 170.5q-97 -108 -231.5 -170t-282.5 -62q-187 0 -320 134.5t-133 322.5q0 130 55.5 250.5t147 208t215.5 140t256 52.5
q128 0 236.5 -67t168.5 -176q94 112 224 177.5t270 65.5q162 0 273.5 -80t111.5 -210q0 -154 -135.5 -245.5t-370.5 -88.5zM561 152q120 0 224.5 63.5t166.5 170.5t62 230q0 120 -84 205.5t-201 85.5q-118 0 -221 -64t-164 -172t-61 -231q0 -118 82 -203t196 -85zM1642 905
q-138 0 -246 -79t-159 -205h328q131 0 203.5 39t72.5 108q0 62 -55.5 99.5t-143.5 37.5z" />
    <glyph glyph-name="Racute" unicode="&#x154;" horiz-adv-x="1359" 
d="M1188 1790l-350 -262h-152l307 303zM1360 1018q0 -181 -131 -322.5t-332 -187.5l307 -508h-229l-297 489h-324l-104 -489h-207l293 1407h584q195 0 317.5 -108.5t122.5 -280.5zM762 682q158 0 274.5 98t116.5 230q0 91 -76.5 147.5t-199.5 56.5h-373l-111 -532h369z" />
    <glyph glyph-name="racute" unicode="&#x155;" horiz-adv-x="827" 
d="M895 1442l-350 -262h-152l307 303zM430 866q71 102 184 159.5t248 57.5l-24 -176q-165 0 -293.5 -88t-171.5 -227l-123 -592h-203l221 1059h203z" />
    <glyph glyph-name="Rcommaaccent" unicode="&#x156;" horiz-adv-x="1359" 
d="M1360 1018q0 -181 -131 -322.5t-332 -187.5l307 -508h-229l-297 489h-324l-104 -489h-207l293 1407h584q195 0 317.5 -108.5t122.5 -280.5zM762 682q158 0 274.5 98t116.5 230q0 91 -76.5 147.5t-199.5 56.5h-373l-111 -532h369zM512 -143q49 0 75.5 -34t26.5 -91
q0 -55 -27.5 -109.5t-64 -95.5t-104.5 -107l-70 64q87 78 135 160q-40 -3 -65 24t-25 68q0 46 36 83.5t83 37.5z" />
    <glyph glyph-name="rcommaaccent" unicode="&#x157;" horiz-adv-x="827" 
d="M430 866q71 102 184 159.5t248 57.5l-24 -176q-165 0 -293.5 -88t-171.5 -227l-123 -592h-203l221 1059h203zM207 -143q49 0 75.5 -34t26.5 -91q0 -55 -27.5 -109.5t-64 -95.5t-104.5 -107l-70 64q87 78 135 160q-40 -3 -65 24t-25 68q0 46 36 83.5t83 37.5z" />
    <glyph glyph-name="Rcaron" unicode="&#x158;" horiz-adv-x="1359" 
d="M983 1528h-178l-148 287h134l120 -168l197 168h147zM1360 1018q0 -181 -131 -322.5t-332 -187.5l307 -508h-229l-297 489h-324l-104 -489h-207l293 1407h584q195 0 317.5 -108.5t122.5 -280.5zM762 682q158 0 274.5 98t116.5 230q0 91 -76.5 147.5t-199.5 56.5h-373
l-111 -532h369z" />
    <glyph glyph-name="rcaron" unicode="&#x159;" horiz-adv-x="827" 
d="M690 1180h-178l-147 286h133l120 -168l197 168h148zM430 866q71 102 184 159.5t248 57.5l-24 -176q-165 0 -293.5 -88t-171.5 -227l-123 -592h-203l221 1059h203z" />
    <glyph glyph-name="Sacute" unicode="&#x15a;" horiz-adv-x="1271" 
d="M610 1528l308 303l194 -41l-350 -262h-152zM553 -23q-154 0 -303.5 64.5t-237.5 167.5l146 141q73 -86 186 -138t223 -52q163 0 265 75.5t102 192.5q0 63 -66.5 104.5t-228.5 83.5q-220 53 -317 126.5t-97 205.5q0 212 159.5 349t410.5 137q129 0 260 -56.5t217 -148.5
l-139 -146q-68 76 -168.5 122t-190.5 46q-149 0 -242.5 -74t-93.5 -188q0 -61 67.5 -102.5t229.5 -81.5q221 -53 316.5 -131t95.5 -211q0 -214 -167.5 -350t-426.5 -136z" />
    <glyph glyph-name="sacute" unicode="&#x15b;" horiz-adv-x="1019" 
d="M449 1180l307 303l194 -41l-350 -262h-151zM426 -25q-120 0 -233 43.5t-197 120.5l117 133q69 -59 154 -90.5t165 -31.5q105 0 179.5 50t74.5 119q0 40 -44.5 73t-152.5 65q-171 48 -246 105t-75 155q0 161 125 263.5t319 102.5q204 0 377 -127l-110 -143
q-129 96 -273 96q-103 0 -170 -45t-67 -114q0 -33 45.5 -63t158.5 -71q166 -48 240 -107.5t74 -160.5q0 -155 -134.5 -264t-326.5 -109z" />
    <glyph glyph-name="Scedilla" unicode="&#x15e;" horiz-adv-x="1271" 
d="M735 805q221 -53 316.5 -131t95.5 -211q0 -204 -153 -337.5t-396 -145.5l-45 -70q58 0 94.5 -33.5t36.5 -87.5q0 -84 -66.5 -135t-162.5 -51q-109 0 -183 63l54 86q44 -41 112 -41q60 0 94.5 22t34.5 62q0 23 -14 38t-37 15q-41 0 -78 -26l-35 43l72 117q-137 15 -262 76
t-201 151l146 141q73 -86 186 -138t223 -52q163 0 265 75.5t102 192.5q0 63 -66.5 104.5t-228.5 83.5q-220 53 -317 126.5t-97 205.5q0 212 159.5 349t410.5 137q129 0 260 -56.5t217 -148.5l-139 -146q-68 76 -168.5 122t-190.5 46q-149 0 -242.5 -74t-93.5 -188
q0 -61 67.5 -102.5t229.5 -81.5z" />
    <glyph glyph-name="scedilla" unicode="&#x15f;" horiz-adv-x="1019" 
d="M573 616q166 -48 240 -107.5t74 -160.5q0 -146 -119 -251.5t-295 -119.5l-45 -67q58 0 94.5 -33.5t36.5 -87.5q0 -84 -66.5 -135t-162.5 -51q-109 0 -183 63l54 86q44 -41 112 -41q60 0 94.5 22t34.5 62q0 23 -14 38t-37 15q-41 0 -78 -26l-34 43l69 115
q-100 12 -191.5 53.5t-160.5 105.5l117 133q69 -59 154 -90.5t165 -31.5q105 0 179.5 50t74.5 119q0 40 -44.5 73t-152.5 65q-171 48 -246 105t-75 155q0 161 125 263.5t319 102.5q204 0 377 -127l-110 -143q-129 96 -273 96q-103 0 -170 -45t-67 -114q0 -33 45.5 -63
t158.5 -71z" />
    <glyph glyph-name="Scaron" unicode="&#x160;" horiz-adv-x="1271" 
d="M729 1528l-147 287h133l121 -168l196 168h148l-273 -287h-178zM553 -23q-154 0 -303.5 64.5t-237.5 167.5l146 141q73 -86 186 -138t223 -52q163 0 265 75.5t102 192.5q0 63 -66.5 104.5t-228.5 83.5q-220 53 -317 126.5t-97 205.5q0 212 159.5 349t410.5 137
q129 0 260 -56.5t217 -148.5l-139 -146q-68 76 -168.5 122t-190.5 46q-149 0 -242.5 -74t-93.5 -188q0 -61 67.5 -102.5t229.5 -81.5q221 -53 316.5 -131t95.5 -211q0 -214 -167.5 -350t-426.5 -136z" />
    <glyph glyph-name="scaron" unicode="&#x161;" horiz-adv-x="1019" 
d="M567 1180l-147 286h133l121 -168l196 168h148l-273 -286h-178zM426 -25q-120 0 -233 43.5t-197 120.5l117 133q69 -59 154 -90.5t165 -31.5q105 0 179.5 50t74.5 119q0 40 -44.5 73t-152.5 65q-171 48 -246 105t-75 155q0 161 125 263.5t319 102.5q204 0 377 -127
l-110 -143q-129 96 -273 96q-103 0 -170 -45t-67 -114q0 -33 45.5 -63t158.5 -71q166 -48 240 -107.5t74 -160.5q0 -155 -134.5 -264t-326.5 -109z" />
    <glyph glyph-name="uni0162" unicode="&#x162;" horiz-adv-x="1296" 
d="M266 1407h1131l-41 -193h-461l-254 -1214h-39l-59 -90q58 0 94.5 -33.5t36.5 -87.5q0 -84 -67 -135t-163 -51q-108 0 -182 63l53 86q44 -41 113 -41q60 0 94.5 22t34.5 62q0 23 -14 38t-37 15q-41 0 -78 -26l-35 43l82 135h-41l254 1214h-463z" />
    <glyph glyph-name="uni0163" unicode="&#x163;" horiz-adv-x="782" 
d="M750 887h-248q-133 -634 -133 -651q0 -39 20 -61.5t53 -22.5q37 0 72 13.5t53 31.5l56 -152q-64 -43 -138 -59l-49 -76q58 0 94.5 -33.5t36.5 -87.5q0 -84 -66.5 -135t-162.5 -51q-108 0 -182 63l53 86q44 -41 113 -41q60 0 94.5 22t34.5 62q0 23 -14.5 38t-37.5 15
q-40 0 -77 -26l-35 43l69 115q-86 12 -137 73t-51 152q0 31 12 93t69 333q33 156 54 256h-160l35 172h160l61 291h199l-61 -291h249z" />
    <glyph glyph-name="Tcaron" unicode="&#x164;" horiz-adv-x="1296" 
d="M770 1528l-147 287h133l121 -168l196 168h148l-273 -287h-178zM434 0l254 1214h-463l41 193h1131l-41 -193h-461l-254 -1214h-207z" />
    <glyph glyph-name="tcaron" unicode="&#x165;" horiz-adv-x="782" 
d="M1112 1432q49 0 75.5 -34t26.5 -91q0 -55 -27.5 -109.5t-64 -95.5t-104.5 -107l-70 64q87 78 135 160q-40 -3 -65 24t-25 68q0 46 36 83.5t83 37.5zM598 1350l-61 -291h249l-36 -172h-248q-133 -634 -133 -651q0 -39 20 -61.5t53 -22.5q37 0 72 13.5t53 31.5l56 -152
q-106 -70 -222 -70q-105 0 -169 64t-64 166q0 31 12 93t69 333q33 156 54 256h-160l35 172h160l61 291h199z" />
    <glyph glyph-name="Umacron" unicode="&#x16a;" horiz-adv-x="1533" 
d="M649 1556l27 134h659l-26 -134h-660zM659 -25q-132 0 -236.5 46.5t-167 129.5t-86 197.5t6.5 251.5l168 807h209l-170 -819q-40 -187 45.5 -305.5t257.5 -118.5q177 0 315.5 124t178.5 316l166 803h206l-170 -823q-37 -177 -141.5 -316t-256.5 -216t-325 -77z" />
    <glyph glyph-name="umacron" unicode="&#x16b;" 
d="M1114 1341l-27 -133h-659l27 133h659zM987 1059h203l-221 -1059h-203l29 141q-62 -75 -158.5 -120.5t-196.5 -45.5q-152 0 -241.5 88.5t-89.5 231.5q0 14 0.5 25.5t3 30t5.5 35.5t9.5 51t13 67t19 93t25 118t32 153.5t39.5 190.5h199q-18 -85 -35.5 -169.5t-29 -140
t-23 -110t-18.5 -87.5t-13.5 -65t-10 -50.5t-6.5 -35t-4 -27t-1.5 -19t-0.5 -17.5q0 -88 48 -137t133 -49q120 0 223 71t131 170z" />
    <glyph glyph-name="Uring" unicode="&#x16e;" horiz-adv-x="1533" 
d="M977 1548q-79 0 -128.5 50t-49.5 126q0 103 82.5 182t185.5 79q79 0 128.5 -49.5t49.5 -123.5q0 -104 -82.5 -184t-185.5 -80zM997 1651q54 0 99 42.5t45 96.5q0 40 -26.5 67t-67.5 27q-55 0 -99.5 -42t-44.5 -97q0 -40 26.5 -67t67.5 -27zM659 -25q-132 0 -236.5 46.5
t-167 129.5t-86 197.5t6.5 251.5l168 807h209l-170 -819q-40 -187 45.5 -305.5t257.5 -118.5q177 0 315.5 124t178.5 316l166 803h206l-170 -823q-37 -177 -141.5 -316t-256.5 -216t-325 -77z" />
    <glyph glyph-name="uring" unicode="&#x16f;" 
d="M756 1200q-79 0 -128.5 50t-49.5 126q0 103 82.5 181.5t185.5 78.5q79 0 128.5 -49t49.5 -123q0 -104 -82.5 -184t-185.5 -80zM825 1536q-55 0 -99 -42t-44 -97q0 -40 26.5 -67t67.5 -27q54 0 99 42.5t45 96.5q0 40 -27 67t-68 27zM987 1059h203l-221 -1059h-203l29 141
q-62 -75 -158.5 -120.5t-196.5 -45.5q-152 0 -241.5 88.5t-89.5 231.5q0 14 0.5 25.5t3 30t5.5 35.5t9.5 51t13 67t19 93t25 118t32 153.5t39.5 190.5h199q-18 -85 -35.5 -169.5t-29 -140t-23 -110t-18.5 -87.5t-13.5 -65t-10 -50.5t-6.5 -35t-4 -27t-1.5 -19t-0.5 -17.5
q0 -88 48 -137t133 -49q120 0 223 71t131 170z" />
    <glyph glyph-name="Uhungarumlaut" unicode="&#x170;" horiz-adv-x="1533" 
d="M532 1528l308 303l194 -41l-350 -262h-152zM967 1528l307 299l192 -41l-348 -258h-151zM659 -25q-132 0 -236.5 46.5t-167 129.5t-86 197.5t6.5 251.5l168 807h209l-170 -819q-40 -187 45.5 -305.5t257.5 -118.5q177 0 315.5 124t178.5 316l166 803h206l-170 -823
q-37 -177 -141.5 -316t-256.5 -216t-325 -77z" />
    <glyph glyph-name="uhungarumlaut" unicode="&#x171;" 
d="M813 1442l-350 -262h-152l307 303zM897 1180h-152l308 299l192 -41zM848 393l139 666h203l-221 -1059h-203l29 141q-62 -75 -158.5 -120.5t-196.5 -45.5q-152 0 -241.5 88.5t-89.5 231.5q0 14 0.5 25.5t3 30t5.5 35.5t9.5 51t13 67t19 93t25 118t32 153.5t39.5 190.5h199
q-18 -85 -35.5 -169.5t-29 -140t-23 -110t-18.5 -87.5t-13.5 -65t-10 -50.5t-6.5 -35t-4 -27t-1.5 -19t-0.5 -17.5q0 -88 48 -137t133 -49q120 0 223 71t131 170z" />
    <glyph glyph-name="Uogonek" unicode="&#x172;" horiz-adv-x="1533" 
d="M1346 1407h206l-170 -823q-37 -177 -141.5 -316t-256.5 -216t-325 -77q-31 0 -45 2q-63 -44 -63 -122q0 -32 21 -50t59 -18q65 0 106 41l47 -125q-76 -57 -178 -57q-90 0 -142 48t-52 132q0 105 69 174q-184 56 -266.5 216.5t-38.5 383.5l168 807h209l-170 -819
q-40 -187 45.5 -305.5t257.5 -118.5q177 0 315.5 124t178.5 316z" />
    <glyph glyph-name="uogonek" unicode="&#x173;" 
d="M901 -213q66 0 107 41l47 -125q-76 -57 -178 -57q-90 0 -142.5 48t-52.5 132q0 118 88 190l25 125q-62 -75 -158.5 -120.5t-196.5 -45.5q-152 0 -241.5 88.5t-89.5 231.5q0 14 0.5 25.5t3 30t5.5 35.5t9.5 51t13 67t19 93t25 118t32 153.5t39.5 190.5h199
q-18 -85 -35.5 -169.5t-29 -140t-23 -110t-18.5 -87.5t-13.5 -65t-10 -50.5t-6.5 -35t-4 -27t-1.5 -19t-0.5 -17.5q0 -88 48 -137t133 -49q120 0 223 71t131 170l139 666h203l-221 -1059h-2q-63 0 -104.5 -41t-41.5 -104q0 -32 21 -50t59 -18z" />
    <glyph glyph-name="Wcircumflex" unicode="&#x174;" horiz-adv-x="2211" 
d="M1012 1528l268 287h178l152 -287h-135l-123 168l-195 -168h-145zM416 0l-170 1407h227l119 -1073l579 1073h228l127 -1073l571 1073h234l-756 -1407h-207l-135 1120l-610 -1120h-207z" />
    <glyph glyph-name="wcircumflex" unicode="&#x175;" horiz-adv-x="1712" 
d="M690 1180l268 286h179l151 -286h-135l-123 168l-194 -168h-146zM305 0l-135 1059h203l78 -789l428 789h170l98 -789l407 789h211l-577 -1059h-187l-88 786l-421 -786h-187z" />
    <glyph glyph-name="Ycircumflex" unicode="&#x176;" horiz-adv-x="1390" 
d="M582 1528l268 287h178l152 -287h-136l-122 168l-195 -168h-145zM475 0l119 551l-385 856h203l307 -678l579 678h246l-735 -856l-119 -551h-215z" />
    <glyph glyph-name="ycircumflex" unicode="&#x177;" horiz-adv-x="1220" 
d="M438 1180l269 286h178l151 -286h-135l-123 168l-194 -168h-146zM156 -369q-109 0 -197 50l66 147q51 -29 116 -29q103 0 170 90l80 105l-229 1065h211l166 -836l495 836h217l-708 -1163q-160 -265 -387 -265z" />
    <glyph glyph-name="Ydieresis" unicode="&#x178;" horiz-adv-x="1390" 
d="M700 1563q-46 0 -74 29t-28 71q0 47 36 84t83 37q45 0 73.5 -30.5t28.5 -72.5q0 -47 -37 -82.5t-82 -35.5zM1106 1563q-45 0 -72.5 29t-27.5 73q0 46 35.5 82.5t82.5 36.5q43 0 72 -30.5t29 -72.5q0 -47 -36.5 -82.5t-82.5 -35.5zM475 0l119 551l-385 856h203l307 -678
l579 678h246l-735 -856l-119 -551h-215z" />
    <glyph glyph-name="Zacute" unicode="&#x179;" horiz-adv-x="1320" 
d="M670 1528l307 303l194 -41l-350 -262h-151zM6 0l29 162l1032 1052h-795l39 193h1082l-31 -162l-1032 -1052h819l-41 -193h-1102z" />
    <glyph glyph-name="zacute" unicode="&#x17a;" horiz-adv-x="1067" 
d="M479 1180l307 303l195 -41l-350 -262h-152zM-4 0l29 152l743 725h-578l37 182h850l-30 -152l-746 -725h596l-37 -182h-864z" />
    <glyph glyph-name="Zdotaccent" unicode="&#x17b;" horiz-adv-x="1320" 
d="M897 1563q-46 0 -74 29t-28 71q0 48 35.5 84.5t82.5 36.5q45 0 74 -30.5t29 -72.5q0 -47 -37 -82.5t-82 -35.5zM6 0l29 162l1032 1052h-795l39 193h1082l-31 -162l-1032 -1052h819l-41 -193h-1102z" />
    <glyph glyph-name="zdotaccent" unicode="&#x17c;" horiz-adv-x="1067" 
d="M707 1214q-46 0 -74.5 29.5t-28.5 71.5q0 47 36 84t83 37q45 0 73.5 -30.5t28.5 -72.5q0 -47 -36.5 -83t-81.5 -36zM-4 0l29 152l743 725h-578l37 182h850l-30 -152l-746 -725h596l-37 -182h-864z" />
    <glyph glyph-name="Zcaron" unicode="&#x17d;" horiz-adv-x="1320" 
d="M788 1528l-147 287h133l121 -168l197 168h147l-272 -287h-179zM6 0l29 162l1032 1052h-795l39 193h1082l-31 -162l-1032 -1052h819l-41 -193h-1102z" />
    <glyph glyph-name="zcaron" unicode="&#x17e;" horiz-adv-x="1067" 
d="M598 1180l-147 286h133l121 -168l196 168h148l-273 -286h-178zM-4 0l29 152l743 725h-578l37 182h850l-30 -152l-746 -725h596l-37 -182h-864z" />
    <glyph glyph-name="uni0237" unicode="&#x237;" horiz-adv-x="493" 
d="M-106 -365q-101 0 -181 39l47 154q43 -18 113 -18q54 0 97.5 39.5t54.5 95.5l231 1114h203l-238 -1141q-28 -128 -117.5 -205.5t-209.5 -77.5z" />
    <glyph glyph-name="circumflex" unicode="&#x2c6;" horiz-adv-x="856" 
d="M264 1180l268 286h179l151 -286h-135l-123 168l-194 -168h-146z" />
    <glyph glyph-name="caron" unicode="&#x2c7;" horiz-adv-x="856" 
d="M473 1180l-147 286h133l121 -168l196 168h148l-273 -286h-178z" />
    <glyph glyph-name="breve" unicode="&#x2d8;" horiz-adv-x="878" 
d="M586 1200q-177 0 -289 131l123 101q32 -39 79.5 -60.5t98.5 -21.5q115 0 225 88l92 -113q-148 -125 -329 -125z" />
    <glyph glyph-name="dotaccent" unicode="&#x2d9;" horiz-adv-x="479" 
d="M397 1214q-46 0 -74 29t-28 72q0 47 36 84t83 37q45 0 73.5 -30.5t28.5 -72.5q0 -47 -37 -83t-82 -36z" />
    <glyph glyph-name="ring" unicode="&#x2da;" horiz-adv-x="694" 
d="M487 1200q-79 0 -128.5 50t-49.5 126q0 103 83 181.5t186 78.5q79 0 128.5 -49t49.5 -123q0 -104 -83 -184t-186 -80zM508 1303q54 0 98.5 42.5t44.5 96.5q0 40 -26.5 67t-67.5 27q-55 0 -99 -42t-44 -97q0 -40 26.5 -67t67.5 -27z" />
    <glyph glyph-name="ogonek" unicode="&#x2db;" horiz-adv-x="663" 
d="M184 -354q-90 0 -142 48t-52 132q0 75 38.5 135t102.5 88l143 -49q-63 0 -104 -41t-41 -104q0 -32 21 -50t59 -18q65 0 106 41l47 -125q-76 -57 -178 -57z" />
    <glyph glyph-name="tilde" unicode="&#x2dc;" horiz-adv-x="802" 
d="M684 1176q-43 0 -81 19.5t-60 42.5t-49.5 42.5t-51.5 19.5q-86 0 -135 -135l-110 31q42 124 101.5 185t143.5 61q42 0 80 -19.5t60 -43t49.5 -43t50.5 -19.5q87 0 137 137l111 -33q-42 -124 -102 -184.5t-144 -60.5z" />
    <glyph glyph-name="hungarumlaut" unicode="&#x2dd;" horiz-adv-x="1138" 
d="M264 1180l307 303l195 -41l-350 -262h-152zM698 1180l308 299l192 -41l-348 -258h-152z" />
    <glyph glyph-name="uni0326" unicode="&#x326;" horiz-adv-x="0" 
d="M-522 -580l-70 64q87 78 135 160q-40 -3 -65 24t-25 68q0 46 36 83.5t83 37.5q49 0 75.5 -34t26.5 -91q0 -55 -27.5 -109.5t-64 -95.5t-104.5 -107z" />
    <glyph glyph-name="Wgrave" unicode="&#x1e80;" horiz-adv-x="2211" 
d="M1239 1528l-242 262l203 41l180 -303h-141zM416 0l-170 1407h227l119 -1073l579 1073h228l127 -1073l571 1073h234l-756 -1407h-207l-135 1120l-610 -1120h-207z" />
    <glyph glyph-name="wgrave" unicode="&#x1e81;" horiz-adv-x="1712" 
d="M905 1180l-241 262l202 41l181 -303h-142zM305 0l-135 1059h203l78 -789l428 789h170l98 -789l407 789h211l-577 -1059h-187l-88 786l-421 -786h-187z" />
    <glyph glyph-name="Wacute" unicode="&#x1e82;" horiz-adv-x="2211" 
d="M1241 1528l307 303l195 -41l-350 -262h-152zM416 0l-170 1407h227l119 -1073l579 1073h228l127 -1073l571 1073h234l-756 -1407h-207l-135 1120l-610 -1120h-207z" />
    <glyph glyph-name="wacute" unicode="&#x1e83;" horiz-adv-x="1712" 
d="M918 1180l307 303l194 -41l-350 -262h-151zM305 0l-135 1059h203l78 -789l428 789h170l98 -789l407 789h211l-577 -1059h-187l-88 786l-421 -786h-187z" />
    <glyph glyph-name="Wdieresis" unicode="&#x1e84;" horiz-adv-x="2211" 
d="M1130 1563q-46 0 -74 29t-28 71q0 47 36 84t83 37q45 0 73.5 -30.5t28.5 -72.5q0 -47 -37 -82.5t-82 -35.5zM1536 1563q-45 0 -72.5 29t-27.5 73q0 46 35.5 82.5t82.5 36.5q43 0 72 -30.5t29 -72.5q0 -47 -36.5 -82.5t-82.5 -35.5zM416 0l-170 1407h227l119 -1073
l579 1073h228l127 -1073l571 1073h234l-756 -1407h-207l-135 1120l-610 -1120h-207z" />
    <glyph glyph-name="wdieresis" unicode="&#x1e85;" horiz-adv-x="1712" 
d="M809 1214q-46 0 -74 29t-28 72q0 48 35.5 84.5t82.5 36.5q45 0 74 -30.5t29 -72.5q0 -47 -37 -83t-82 -36zM1214 1214q-45 0 -72.5 29.5t-27.5 73.5q0 46 36 82.5t83 36.5q43 0 71.5 -30.5t28.5 -72.5q0 -47 -36.5 -83t-82.5 -36zM305 0l-135 1059h203l78 -789l428 789
h170l98 -789l407 789h211l-577 -1059h-187l-88 786l-421 -786h-187z" />
    <glyph glyph-name="uni1EB8" unicode="&#x1eb8;" horiz-adv-x="1294" 
d="M1331 1214h-827l-80 -401h743l-39 -192h-747l-86 -428h823l-41 -193h-1034l293 1407h1034zM520 -139q45 0 74 -30.5t29 -72.5q0 -47 -37 -82.5t-82 -35.5q-46 0 -74.5 29t-28.5 71q0 47 36 84t83 37z" />
    <glyph glyph-name="uni1EB9" unicode="&#x1eb9;" horiz-adv-x="1228" 
d="M610 459h-336v-31q0 -128 70.5 -200t196.5 -72q90 0 182 33.5t151 86.5l111 -143q-82 -71 -214 -114.5t-251 -43.5q-195 0 -317.5 122.5t-122.5 320.5q0 131 54.5 254.5t143.5 213t208.5 143.5t244.5 54q162 0 273.5 -80t111.5 -210q0 -154 -135.5 -245.5t-370.5 -88.5z
M719 905q-138 0 -246.5 -79t-159.5 -205h328q132 0 204.5 39t72.5 108q0 62 -55.5 99.5t-143.5 37.5zM436 -158q45 0 74 -30t29 -72q0 -47 -37 -83t-82 -36q-46 0 -74.5 29t-28.5 71q0 47 36 84t83 37z" />
    <glyph glyph-name="uni1EBC" unicode="&#x1ebc;" horiz-adv-x="1294" 
d="M784 1649q-85 0 -135 -136l-110 31q42 124 101.5 185t143.5 61q42 0 80 -19.5t60 -43t49.5 -43t50.5 -19.5q87 0 137 137l111 -33q-42 -124 -102 -184.5t-144 -60.5q-43 0 -81 19.5t-60 43t-49.5 43t-51.5 19.5zM1331 1214h-827l-80 -401h743l-39 -192h-747l-86 -428h823
l-41 -193h-1034l293 1407h1034z" />
    <glyph glyph-name="uni1EBD" unicode="&#x1ebd;" horiz-adv-x="1159" 
d="M657 1300q-85 0 -135 -135l-110 31q42 124 101.5 185t143.5 61q42 0 80 -19.5t60 -43t49.5 -43t50.5 -19.5q87 0 137 137l111 -33q-42 -124 -102 -184.5t-144 -60.5q-43 0 -81 19.5t-60 42.5t-49.5 42.5t-51.5 19.5zM731 1083q162 0 273.5 -80t111.5 -210
q0 -154 -135.5 -245.5t-370.5 -88.5h-336v-31q0 -128 70.5 -200t196.5 -72q90 0 182 33.5t151 86.5l111 -143q-82 -71 -214 -114.5t-251 -43.5q-195 0 -317.5 122.5t-122.5 320.5q0 131 54.5 254.5t143.5 213t208.5 143.5t244.5 54zM641 621q132 0 204.5 39t72.5 108
q0 62 -55.5 99.5t-143.5 37.5q-138 0 -246.5 -79t-159.5 -205h328z" />
    <glyph glyph-name="Ygrave" unicode="&#x1ef2;" horiz-adv-x="1390" 
d="M895 1528l-242 262l203 41l180 -303h-141zM475 0l119 551l-385 856h203l307 -678l579 678h246l-735 -856l-119 -551h-215z" />
    <glyph glyph-name="ygrave" unicode="&#x1ef3;" horiz-adv-x="1220" 
d="M752 1180l-242 262l203 41l180 -303h-141zM156 -369q-109 0 -197 50l66 147q51 -29 116 -29q103 0 170 90l80 105l-229 1065h211l166 -836l495 836h217l-708 -1163q-160 -265 -387 -265z" />
    <glyph glyph-name="endash" unicode="&#x2013;" horiz-adv-x="1179" 
d="M96 469l37 180h963l-37 -180h-963z" />
    <glyph glyph-name="emdash" unicode="&#x2014;" horiz-adv-x="1804" 
d="M96 469l37 180h1587l-37 -180h-1587z" />
    <glyph glyph-name="quoteleft" unicode="&#x2018;" horiz-adv-x="561" 
d="M483 1397l84 -76q-98 -83 -161 -195q47 0 77.5 -31t30.5 -81q0 -64 -45 -108t-104 -44t-92 41.5t-33 108.5q0 97 62 186t181 199z" />
    <glyph glyph-name="quoteright" unicode="&#x2019;" horiz-adv-x="561" 
d="M328 860l-84 76q101 86 162 194q-47 0 -78 31.5t-31 81.5q0 64 45 108t104 44t92 -41.5t33 -108.5q0 -97 -62 -186t-181 -199z" />
    <glyph glyph-name="quotedblleft" unicode="&#x201c;" horiz-adv-x="1011" 
d="M483 1393l84 -76q-98 -83 -161 -195q47 0 77.5 -31t30.5 -81q0 -64 -45 -108t-104 -44t-92 41.5t-33 108.5q0 97 62 186t181 199zM932 1393l84 -76q-100 -85 -162 -195q47 0 78 -31t31 -81q0 -64 -45.5 -108t-104.5 -44t-92 41.5t-33 108.5t35.5 136.5t83 123
t125.5 125.5z" />
    <glyph glyph-name="quotedblright" unicode="&#x201d;" horiz-adv-x="1011" 
d="M328 860l-84 76q101 86 162 194q-47 0 -78 31.5t-31 81.5q0 64 45 108t104 44t92 -41.5t33 -108.5q0 -97 -62 -186t-181 -199zM778 860l-84 76q101 86 162 194q-46 0 -77 31.5t-31 81.5q0 64 45 108t104 44t92 -41.5t33 -108.5t-35.5 -136.5t-83 -123t-125.5 -125.5z" />
    <glyph glyph-name="ellipsis" unicode="&#x2026;" horiz-adv-x="1445" 
d="M172 -25q-55 0 -89 34.5t-34 86.5q0 65 46.5 108.5t105.5 43.5q52 0 85 -35t33 -86q0 -60 -45 -106t-102 -46zM623 -25q-55 0 -89 34.5t-34 86.5q0 65 46 108.5t105 43.5q52 0 85.5 -35.5t33.5 -85.5q0 -60 -45 -106t-102 -46zM1073 -25q-55 0 -89 34.5t-34 86.5
q0 65 46.5 108.5t105.5 43.5q52 0 85.5 -35.5t33.5 -85.5q0 -60 -45.5 -106t-102.5 -46z" />
    <glyph glyph-name="perthousand" unicode="&#x2030;" horiz-adv-x="2441" 
d="M475 711q-130 0 -205 78.5t-75 203.5q0 110 53 208.5t145.5 158t200.5 59.5q132 0 207.5 -79t75.5 -205q0 -170 -119 -297t-283 -127zM152 0l1259 1407h168l-1260 -1407h-167zM475 842q101 0 175.5 92t74.5 203q0 68 -35 108.5t-96 40.5q-68 0 -126.5 -45t-91 -112.5
t-32.5 -135.5t35.5 -109.5t95.5 -41.5zM1130 -20q-129 0 -205.5 79t-76.5 205q0 108 53.5 206t146.5 158t201 60q130 0 205.5 -80t75.5 -205q0 -109 -53.5 -206.5t-146 -157t-200.5 -59.5zM1915 -20q-129 0 -206 79t-77 205q0 109 53.5 206.5t146.5 157.5t202 60
q130 0 205 -80t75 -205q0 -168 -118.5 -295.5t-280.5 -127.5zM1130 113q104 0 178 94t74 201q0 67 -36.5 108t-96.5 41q-101 0 -175.5 -92t-74.5 -203q0 -69 35 -109t96 -40zM1915 113q104 0 178 94t74 201q0 67 -36.5 108t-96.5 41q-101 0 -175.5 -92t-74.5 -203
q0 -70 34.5 -109.5t96.5 -39.5z" />
    <glyph glyph-name="Euro" unicode="&#x20ac;" horiz-adv-x="1411" 
d="M1016 1432q132 0 263 -63.5t210 -164.5l-166 -129q-53 74 -145.5 120t-190.5 46q-160 0 -300.5 -77.5t-231.5 -209.5h594l-31 -141h-639q-35 -86 -41 -184h643l-29 -142h-606q34 -139 149 -230t259 -91q93 0 206.5 49.5t200.5 126.5l123 -149q-113 -96 -269.5 -157
t-289.5 -61q-220 0 -388 147t-202 365h-186l28 142h152q6 96 33 184h-148l31 141h176q115 213 330 345.5t465 132.5z" />
    <glyph glyph-name="minus" unicode="&#x2212;" horiz-adv-x="1222" 
d="M145 592l39 182h957l-39 -182h-957z" />
    <glyph glyph-name="a.alt" horiz-adv-x="1177" 
d="M692 1083q181 0 277 -89.5t96 -243.5q0 -16 -1 -31t-3 -31.5t-7.5 -46t-11.5 -60t-18.5 -90.5t-24.5 -119t-34 -163.5t-43 -208.5h-199q23 110 29 133q-71 -75 -173 -116.5t-200 -41.5q-152 0 -245 76t-93 203q0 120 70 215.5t180.5 146t236.5 50.5q154 0 320 -64
q20 92 20 131q0 182 -213 182q-125 0 -321 -92l-58 156q230 104 416 104zM791 340l2 -6l30 143q-118 37 -268 37q-124 0 -221.5 -72.5t-97.5 -173.5q0 -63 51.5 -98t138.5 -35q70 0 142 23.5t133.5 71t89.5 110.5z" />
    <glyph glyph-name="aacute.alt" horiz-adv-x="1177" 
d="M1036 1442l-350 -262h-151l307 303zM692 1083q181 0 277 -89.5t96 -243.5q0 -16 -1 -31t-3 -31.5t-7.5 -46t-11.5 -60t-18.5 -90.5t-24.5 -119t-34 -163.5t-43 -208.5h-199q23 110 29 133q-71 -75 -173 -116.5t-200 -41.5q-152 0 -245 76t-93 203q0 120 70 215.5
t180.5 146t236.5 50.5q154 0 320 -64q20 92 20 131q0 182 -213 182q-125 0 -321 -92l-58 156q230 104 416 104zM791 340l2 -6l30 143q-118 37 -268 37q-124 0 -221.5 -72.5t-97.5 -173.5q0 -63 51.5 -98t138.5 -35q70 0 142 23.5t133.5 71t89.5 110.5z" />
    <glyph glyph-name="abreve.alt" horiz-adv-x="1177" 
d="M754 1200q-177 0 -289 131l123 101q32 -39 79.5 -60.5t98.5 -21.5q115 0 225 88l92 -113q-148 -125 -329 -125zM692 1083q181 0 277 -89.5t96 -243.5q0 -16 -1 -31t-3 -31.5t-7.5 -46t-11.5 -60t-18.5 -90.5t-24.5 -119t-34 -163.5t-43 -208.5h-199q23 110 29 133
q-71 -75 -173 -116.5t-200 -41.5q-152 0 -245 76t-93 203q0 120 70 215.5t180.5 146t236.5 50.5q154 0 320 -64q20 92 20 131q0 182 -213 182q-125 0 -321 -92l-58 156q230 104 416 104zM791 340l2 -6l30 143q-118 37 -268 37q-124 0 -221.5 -72.5t-97.5 -173.5
q0 -63 51.5 -98t138.5 -35q70 0 142 23.5t133.5 71t89.5 110.5z" />
    <glyph glyph-name="acircumflex.alt" horiz-adv-x="1177" 
d="M780 1348l-194 -168h-146l269 286h178l151 -286h-135zM692 1083q181 0 277 -89.5t96 -243.5q0 -16 -1 -31t-3 -31.5t-7.5 -46t-11.5 -60t-18.5 -90.5t-24.5 -119t-34 -163.5t-43 -208.5h-199q23 110 29 133q-71 -75 -173 -116.5t-200 -41.5q-152 0 -245 76t-93 203
q0 120 70 215.5t180.5 146t236.5 50.5q154 0 320 -64q20 92 20 131q0 182 -213 182q-125 0 -321 -92l-58 156q230 104 416 104zM791 340l2 -6l30 143q-118 37 -268 37q-124 0 -221.5 -72.5t-97.5 -173.5q0 -63 51.5 -98t138.5 -35q70 0 142 23.5t133.5 71t89.5 110.5z" />
    <glyph glyph-name="adieresis.alt" horiz-adv-x="1177" 
d="M559 1214q-46 0 -74 29t-28 72q0 48 35.5 84.5t82.5 36.5q45 0 74 -30.5t29 -72.5q0 -47 -37 -83t-82 -36zM965 1214q-45 0 -73 29.5t-28 73.5q0 46 36 82.5t83 36.5q43 0 71.5 -30.5t28.5 -72.5q0 -47 -36 -83t-82 -36zM692 1083q181 0 277 -89.5t96 -243.5
q0 -16 -1 -31t-3 -31.5t-7.5 -46t-11.5 -60t-18.5 -90.5t-24.5 -119t-34 -163.5t-43 -208.5h-199q23 110 29 133q-71 -75 -173 -116.5t-200 -41.5q-152 0 -245 76t-93 203q0 120 70 215.5t180.5 146t236.5 50.5q154 0 320 -64q20 92 20 131q0 182 -213 182q-125 0 -321 -92
l-58 156q230 104 416 104zM791 340l2 -6l30 143q-118 37 -268 37q-124 0 -221.5 -72.5t-97.5 -173.5q0 -63 51.5 -98t138.5 -35q70 0 142 23.5t133.5 71t89.5 110.5z" />
    <glyph glyph-name="agrave.alt" horiz-adv-x="1177" 
d="M895 1180h-141l-242 262l203 41zM692 1083q181 0 277 -89.5t96 -243.5q0 -16 -1 -31t-3 -31.5t-7.5 -46t-11.5 -60t-18.5 -90.5t-24.5 -119t-34 -163.5t-43 -208.5h-199q23 110 29 133q-71 -75 -173 -116.5t-200 -41.5q-152 0 -245 76t-93 203q0 120 70 215.5t180.5 146
t236.5 50.5q154 0 320 -64q20 92 20 131q0 182 -213 182q-125 0 -321 -92l-58 156q230 104 416 104zM791 340l2 -6l30 143q-118 37 -268 37q-124 0 -221.5 -72.5t-97.5 -173.5q0 -63 51.5 -98t138.5 -35q70 0 142 23.5t133.5 71t89.5 110.5z" />
    <glyph glyph-name="amacron.alt" horiz-adv-x="1177" 
d="M442 1341h660l-27 -133h-659zM692 1083q181 0 277 -89.5t96 -243.5q0 -16 -1 -31t-3 -31.5t-7.5 -46t-11.5 -60t-18.5 -90.5t-24.5 -119t-34 -163.5t-43 -208.5h-199q23 110 29 133q-71 -75 -173 -116.5t-200 -41.5q-152 0 -245 76t-93 203q0 120 70 215.5t180.5 146
t236.5 50.5q154 0 320 -64q20 92 20 131q0 182 -213 182q-125 0 -321 -92l-58 156q230 104 416 104zM791 340l2 -6l30 143q-118 37 -268 37q-124 0 -221.5 -72.5t-97.5 -173.5q0 -63 51.5 -98t138.5 -35q70 0 142 23.5t133.5 71t89.5 110.5z" />
    <glyph glyph-name="aogonek.alt" horiz-adv-x="1177" 
d="M862 -213q66 0 107 41l47 -125q-76 -57 -178 -57q-90 0 -142.5 48t-52.5 132q0 114 82 186q12 51 27 121q-71 -75 -173 -116.5t-200 -41.5q-152 0 -245 76t-93 203q0 120 70 215.5t180.5 146t236.5 50.5q154 0 320 -64q20 92 20 131q0 182 -213 182q-125 0 -321 -92
l-58 156q230 104 416 104q181 0 277 -89.5t96 -243.5q0 -16 -1 -31t-3 -31.5t-7.5 -46t-11.5 -60t-18.5 -90t-24.5 -118.5t-34 -163t-43 -208l6 -2q-63 0 -104.5 -41t-41.5 -104q0 -32 21 -50t59 -18zM791 340l2 -6l30 143q-118 37 -268 37q-124 0 -221.5 -72.5
t-97.5 -173.5q0 -63 51.5 -98t138.5 -35q70 0 142 23.5t133.5 71t89.5 110.5z" />
    <glyph glyph-name="aring.alt" horiz-adv-x="1177" 
d="M743 1200q-79 0 -128.5 50t-49.5 126q0 103 83 181.5t186 78.5q79 0 128.5 -49t49.5 -123q0 -104 -83 -184t-186 -80zM813 1536q-55 0 -99 -42t-44 -97q0 -40 26.5 -67t67.5 -27q54 0 98.5 42.5t44.5 96.5q0 40 -26.5 67t-67.5 27zM692 1083q181 0 277 -89.5t96 -243.5
q0 -16 -1 -31t-3 -31.5t-7.5 -46t-11.5 -60t-18.5 -90.5t-24.5 -119t-34 -163.5t-43 -208.5h-199q23 110 29 133q-71 -75 -173 -116.5t-200 -41.5q-152 0 -245 76t-93 203q0 120 70 215.5t180.5 146t236.5 50.5q154 0 320 -64q20 92 20 131q0 182 -213 182q-125 0 -321 -92
l-58 156q230 104 416 104zM791 340l2 -6l30 143q-118 37 -268 37q-124 0 -221.5 -72.5t-97.5 -173.5q0 -63 51.5 -98t138.5 -35q70 0 142 23.5t133.5 71t89.5 110.5z" />
    <glyph glyph-name="atilde.alt" horiz-adv-x="1177" 
d="M645 1300q-85 0 -135 -135l-111 31q42 124 102 185t144 61q42 0 80 -19.5t60 -43t49.5 -43t50.5 -19.5q87 0 137 137l111 -33q-42 -124 -102 -184.5t-144 -60.5q-43 0 -81 19.5t-60 42.5t-49.5 42.5t-51.5 19.5zM692 1083q181 0 277 -89.5t96 -243.5q0 -16 -1 -31
t-3 -31.5t-7.5 -46t-11.5 -60t-18.5 -90.5t-24.5 -119t-34 -163.5t-43 -208.5h-199q23 110 29 133q-71 -75 -173 -116.5t-200 -41.5q-152 0 -245 76t-93 203q0 120 70 215.5t180.5 146t236.5 50.5q154 0 320 -64q20 92 20 131q0 182 -213 182q-125 0 -321 -92l-58 156
q230 104 416 104zM791 340l2 -6l30 143q-118 37 -268 37q-124 0 -221.5 -72.5t-97.5 -173.5q0 -63 51.5 -98t138.5 -35q70 0 142 23.5t133.5 71t89.5 110.5z" />
    <glyph glyph-name="ascender" horiz-adv-x="1327" 
d="M49 0l297 1432h201l-297 -1432h-201z" />
    <glyph glyph-name="descender" horiz-adv-x="1327" 
d="M-25 -352l293 1411h201l-293 -1411h-201z" />
    </font>
</defs>
</svg>
