<?xml version="1.0" standalone="no"?>
<!DOCTYPE svg PUBLIC "-//W3C//DTD SVG 1.1//EN" "http://www.w3.org/Graphics/SVG/1.1/DTD/svg11.dtd" >
<svg xmlns="http://www.w3.org/2000/svg" xmlns:xlink="http://www.w3.org/1999/xlink" version="1.1">
<metadata>
Created by FontForge 20170731 at Tue Jan 26 16:34:57 2021
 By Aleksey,,,
Copyright (c) 2016 by Chris Simpson.
</metadata>
<defs>
<font id="Metropolis-LightItalic" horiz-adv-x="1185" >
  <font-face 
    font-family="Metropolis Light"
    font-weight="400"
    font-style="italic"
    font-stretch="normal"
    units-per-em="2048"
    panose-1="0 0 5 0 0 0 0 0 0 0"
    ascent="1628"
    descent="-420"
    x-height="1059"
    cap-height="1407"
    bbox="-567 -561 2288 1976"
    underline-thickness="40"
    underline-position="-312"
    slope="-11.75"
    unicode-range="U+0020-2212"
  />
<missing-glyph horiz-adv-x="1024" 
d="M840 1628v-2048h-650v2048h650zM682 1491h-338v-68h133v-75h-135v-68h340v68h-135v75h135v68zM547 1227h-205v-213h340v69h-135v144zM477 1157v-74h-67v74h67zM682 958h-340v-67h135v-76h-135v-67h205v143h135v67zM682 836h-68v-136h-272v-69h340v205zM682 586h-205v-115
h70v47h67v-96h-204v164h-68v-232h340v232zM682 231h-340v-231h340v231zM614 164v-96h-204v96h204zM682 -47h-340v-68h143l-143 -96v-68h340v68h-209l143 96h66v68z" />
    <glyph glyph-name=".notdef" horiz-adv-x="1024" 
d="M840 1628v-2048h-650v2048h650zM682 1491h-338v-68h133v-75h-135v-68h340v68h-135v75h135v68zM547 1227h-205v-213h340v69h-135v144zM477 1157v-74h-67v74h67zM682 958h-340v-67h135v-76h-135v-67h205v143h135v67zM682 836h-68v-136h-272v-69h340v205zM682 586h-205v-115
h70v47h67v-96h-204v164h-68v-232h340v232zM682 231h-340v-231h340v231zM614 164v-96h-204v96h204zM682 -47h-340v-68h143l-143 -96v-68h340v68h-209l143 96h66v68z" />
    <glyph glyph-name=".null" horiz-adv-x="0" 
 />
    <glyph glyph-name="nonmarkingreturn" horiz-adv-x="682" 
 />
    <glyph glyph-name="space" unicode=" " horiz-adv-x="593" 
 />
    <glyph glyph-name="exclam" unicode="!" horiz-adv-x="546" 
d="M197 395l182 1012h151l-237 -1012h-96zM170 -25q-38 0 -62 24t-24 60q0 43 32 74t74 31q36 0 59 -24t23 -58q0 -41 -31 -74t-71 -33z" />
    <glyph glyph-name="quotedbl" unicode="&#x22;" horiz-adv-x="827" 
d="M266 897q1 22 7 98.5t8 118.5q10 133 26 176q26 72 96 72q29 0 47.5 -19t18.5 -47t-123 -399h-80zM637 897q0 7 6 90t8 127q3 46 5 66t7.5 56.5t13 53t20.5 36.5t32 28t45 8q29 0 47.5 -19t18.5 -47t-123 -399h-80z" />
    <glyph glyph-name="numbersign" unicode="#" horiz-adv-x="1378" 
d="M1352 922h-252l-201 -439h250l-49 -108h-252l-172 -375h-117l172 375h-325l-173 -375h-116l172 375h-242l49 108h244l201 439h-244l47 108h246l174 377h117l-174 -377h325l174 377h117l-174 -377h252zM782 483l201 439h-326l-200 -439h325z" />
    <glyph glyph-name="dollar" unicode="$" horiz-adv-x="1249" 
d="M872 1427q105 -15 205.5 -68t169.5 -130l-96 -94q-54 66 -135 112.5t-168 59.5l-113 -537q202 -53 289.5 -127.5t87.5 -198.5q0 -193 -153.5 -325.5t-387.5 -141.5l-26 -129h-131l28 138q-122 17 -232.5 75t-182.5 144l96 94q59 -74 151.5 -125.5t192.5 -69.5l117 564
q-180 50 -258 117.5t-78 181.5q0 189 139.5 319.5t355.5 145.5l25 122h131zM381 997q0 -67 55 -110.5t176 -81.5l105 504q-148 -17 -242 -103.5t-94 -208.5zM977 420q0 76 -64.5 124.5t-203.5 90.5l-111 -535q164 12 271.5 102.5t107.5 217.5z" />
    <glyph glyph-name="percent" unicode="%" horiz-adv-x="1611" 
d="M461 715q-121 0 -190.5 74.5t-69.5 195.5q0 111 51.5 210.5t142 161.5t195.5 62q122 0 191 -76t69 -196q0 -111 -51.5 -210t-141.5 -160.5t-196 -61.5zM152 0l1255 1407h127l-1255 -1407h-127zM463 813q113 0 194.5 102.5t81.5 225.5q0 80 -40.5 130t-112.5 50
q-76 0 -141.5 -51t-101.5 -126.5t-36 -152.5q0 -80 43 -129t113 -49zM1090 -20q-119 0 -191 75t-72 197q0 110 51.5 209t143 161t197.5 62q121 0 190.5 -75.5t69.5 -196.5q0 -110 -51.5 -209.5t-142 -161t-195.5 -61.5zM1092 78q77 0 142.5 51t100.5 127t35 154
q0 79 -42.5 127.5t-113.5 48.5q-75 0 -139.5 -49t-100.5 -125t-36 -158q0 -79 41.5 -127.5t112.5 -48.5z" />
    <glyph glyph-name="ampersand" unicode="&#x26;" horiz-adv-x="1353" 
d="M1262 643q-150 -224 -281 -367q27 -35 88 -114t96 -123l-127 -49l-149 194q-228 -209 -467 -209q-166 0 -271.5 89t-105.5 235q0 322 428 492q-74 133 -74 237q0 108 58 199.5t152 143.5t200 52q122 0 198 -76.5t76 -193.5q0 -66 -24 -122.5t-61 -96.5t-98 -78
t-117 -63.5t-136 -55.5q108 -160 264 -366q127 139 246 331zM803 1307q-110 0 -194.5 -80t-84.5 -191q0 -92 62 -205q70 24 119 44.5t100.5 50t82.5 60t50.5 72.5t19.5 91q0 69 -42 113.5t-113 44.5zM430 92q188 0 391 184q-150 202 -289 418q-362 -144 -362 -381
q0 -99 74 -160t186 -61z" />
    <glyph glyph-name="quotesingle" unicode="'" horiz-adv-x="456" 
d="M266 897q1 22 7 98.5t8 118.5q10 133 26 176q26 72 96 72q29 0 47.5 -19t18.5 -47t-123 -399h-80z" />
    <glyph glyph-name="parenleft" unicode="(" horiz-adv-x="716" 
d="M371 -344q-128 138 -195 309.5t-67 360.5q0 312 170 604.5t452 507.5l64 -82q-260 -220 -407.5 -484t-147.5 -559q0 -316 211 -587z" />
    <glyph glyph-name="parenright" unicode=")" horiz-adv-x="716" 
d="M-10 -352l-62 84q260 219 406.5 484t146.5 556q0 314 -209 590l80 68q126 -138 193 -310t67 -360q0 -312 -169.5 -606t-452.5 -506z" />
    <glyph glyph-name="asterisk" unicode="*" horiz-adv-x="804" 
d="M457 788q-20 0 -31 12.5t-8 30.5q9 44 40 129.5t40 114.5q-26 -17 -72 -50t-83 -57t-71 -40q-15 -9 -32 -3t-23 21q-7 16 1 34t24 28q44 23 133 54.5t114 41.5q-20 10 -96 42.5t-110 53.5q-12 9 -13 27t11 35q14 15 33.5 21t31.5 -3q33 -23 92.5 -79t73.5 -68
q2 19 6.5 108t13.5 135q3 17 19 30t35 13q20 0 31 -12.5t8 -30.5q-9 -46 -42 -137.5t-38 -105.5q26 17 72 49.5t82.5 57t70.5 40.5q17 9 33.5 3t21.5 -21q7 -17 -0.5 -35t-23.5 -27q-43 -22 -130.5 -53t-115.5 -43q24 -12 97.5 -43.5t107.5 -52.5q12 -9 13 -27t-11 -35
q-14 -15 -34 -21t-32 3q-33 23 -92.5 79t-73.5 68q-2 -25 -4 -78t-5.5 -92t-10.5 -74q-3 -17 -18.5 -30t-34.5 -13z" />
    <glyph glyph-name="plus" unicode="+" horiz-adv-x="1216" 
d="M1124 748l-28 -127h-406l-84 -406h-127l84 406h-407l28 127h406l86 407h127l-86 -407h407z" />
    <glyph glyph-name="comma" unicode="," horiz-adv-x="540" 
d="M72 -268l-64 57q98 90 152 191q-34 0 -56 21t-22 56q0 46 31.5 76.5t74.5 30.5q42 0 66.5 -28.5t24.5 -76.5q0 -72 -51.5 -147.5t-155.5 -179.5z" />
    <glyph glyph-name="hyphen" unicode="-" horiz-adv-x="761" 
d="M106 494l29 124h531l-29 -124h-531z" />
    <glyph glyph-name="period" unicode="." horiz-adv-x="483" 
d="M139 -25q-38 0 -62 24t-24 60q0 43 32.5 74t74.5 31q36 0 59 -24t23 -58q0 -41 -31.5 -74t-71.5 -33z" />
    <glyph glyph-name="slash" unicode="/" horiz-adv-x="821" 
d="M-174 -152l1067 1674h145l-1067 -1674h-145z" />
    <glyph glyph-name="zero" unicode="0" horiz-adv-x="1382" 
d="M586 -25q-209 0 -329 142.5t-120 382.5q0 135 34.5 270t100.5 253.5t154.5 210t203.5 145t240 53.5q208 0 328.5 -143.5t120.5 -381.5q0 -135 -34.5 -270t-100.5 -253.5t-154.5 -210t-203.5 -145t-240 -53.5zM592 98q102 0 196.5 48t166 129.5t125 185t81 218t27.5 224.5
q0 185 -87 295.5t-239 110.5q-126 0 -239.5 -74t-190 -190t-121.5 -258t-45 -279q0 -188 87 -299t239 -111z" />
    <glyph glyph-name="one" unicode="1" horiz-adv-x="706" 
d="M270 0l260 1245l-303 -174l-41 100l402 236h106l-293 -1407h-131z" />
    <glyph glyph-name="two" unicode="2" horiz-adv-x="1200" 
d="M-8 0l22 115l617 452q84 61 149 118.5t122.5 124t88.5 137t31 140.5q0 101 -69.5 163.5t-178.5 62.5q-234 0 -446 -232l-84 84q239 267 538 267q165 0 269 -92.5t104 -241.5q0 -89 -34.5 -175t-99 -164.5t-138.5 -145t-172 -138.5l-486 -350h758l-29 -125h-962z" />
    <glyph glyph-name="three" unicode="3" horiz-adv-x="1175" 
d="M475 -25q-158 0 -273.5 68t-181.5 186l103 80q112 -213 360 -213q108 0 205 47.5t156 130t59 177.5q0 99 -84 149.5t-241 50.5h-148l27 123l137 -2q171 0 292.5 90t121.5 232q0 94 -75.5 155.5t-193.5 61.5q-215 0 -426 -217l-77 86q237 252 518 252q172 0 279.5 -89
t107.5 -229q0 -141 -92.5 -248t-241.5 -149q98 -22 162.5 -90.5t64.5 -177.5q0 -130 -79.5 -240.5t-207.5 -172t-272 -61.5z" />
    <glyph glyph-name="four" unicode="4" horiz-adv-x="1255" 
d="M694 0l74 354h-702l2 115l893 938h157l-192 -932h217l-25 -121h-219l-74 -354h-131zM225 475h570l161 774z" />
    <glyph glyph-name="five" unicode="5" horiz-adv-x="1212" 
d="M504 -25q-152 0 -268.5 61t-188.5 167l100 88q64 -92 159 -143.5t210 -51.5q169 0 301.5 125.5t132.5 282.5q0 110 -77 179t-203 69q-169 0 -346 -117l-95 53l168 719h811l-24 -125h-684l-125 -508q152 96 327 96q168 0 275.5 -95t107.5 -251q0 -145 -80.5 -272.5
t-214.5 -202t-286 -74.5z" />
    <glyph glyph-name="six" unicode="6" horiz-adv-x="1247" 
d="M846 1311q-101 0 -196.5 -57t-167.5 -151t-125 -212t-78 -244q75 106 196 169t254 63q168 0 276.5 -96.5t108.5 -254.5q0 -110 -48 -212.5t-126.5 -176.5t-184.5 -119t-218 -45q-206 0 -307 122.5t-101 340.5q0 140 35 283.5t101.5 270t154.5 226t201.5 157t234.5 57.5
q226 0 371 -172l-86 -97q-122 148 -295 148zM698 762q-142 0 -265.5 -83.5t-174.5 -211.5v-16q0 -168 71 -263.5t212 -95.5q84 0 166 36t142 94.5t97 135t37 154.5q0 113 -79 181.5t-206 68.5z" />
    <glyph glyph-name="seven" unicode="7" horiz-adv-x="1224" 
d="M190 0l875 1282h-786l24 125h946l-18 -100l-889 -1307h-152z" />
    <glyph glyph-name="eight" unicode="8" horiz-adv-x="1212" 
d="M500 -25q-191 0 -311.5 91.5t-120.5 238.5q0 149 112 262.5t279 161.5q-95 38 -152 110.5t-57 166.5q0 91 46.5 171.5t122 135.5t171 87t192.5 32q173 0 288.5 -88.5t115.5 -227.5q0 -132 -97 -236.5t-251 -156.5q106 -36 171.5 -116.5t65.5 -184.5q0 -126 -84 -230.5
t-215.5 -160.5t-275.5 -56zM647 782q99 5 191.5 46t153.5 114t61 158q0 92 -77.5 151.5t-197.5 59.5q-155 0 -278 -95t-123 -223q0 -92 80 -148.5t190 -62.5zM506 96q110 0 211 44t165 122t64 168q0 100 -90.5 163t-214.5 66q-103 -2 -203.5 -45.5t-168.5 -122t-68 -169.5
q0 -100 85.5 -163t219.5 -63z" />
    <glyph glyph-name="nine" unicode="9" horiz-adv-x="1247" 
d="M784 1432q206 0 307 -122.5t101 -340.5q0 -140 -35 -283.5t-101.5 -270t-154.5 -226t-201.5 -157t-234.5 -57.5q-226 0 -371 172l86 97q122 -148 295 -148q101 0 196.5 57t167.5 151t125 212t78 244q-75 -106 -196 -169t-254 -63q-168 0 -276.5 96.5t-108.5 254.5
q0 110 48 212.5t126.5 176.5t184.5 119t218 45zM623 645q142 0 265.5 83.5t174.5 211.5v16q0 168 -71 263.5t-212 95.5q-84 0 -166 -36t-142 -94.5t-97 -135t-37 -154.5q0 -113 79 -181.5t206 -68.5z" />
    <glyph glyph-name="colon" unicode=":" horiz-adv-x="483" 
d="M322 848q-39 0 -62.5 24.5t-23.5 61.5q0 43 31.5 72.5t72.5 29.5q36 0 59 -23t23 -57q0 -42 -30.5 -75t-69.5 -33zM139 -25q-38 0 -62 24t-24 60q0 43 32.5 74t74.5 31q36 0 59 -24t23 -58q0 -41 -31.5 -74t-71.5 -33z" />
    <glyph glyph-name="semicolon" unicode=";" horiz-adv-x="542" 
d="M346 825q-38 0 -62 24t-24 60q0 43 32.5 74t74.5 31q36 0 59 -24t23 -58q0 -41 -31.5 -74t-71.5 -33zM74 -268l-64 57q98 90 152 191q-34 0 -56 21t-22 56q0 46 31.5 76.5t74.5 30.5q42 0 66.5 -28.5t24.5 -76.5q0 -72 -51.5 -147.5t-155.5 -179.5z" />
    <glyph glyph-name="less" unicode="&#x3c;" horiz-adv-x="1202" 
d="M975 190l-836 459l21 111l1028 459l-25 -127l-880 -387l716 -388z" />
    <glyph glyph-name="equal" unicode="=" horiz-adv-x="1216" 
d="M203 846l28 127h940l-28 -127h-940zM109 395l28 127h940l-28 -127h-940z" />
    <glyph glyph-name="greater" unicode="&#x3e;" horiz-adv-x="1200" 
d="M86 190l25 127l880 388l-717 387l25 127l836 -459l-21 -111z" />
    <glyph glyph-name="question" unicode="?" horiz-adv-x="1028" 
d="M365 395l73 367q123 9 232 53.5t178.5 120.5t69.5 166q0 89 -62.5 149t-169.5 60q-218 0 -416 -205l-75 94q235 232 503 232q160 0 257.5 -88.5t97.5 -223.5q0 -114 -72.5 -213t-182.5 -161t-239 -87l-53 -264h-141zM367 -25q-38 0 -62 24t-24 60q0 43 32 74t74 31
q36 0 59 -24t23 -58q0 -41 -31 -74t-71 -33z" />
    <glyph glyph-name="at" unicode="@" horiz-adv-x="1806" 
d="M713 -238q-137 0 -256.5 48t-202.5 131t-130.5 197.5t-47.5 244.5q0 125 42 251t114.5 235t173.5 204.5t216 163t245 106.5t257 39q136 0 254 -46t200.5 -125.5t129.5 -189t47 -233.5q0 -150 -62 -294t-174.5 -239t-244.5 -95q-93 0 -145 47t-50 129q-77 -79 -174 -127.5
t-198 -48.5q-123 0 -196 71.5t-73 192.5q0 141 85.5 282t222 230.5t276.5 89.5q102 0 165 -47t85 -119l55 135l117 -10q-25 -61 -68.5 -165t-68 -163t-51.5 -128.5t-39.5 -111.5t-12.5 -63q0 -50 32.5 -78t88.5 -28q74 0 142 50.5t113 128.5t72 170.5t27 176.5
q0 149 -73 271.5t-205 193t-297 70.5q-116 0 -234.5 -36t-222.5 -98.5t-195 -150.5t-156 -188t-102.5 -214.5t-37.5 -226.5q0 -156 73 -284t205.5 -202.5t298.5 -74.5q126 0 233.5 29t233.5 96l27 -55q-136 -75 -255.5 -108.5t-258.5 -33.5zM758 264q111 0 215 76t165.5 189
t61.5 223q0 80 -47.5 125t-138.5 45q-109 0 -214 -70.5t-169 -179.5t-64 -219q0 -87 50.5 -138t140.5 -51z" />
    <glyph glyph-name="A" unicode="A" horiz-adv-x="1515" 
d="M1200 0l-78 332h-805l-215 -332h-147l913 1407h146l-2 -2l327 -1405h-139zM399 459h695l-185 786z" />
    <glyph glyph-name="B" unicode="B" horiz-adv-x="1378" 
d="M82 0l293 1407h622q145 0 235.5 -79.5t90.5 -205.5q0 -116 -74 -222t-198 -163q83 -40 134.5 -119t51.5 -167q0 -121 -68 -225t-183.5 -165t-248.5 -61h-655zM381 797h469q137 0 237.5 91.5t100.5 213.5q0 82 -66 133t-170 51h-471zM240 121h485q157 0 271 101.5
t114 242.5q0 94 -71.5 152.5t-186.5 58.5h-498z" />
    <glyph glyph-name="C" unicode="C" horiz-adv-x="1398" 
d="M719 -25q-155 0 -289.5 79.5t-215.5 219t-81 304.5q0 167 72 324.5t191.5 273.5t282 186t335.5 70q132 0 259 -61t204 -159l-103 -84q-62 80 -165 130.5t-216 50.5q-192 0 -360.5 -101t-268.5 -269.5t-100 -358.5q0 -131 65.5 -242.5t175 -175.5t234.5 -64
q105 0 231 52.5t222 134.5l76 -99q-112 -92 -265 -151.5t-284 -59.5z" />
    <glyph glyph-name="D" unicode="D" horiz-adv-x="1550" 
d="M82 0l293 1407h473q274 0 448 -155.5t174 -399.5q0 -136 -46.5 -265.5t-131.5 -234.5t-196.5 -185t-249 -123.5t-281.5 -43.5h-483zM240 121h340q151 0 291.5 58.5t242 156t162.5 230.5t61 276q0 195 -141.5 319.5t-364.5 124.5h-350z" />
    <glyph glyph-name="E" unicode="E" horiz-adv-x="1271" 
d="M1300 1282h-849l-103 -502h770l-24 -127h-775l-108 -528h848l-27 -125h-981l293 1407h981z" />
    <glyph glyph-name="F" unicode="F" horiz-adv-x="1232" 
d="M1313 1282h-862l-103 -502h776l-24 -127h-781l-135 -653h-133l293 1407h995z" />
    <glyph glyph-name="G" unicode="G" horiz-adv-x="1515" 
d="M815 598l27 125h563l-113 -537q-118 -94 -274.5 -152.5t-296.5 -58.5q-162 0 -298 79.5t-214 216t-78 298.5q0 169 73.5 328t194 276t284.5 188t337 71q138 0 269 -60t214 -158l-104 -84q-64 80 -173.5 129.5t-228.5 49.5q-142 0 -277.5 -61t-235.5 -161t-161 -235.5
t-61 -278.5q0 -197 139.5 -336t339.5 -139q104 0 220 41.5t213 110.5l71 348h-430z" />
    <glyph glyph-name="H" unicode="H" horiz-adv-x="1443" 
d="M1333 1407h131l-293 -1407h-131l136 653h-859l-135 -653h-131l293 1407h131l-129 -627h858z" />
    <glyph glyph-name="I" unicode="I" horiz-adv-x="454" 
d="M51 0l293 1407h131l-293 -1407h-131z" />
    <glyph glyph-name="J" unicode="J" horiz-adv-x="1089" 
d="M365 -25q-123 0 -227 66.5t-150 171.5l108 86q29 -90 109 -146.5t180 -56.5q135 0 243 102t140 259l197 950h131l-199 -961q-44 -206 -193 -338.5t-339 -132.5z" />
    <glyph glyph-name="K" unicode="K" horiz-adv-x="1316" 
d="M78 0l293 1407h131l-170 -813l913 813h176l-723 -641l467 -766h-164l-409 676l-293 -254l-90 -422h-131z" />
    <glyph glyph-name="L" unicode="L" horiz-adv-x="1122" 
d="M188 125h781l-27 -125h-913l293 1407h131z" />
    <glyph glyph-name="M" unicode="M" horiz-adv-x="1720" 
d="M82 0l293 1407h129l325 -1008l748 1008h133l-293 -1407h-131l238 1128l-744 -1007l-329 1007l-238 -1128h-131z" />
    <glyph glyph-name="N" unicode="N" horiz-adv-x="1548" 
d="M82 0l293 1407h129l653 -1194l250 1194h131l-293 -1407h-127l-653 1194l-252 -1194h-131z" />
    <glyph glyph-name="O" unicode="O" horiz-adv-x="1652" 
d="M715 -25q-160 0 -295 79t-213 214t-78 295q0 169 73 329.5t193 278.5t283.5 189.5t335.5 71.5q125 0 233.5 -46t184.5 -124.5t119.5 -188t43.5 -233.5q0 -169 -72.5 -328.5t-192 -277t-281.5 -188.5t-334 -71zM737 98q142 0 277.5 62.5t233.5 164.5t158 236.5t60 272.5
q0 203 -134 339t-341 136q-141 0 -275 -60.5t-233.5 -160t-160 -235t-60.5 -278.5q0 -130 63 -239.5t172 -173.5t240 -64z" />
    <glyph glyph-name="P" unicode="P" horiz-adv-x="1316" 
d="M51 0l293 1407h571q191 0 311 -103.5t120 -267.5q0 -140 -84 -259t-225 -188t-304 -69h-442l-109 -520h-131zM317 645h437q188 0 324 114t136 273q0 111 -90 180.5t-237 69.5h-436z" />
    <glyph glyph-name="Q" unicode="Q" horiz-adv-x="1658" 
d="M1595 840q0 -173 -73.5 -333.5t-202.5 -283.5l131 -137l-92 -86l-137 143q-234 -168 -506 -168q-160 0 -295 79t-213 214t-78 295q0 169 73 329.5t193 278.5t283.5 189.5t335.5 71.5q125 0 233.5 -46t184.5 -124.5t119.5 -188t43.5 -233.5zM737 98q212 0 402 133
l-203 213l90 86l209 -219q108 106 169.5 242.5t61.5 280.5q0 203 -134 339t-341 136q-141 0 -275 -60.5t-233.5 -160t-160 -235t-60.5 -278.5q0 -130 63 -239.5t172 -173.5t240 -64z" />
    <glyph glyph-name="R" unicode="R" horiz-adv-x="1316" 
d="M1346 1036q0 -191 -151 -336.5t-370 -173.5l318 -526h-148l-315 520h-389l-109 -520h-131l293 1407h571q191 0 311 -103.5t120 -267.5zM754 645q188 0 324 114t136 273q0 111 -90 180.5t-237 69.5h-436l-134 -637h437z" />
    <glyph glyph-name="S" unicode="S" horiz-adv-x="1249" 
d="M541 -23q-146 0 -287 62t-227 166l96 94q71 -91 190 -146t238 -55q182 0 304 92.5t122 229.5q0 85 -78 135t-254 96q-214 54 -305.5 124t-91.5 192q0 131 71 238t196 168t278 61q124 0 247 -56t207 -149l-96 -94q-65 79 -167 128.5t-204 49.5q-170 0 -284.5 -90.5
t-114.5 -225.5q0 -79 78.5 -127.5t257.5 -95.5q212 -53 303.5 -128t91.5 -202q0 -131 -74 -238t-204.5 -168t-292.5 -61z" />
    <glyph glyph-name="T" unicode="T" horiz-adv-x="1290" 
d="M469 0l268 1282h-487l24 125h1106l-24 -125h-488l-268 -1282h-131z" />
    <glyph glyph-name="U" unicode="U" horiz-adv-x="1499" 
d="M639 -25q-168 0 -284 76t-161 213t-8 311l172 832h131l-174 -842q-43 -206 54 -337.5t290 -131.5q195 0 347.5 134.5t195.5 344.5l172 832h131l-174 -842q-54 -260 -248 -425t-444 -165z" />
    <glyph glyph-name="V" unicode="V" horiz-adv-x="1515" 
d="M1485 1407h147l-913 -1407h-146l2 2l-327 1405h139l291 -1245z" />
    <glyph glyph-name="W" unicode="W" horiz-adv-x="2181" 
d="M442 0l-184 1407h145l154 -1188l641 1188h145l144 -1188l651 1188h150l-770 -1407h-134l-145 1229l-664 -1229h-133z" />
    <glyph glyph-name="X" unicode="X" horiz-adv-x="1398" 
d="M1503 1407l-688 -707l389 -700h-155l-332 598l-584 -598h-166l688 707l-389 700h156l332 -598l583 598h166z" />
    <glyph glyph-name="Y" unicode="Y" horiz-adv-x="1347" 
d="M494 0l122 573l-397 834h135l340 -717l635 717h164l-741 -834l-121 -573h-137z" />
    <glyph glyph-name="Z" unicode="Z" horiz-adv-x="1296" 
d="M12 0l19 104l1122 1178h-862l26 125h1039l-21 -104l-1122 -1178h885l-27 -125h-1059z" />
    <glyph glyph-name="bracketleft" unicode="[" horiz-adv-x="741" 
d="M8 -236l361 1739h473l-21 -102h-358l-320 -1534h359l-21 -103h-473z" />
    <glyph glyph-name="backslash" unicode="\" horiz-adv-x="815" 
d="M567 -152l-370 1674h139l371 -1674h-140z" />
    <glyph glyph-name="bracketright" unicode="]" horiz-adv-x="741" 
d="M-57 -236l20 103h359l319 1534h-358l20 102h473l-360 -1739h-473z" />
    <glyph glyph-name="asciicircum" unicode="^" horiz-adv-x="989" 
d="M176 846l447 561h110l211 -561h-115l-167 459l-365 -459h-121z" />
    <glyph glyph-name="underscore" unicode="_" horiz-adv-x="1212" 
d="M-172 -281l25 117h1220l-24 -117h-1221z" />
    <glyph glyph-name="grave" unicode="`" horiz-adv-x="641" 
d="M539 1180l-220 262l140 31l188 -293h-108z" />
    <glyph glyph-name="a" unicode="a" horiz-adv-x="1290" 
d="M1104 1059h127l-221 -1059h-127l43 207q-83 -108 -197.5 -170t-239.5 -62q-163 0 -277 124t-114 302q0 132 51.5 258t135.5 218.5t199 149t235 56.5q117 0 207.5 -67.5t130.5 -179.5zM514 92q131 0 244.5 76t180.5 205.5t67 279.5q0 135 -89 224.5t-223 89.5
q-120 0 -227.5 -77t-172.5 -206.5t-65 -273.5q0 -134 82.5 -226t202.5 -92z" />
    <glyph glyph-name="b" unicode="b" horiz-adv-x="1292" 
d="M803 1083q163 0 277 -123.5t114 -300.5q0 -132 -51 -258t-134.5 -219.5t-197 -150t-233.5 -56.5q-119 0 -210.5 68.5t-131.5 183.5l-48 -227h-127l297 1432h127l-120 -580q85 108 198.5 169.5t239.5 61.5zM592 92q122 0 231 77t174.5 206t65.5 274q0 134 -82.5 226
t-202.5 92q-131 0 -244.5 -77t-180 -207t-66.5 -280q0 -135 87 -223t218 -88z" />
    <glyph glyph-name="c" unicode="c" horiz-adv-x="1099" 
d="M526 -25q-183 0 -310.5 129t-127.5 314q0 132 53.5 255t143 213t212.5 143.5t255 53.5q92 0 188 -44.5t154 -114.5l-101 -80q-40 54 -113.5 88.5t-148.5 34.5q-103 0 -197.5 -43.5t-163.5 -116.5t-110 -173t-41 -208q0 -139 95.5 -236.5t230.5 -97.5q80 0 162.5 34.5
t154.5 98.5l76 -94q-189 -156 -412 -156z" />
    <glyph glyph-name="d" unicode="d" horiz-adv-x="1292" 
d="M1180 1432h127l-297 -1432h-127l43 205q-86 -107 -199.5 -168.5t-237.5 -61.5q-163 0 -277 124t-114 302q0 132 51.5 258t135.5 218.5t199 149t235 56.5q117 0 207.5 -66.5t130.5 -178.5zM514 92q164 0 297 117.5t176 294.5l10 49q9 49 9 100q0 135 -89 224.5t-223 89.5
q-120 0 -227.5 -77t-172.5 -206.5t-65 -273.5q0 -134 82.5 -226t202.5 -92z" />
    <glyph glyph-name="e" unicode="e" horiz-adv-x="1163" 
d="M614 479h-399q-2 -16 -2 -49q0 -151 88 -244.5t234 -93.5q104 0 208 37.5t170 97.5l70 -92q-80 -71 -216 -115.5t-253 -44.5q-188 0 -307 124t-119 319q0 170 91.5 324.5t242 247.5t315.5 93q158 0 268.5 -81t110.5 -211q0 -141 -134.5 -226.5t-367.5 -85.5zM725 967
q-166 0 -298 -107t-185 -264h397q167 0 258.5 49.5t91.5 138.5q0 82 -73.5 132.5t-190.5 50.5z" />
    <glyph glyph-name="f" unicode="f" horiz-adv-x="710" 
d="M680 1475q112 0 190 -72l-77 -86q-35 41 -103 41q-62 0 -111.5 -45t-64.5 -113l-29 -141h273l-23 -117h-274l-197 -942h-127l197 942h-172l24 117h172l31 149q25 118 106 192.5t185 74.5z" />
    <glyph glyph-name="g" unicode="g" horiz-adv-x="1255" 
d="M1067 1059h127l-197 -950q-44 -208 -210.5 -334.5t-385.5 -126.5q-124 0 -232.5 40.5t-170.5 104.5l72 94q52 -58 139 -90.5t190 -32.5q179 0 309 97t164 256l37 180q-84 -105 -198.5 -162t-239.5 -57q-180 0 -288.5 109.5t-108.5 289.5q0 155 79 294.5t216 225.5t295 86
q135 0 229 -63t131 -172zM502 195q163 0 294.5 110t170.5 266l6 33q6 34 6 70q0 134 -80.5 213.5t-216.5 79.5q-125 0 -235.5 -68t-175 -178.5t-64.5 -231.5q0 -133 79 -213.5t216 -80.5z" />
    <glyph glyph-name="h" unicode="h" 
d="M739 1083q151 0 240.5 -86t89.5 -227q0 -11 -0.5 -21.5t-2 -22t-4.5 -30.5t-6.5 -38t-10.5 -54t-14.5 -69.5t-19.5 -93t-24.5 -116t-31 -147.5t-37.5 -178h-127q135 640 142 687q5 34 5 61q0 100 -59.5 159.5t-161.5 59.5q-142 0 -259.5 -87t-142.5 -210v8l-141 -678
h-127l297 1432h127l-113 -545q61 89 164 142.5t217 53.5z" />
    <glyph glyph-name="i" unicode="i" horiz-adv-x="434" 
d="M371 1266q-35 0 -57.5 21.5t-22.5 55.5q0 38 29.5 68.5t68.5 30.5q34 0 56 -23t22 -57q0 -38 -30 -67t-66 -29zM43 0l221 1059h127l-221 -1059h-127z" />
    <glyph glyph-name="j" unicode="j" horiz-adv-x="460" 
d="M393 1266q-35 0 -57.5 21.5t-22.5 55.5q0 37 30 68t69 31q35 0 56 -23t21 -57q0 -38 -29.5 -67t-66.5 -29zM-127 -365q-88 0 -164 35l35 105q51 -23 127 -23q58 0 106 43.5t62 108.5l240 1155h127l-244 -1165q-23 -115 -103.5 -187t-185.5 -72z" />
    <glyph glyph-name="k" unicode="k" horiz-adv-x="1087" 
d="M1169 1059l-579 -486l328 -573h-154l-279 487l-256 -213l-57 -274h-127l297 1432h127l-205 -992l735 619h170z" />
    <glyph glyph-name="l" unicode="l" horiz-adv-x="438" 
d="M47 0l297 1432h127l-297 -1432h-127z" />
    <glyph glyph-name="m" unicode="m" horiz-adv-x="1808" 
d="M1386 1083q143 0 225.5 -84.5t82.5 -224.5q0 -51 -75 -405q-14 -67 -22.5 -107.5t-24 -115.5t-30.5 -146h-127q42 203 95 451q55 263 55 292q0 107 -53.5 165.5t-153.5 58.5q-121 0 -224 -76.5t-133 -194.5q-6 -35 -20.5 -103.5t-50.5 -240t-74 -352.5h-127
q42 203 95 451q55 263 55 292q0 107 -52.5 165.5t-152.5 58.5q-122 0 -224.5 -77.5t-132.5 -197.5l-145 -692h-127l221 1059h127l-31 -152q54 83 144.5 129.5t195.5 46.5q120 0 197.5 -60.5t101.5 -166.5q52 103 157.5 165t227.5 62z" />
    <glyph glyph-name="n" unicode="n" 
d="M739 1083q151 0 240.5 -86t89.5 -227q0 -11 -0.5 -21.5t-2 -22t-4.5 -30.5t-6.5 -38t-10.5 -54t-14.5 -69.5t-19.5 -93t-24.5 -116t-31 -147.5t-37.5 -178h-127q135 640 142 687q5 34 5 61q0 100 -59.5 159.5t-161.5 59.5q-142 0 -259.5 -87t-142.5 -210v4l-141 -674
h-127l221 1059h127l-35 -170q62 89 164 141.5t215 52.5z" />
    <glyph glyph-name="o" unicode="o" horiz-adv-x="1294" 
d="M532 -25q-118 0 -220 61.5t-162 165.5t-60 224q0 175 91 326.5t245 241t332 89.5q119 0 222 -61t163.5 -164.5t60.5 -222.5q0 -132 -54 -254t-144.5 -211t-215 -142t-258.5 -53zM553 92q139 0 259 72t190.5 195t70.5 266q0 138 -100 240t-236 102q-138 0 -257 -72.5
t-189 -195.5t-70 -265q0 -139 98.5 -240.5t233.5 -101.5z" />
    <glyph glyph-name="p" unicode="p" horiz-adv-x="1292" 
d="M803 1083q163 0 277 -123.5t114 -300.5q0 -132 -51 -258t-134.5 -219.5t-197 -150t-233.5 -56.5q-119 0 -210.5 68.5t-131.5 183.5l-121 -579h-127l293 1411h127l-43 -209q83 109 197 171t241 62zM592 92q122 0 231 77t174.5 206t65.5 274q0 134 -82.5 226t-202.5 92
q-131 0 -244.5 -77t-180 -207t-66.5 -280q0 -135 87 -223t218 -88z" />
    <glyph glyph-name="q" unicode="q" horiz-adv-x="1292" 
d="M1104 1059h127l-293 -1411h-127l117 561q-85 -110 -199 -172t-240 -62q-163 0 -277 124t-114 302q0 132 51.5 258t135.5 218.5t199 149t235 56.5q117 0 208 -67.5t130 -179.5zM514 92q131 0 244.5 76t180.5 205.5t67 279.5q0 135 -89 224.5t-223 89.5q-120 0 -227.5 -77
t-172.5 -206.5t-65 -273.5q0 -134 82.5 -226t202.5 -92z" />
    <glyph glyph-name="r" unicode="r" horiz-adv-x="768" 
d="M365 850q66 109 186.5 171t265.5 62l-14 -116q-180 0 -319.5 -107t-174.5 -272l-123 -588h-127l222 1059h127z" />
    <glyph glyph-name="s" unicode="s" horiz-adv-x="1007" 
d="M422 -25q-114 0 -223.5 43t-188.5 119l82 86q71 -62 160.5 -96.5t175.5 -34.5q120 0 212.5 63.5t92.5 153.5q0 54 -54 95t-177 81q-161 50 -232 108.5t-71 143.5q0 151 122 248.5t297 97.5q94 0 189.5 -32t171.5 -90l-78 -91q-63 46 -140 71.5t-149 25.5
q-120 0 -203 -58.5t-83 -144.5q0 -45 56.5 -86t184.5 -86q157 -50 226 -110.5t69 -149.5q0 -98 -62.5 -181t-163.5 -129.5t-214 -46.5z" />
    <glyph glyph-name="t" unicode="t" horiz-adv-x="755" 
d="M729 942h-266q-150 -715 -151 -731q-1 -5 -1 -14q0 -47 24.5 -76t65.5 -29q80 0 140 49l51 -102q-98 -64 -205 -64q-93 0 -148 57.5t-55 149.5q0 33 12 96t81 391q35 167 57 273h-172l24 117h172l62 291h127l-62 -291h267z" />
    <glyph glyph-name="u" unicode="u" 
d="M1012 1059h127l-221 -1059h-127l34 170q-62 -89 -164 -142t-215 -53q-151 0 -240 86.5t-89 227.5q0 11 0.5 21.5t2 22t4.5 30.5t6.5 38t10.5 54t14.5 69.5t19.5 93t24.5 116t31 147.5t37.5 178h127q-135 -640 -142 -687q-5 -34 -5 -61q0 -100 59.5 -159.5t161.5 -59.5
q142 0 259 87t142 210v-4z" />
    <glyph glyph-name="v" unicode="v" horiz-adv-x="1144" 
d="M408 0l-242 1059h137l191 -897l561 897h145l-680 -1059h-112z" />
    <glyph glyph-name="w" unicode="w" horiz-adv-x="1679" 
d="M313 0l-131 1059h131l97 -889l485 889h109l112 -889l469 889h137l-575 -1059h-127l-105 870l-475 -870h-127z" />
    <glyph glyph-name="x" unicode="x" horiz-adv-x="1097" 
d="M1130 1059l-501 -522l293 -537h-146l-241 440l-424 -440h-156l524 543l-282 516h145l229 -420l406 420h153z" />
    <glyph glyph-name="y" unicode="y" horiz-adv-x="1196" 
d="M117 -369q-94 0 -166 37l47 109q51 -29 121 -29q121 0 198 102l95 134l-240 1075h137l197 -924l565 924h139l-735 -1194q-75 -123 -163 -178.5t-195 -55.5z" />
    <glyph glyph-name="z" unicode="z" horiz-adv-x="1054" 
d="M4 0l19 100l833 838h-647l27 121h819l-21 -101l-835 -837h663l-24 -121h-834z" />
    <glyph glyph-name="braceleft" unicode="{" horiz-adv-x="815" 
d="M528 -340q-184 22 -264 81.5t-80 172.5q0 59 40 236t40 223q0 66 -40.5 93.5t-133.5 27.5l10 100q114 0 175 49.5t83 155.5l62 286q34 164 136 241t329 101l2 -96q-183 -25 -258.5 -80.5t-100.5 -181.5l-59 -295q-22 -99 -68 -153t-131 -80q109 -42 109 -160
q0 -47 -41 -226t-41 -229q0 -77 55.5 -113t196.5 -57z" />
    <glyph glyph-name="bar" unicode="|" horiz-adv-x="552" 
d="M82 -152l348 1674h107l-349 -1674h-106z" />
    <glyph glyph-name="braceright" unicode="}" horiz-adv-x="815" 
d="M-66 -340v96q181 25 257 80.5t102 183.5l59 293q22 100 67.5 154t131.5 82q-111 40 -111 158q0 50 42 233t42 221q0 76 -56.5 112.5t-197.5 57.5l23 96q184 -22 264 -81t80 -172q0 -55 -40 -235t-40 -224q0 -64 41 -92.5t133 -28.5l-10 -100q-114 0 -175 -48.5
t-83 -154.5l-62 -289q-33 -163 -136 -240.5t-331 -101.5z" />
    <glyph glyph-name="asciitilde" unicode="~" horiz-adv-x="907" 
d="M614 623q-35 0 -64.5 14t-50 33.5t-39 39.5t-40 34t-43.5 14q-42 0 -80 -39.5t-64 -112.5l-86 23q78 231 234 231q35 0 64.5 -14t50 -34t39 -39.5t39 -33.5t42.5 -14q43 0 80.5 39.5t65.5 112.5l86 -23q-78 -231 -234 -231z" />
    <glyph glyph-name="exclamdown" unicode="&#xa1;" horiz-adv-x="524" 
d="M365 1083q38 0 62 -24t24 -60q0 -43 -32.5 -73.5t-74.5 -30.5q-36 0 -59 24t-23 58q0 41 31.5 73.5t71.5 32.5zM338 664l-182 -1012h-152l238 1012h96z" />
    <glyph glyph-name="cent" unicode="&#xa2;" horiz-adv-x="1099" 
d="M793 1081q85 -9 167 -51.5t134 -105.5l-101 -80q-35 47 -96.5 80.5t-128.5 40.5l-180 -871q143 15 274 131l76 -94q-171 -142 -375 -154l-26 -129h-131l28 138q-150 31 -248 152t-98 280q0 121 45 235.5t122 201.5t183 146t224 76l26 129h131zM219 426q0 -116 67.5 -205
t172.5 -117l178 852q-178 -35 -298 -186.5t-120 -343.5z" />
    <glyph glyph-name="sterling" unicode="&#xa3;" horiz-adv-x="1232" 
d="M848 1432q145 0 250 -67.5t135 -174.5l-109 -82q-13 93 -90 148t-192 55q-136 0 -247.5 -104.5t-143.5 -262.5l-58 -282h420l-25 -117h-419l-86 -420h774l-29 -125h-1024l12 63l131 62l89 420h-115l24 117h115l62 290q44 212 190.5 346t335.5 134z" />
    <glyph glyph-name="yen" unicode="&#xa5;" horiz-adv-x="1347" 
d="M1493 1407l-662 -743h367l-24 -117h-429l-38 -185h428l-25 -116h-428l-51 -246h-137l53 246h-426l24 116h426l39 185h-426l25 117h364l-354 743h135l340 -717l635 717h164z" />
    <glyph glyph-name="dieresis" unicode="&#xa8;" horiz-adv-x="839" 
d="M379 1233q-33 0 -54.5 22.5t-21.5 53.5q0 34 28 63t64 29q33 0 54.5 -22.5t21.5 -55.5q0 -34 -29 -62t-63 -28zM772 1233q-33 0 -54.5 22.5t-21.5 53.5q0 34 28 63t64 29q33 0 54.5 -22.5t21.5 -55.5q0 -34 -29 -62t-63 -28z" />
    <glyph glyph-name="macron" unicode="&#xaf;" horiz-adv-x="892" 
d="M274 1223l19 100h635l-19 -100h-635z" />
    <glyph glyph-name="acute" unicode="&#xb4;" horiz-adv-x="645" 
d="M264 1180l311 293l132 -31l-328 -262h-115z" />
    <glyph glyph-name="cedilla" unicode="&#xb8;" horiz-adv-x="628" 
d="M221 -92q56 0 89.5 -31t33.5 -82q0 -80 -66.5 -134t-156.5 -54q-102 0 -170 61l45 72q45 -45 119 -45q61 0 99 26.5t38 69.5q0 26 -17 42.5t-45 16.5q-42 0 -79 -26l-29 39l98 160h101l-72 -115h12z" />
    <glyph glyph-name="questiondown" unicode="&#xbf;" horiz-adv-x="1028" 
d="M662 1083q38 0 62 -24t24 -60q0 -43 -32.5 -73.5t-74.5 -30.5q-36 0 -59 24t-23 58q0 41 31.5 73.5t71.5 32.5zM664 664l-74 -367q-123 -9 -231.5 -53.5t-178 -120.5t-69.5 -166t62 -149.5t169 -59.5q218 0 416 205l76 -94q-235 -232 -504 -232q-160 0 -257.5 88.5
t-97.5 223.5q0 86 42 164.5t111.5 136.5t157.5 99t183 60l53 265h142z" />
    <glyph glyph-name="Agrave" unicode="&#xc0;" horiz-adv-x="1515" 
d="M1024 1528h-109l-219 262l140 31zM1200 0l-78 332h-805l-215 -332h-147l913 1407h146l-2 -2l327 -1405h-139zM399 459h695l-185 786z" />
    <glyph glyph-name="Aacute" unicode="&#xc1;" horiz-adv-x="1515" 
d="M1348 1790l-328 -262h-115l312 293zM1014 1407l-2 -2l327 -1405h-139l-78 332h-805l-215 -332h-147l913 1407h146zM1094 459l-185 786l-510 -786h695z" />
    <glyph glyph-name="Acircumflex" unicode="&#xc2;" horiz-adv-x="1515" 
d="M1010 1718l-205 -190h-111l269 280h124l154 -280h-104zM1200 0l-78 332h-805l-215 -332h-147l913 1407h146l-2 -2l327 -1405h-139zM399 459h695l-185 786z" />
    <glyph glyph-name="Atilde" unicode="&#xc3;" horiz-adv-x="1515" 
d="M872 1669q-42 0 -79.5 -39t-63.5 -112l-86 22q78 232 234 232q35 0 64.5 -14t50 -34t39 -40t39 -34t42.5 -14q43 0 80 39t65 113l86 -23q-78 -231 -233 -231q-35 0 -64.5 14t-50 34t-39.5 39.5t-40.5 33.5t-43.5 14zM1014 1407l-2 -2l327 -1405h-139l-78 332h-805
l-215 -332h-147l913 1407h146zM1094 459l-185 786l-510 -786h695z" />
    <glyph glyph-name="Adieresis" unicode="&#xc4;" horiz-adv-x="1515" 
d="M791 1581q-33 0 -54.5 22.5t-21.5 53.5q0 34 28 63t64 29q33 0 54.5 -22.5t21.5 -55.5q0 -34 -29 -62t-63 -28zM1184 1581q-33 0 -54.5 22.5t-21.5 53.5q0 34 28 63t64 29q33 0 54.5 -22.5t21.5 -55.5q0 -34 -29 -62t-63 -28zM1200 0l-78 332h-805l-215 -332h-147
l913 1407h146l-2 -2l327 -1405h-139zM399 459h695l-185 786z" />
    <glyph glyph-name="Aring" unicode="&#xc5;" horiz-adv-x="1515" 
d="M973 1554q-76 0 -124 48.5t-48 121.5q0 100 80.5 176t179.5 76q75 0 122.5 -47t47.5 -119q0 -102 -79.5 -179t-178.5 -77zM1044 1892q-59 0 -108 -45.5t-49 -103.5q0 -45 29 -75t73 -30q59 0 107.5 47t48.5 107q0 43 -28.5 71.5t-72.5 28.5zM1200 0l-78 332h-805
l-215 -332h-147l913 1407h146l-2 -2l327 -1405h-139zM399 459h695l-185 786z" />
    <glyph glyph-name="AE" unicode="&#xc6;" horiz-adv-x="2050" 
d="M2095 1282h-850l-102 -502h770l-25 -127h-774l-108 -528h847l-26 -125h-981l69 332h-544l-260 -332h-156l1106 1407h1059zM471 459h471l170 817z" />
    <glyph glyph-name="Ccedilla" unicode="&#xc7;" horiz-adv-x="1398" 
d="M1014 1432q132 0 259 -61t204 -159l-103 -84q-62 80 -165 130.5t-216 50.5q-192 0 -360.5 -101t-268.5 -269.5t-100 -358.5q0 -131 65.5 -242.5t175 -175.5t234.5 -64q105 0 231 52.5t222 134.5l76 -99q-106 -86 -248 -145t-268 -66l-43 -67h12q56 0 89.5 -31t33.5 -82
q0 -80 -66.5 -134t-156.5 -54q-102 0 -170 61l45 72q45 -45 118 -45q61 0 99.5 26.5t38.5 69.5q0 26 -17 42.5t-45 16.5q-43 0 -80 -26l-28 39l71 117q-142 16 -260.5 98.5t-189 214.5t-70.5 285q0 167 72 324.5t191.5 273.5t282 186t335.5 70z" />
    <glyph glyph-name="Egrave" unicode="&#xc8;" horiz-adv-x="1271" 
d="M1004 1528h-109l-219 262l139 31zM1300 1282h-849l-103 -502h770l-24 -127h-775l-108 -528h848l-27 -125h-981l293 1407h981z" />
    <glyph glyph-name="Eacute" unicode="&#xc9;" horiz-adv-x="1271" 
d="M1112 1790l-328 -262h-114l311 293zM1300 1282h-849l-103 -502h770l-24 -127h-775l-108 -528h848l-27 -125h-981l293 1407h981z" />
    <glyph glyph-name="Ecircumflex" unicode="&#xca;" horiz-adv-x="1271" 
d="M903 1718l-205 -190h-110l268 280h125l154 -280h-105zM1300 1282h-849l-103 -502h770l-24 -127h-775l-108 -528h848l-27 -125h-981l293 1407h981z" />
    <glyph glyph-name="Edieresis" unicode="&#xcb;" horiz-adv-x="1271" 
d="M684 1581q-33 0 -54.5 22.5t-21.5 53.5q0 34 28 63t64 29q33 0 54.5 -22.5t21.5 -55.5q0 -34 -29 -62t-63 -28zM1077 1581q-33 0 -54.5 22.5t-21.5 53.5q0 34 28.5 63t64.5 29q33 0 54 -22.5t21 -55.5q0 -34 -29 -62t-63 -28zM1300 1282h-849l-103 -502h770l-24 -127
h-775l-108 -528h848l-27 -125h-981l293 1407h981z" />
    <glyph glyph-name="Igrave" unicode="&#xcc;" horiz-adv-x="454" 
d="M387 1528l-219 262l139 31l189 -293h-109zM51 0l293 1407h131l-293 -1407h-131z" />
    <glyph glyph-name="Iacute" unicode="&#xcd;" horiz-adv-x="454" 
d="M373 1528l311 293l131 -31l-328 -262h-114zM51 0l293 1407h131l-293 -1407h-131z" />
    <glyph glyph-name="Icircumflex" unicode="&#xce;" horiz-adv-x="454" 
d="M162 1528l268 280h125l154 -280h-105l-127 190l-205 -190h-110zM51 0l293 1407h131l-293 -1407h-131z" />
    <glyph glyph-name="Idieresis" unicode="&#xcf;" horiz-adv-x="454" 
d="M258 1581q-33 0 -54.5 22.5t-21.5 53.5q0 34 28 63t64 29q33 0 54.5 -22.5t21.5 -55.5q0 -34 -29 -62t-63 -28zM651 1581q-33 0 -54.5 22.5t-21.5 53.5q0 34 28.5 63t64.5 29q33 0 54 -22.5t21 -55.5q0 -34 -29 -62t-63 -28zM51 0l293 1407h131l-293 -1407h-131z" />
    <glyph glyph-name="Eth" unicode="&#xd0;" horiz-adv-x="1593" 
d="M891 1407q274 0 448 -155.5t174 -399.5q0 -136 -46.5 -265.5t-131.5 -234.5t-196.5 -185t-249 -123.5t-281.5 -43.5h-483l135 653h-147l26 127h148l131 627h473zM623 121q151 0 291.5 58.5t242 156t162.5 230.5t61 276q0 195 -141.5 319.5t-364.5 124.5h-350l-104 -506
h434l-29 -127h-432l-110 -532h340z" />
    <glyph glyph-name="Ntilde" unicode="&#xd1;" horiz-adv-x="1548" 
d="M1122 1534q-35 0 -64.5 14t-50 34t-39 39.5t-40 33.5t-43.5 14q-42 0 -80 -39.5t-64 -111.5l-86 22q78 232 234 232q35 0 64.5 -14t50 -34t39 -40t39 -34t42.5 -14q43 0 80.5 39.5t65.5 112.5l86 -23q-78 -231 -234 -231zM82 0l293 1407h129l653 -1194l250 1194h131
l-293 -1407h-127l-653 1194l-252 -1194h-131z" />
    <glyph glyph-name="Ograve" unicode="&#xd2;" horiz-adv-x="1652" 
d="M985 1528l-219 262l139 31l189 -293h-109zM715 -25q-160 0 -295 79t-213 214t-78 295q0 169 73 329.5t193 278.5t283.5 189.5t335.5 71.5q125 0 233.5 -46t184.5 -124.5t119.5 -188t43.5 -233.5q0 -169 -72.5 -328.5t-192 -277t-281.5 -188.5t-334 -71zM737 98
q142 0 277.5 62.5t233.5 164.5t158 236.5t60 272.5q0 203 -134 339t-341 136q-141 0 -275 -60.5t-233.5 -160t-160 -235t-60.5 -278.5q0 -130 63 -239.5t172 -173.5t240 -64z" />
    <glyph glyph-name="Oacute" unicode="&#xd3;" horiz-adv-x="1652" 
d="M973 1528l311 293l131 -31l-328 -262h-114zM715 -25q-160 0 -295 79t-213 214t-78 295q0 169 73 329.5t193 278.5t283.5 189.5t335.5 71.5q125 0 233.5 -46t184.5 -124.5t119.5 -188t43.5 -233.5q0 -169 -72.5 -328.5t-192 -277t-281.5 -188.5t-334 -71zM737 98
q142 0 277.5 62.5t233.5 164.5t158 236.5t60 272.5q0 203 -134 339t-341 136q-141 0 -275 -60.5t-233.5 -160t-160 -235t-60.5 -278.5q0 -130 63 -239.5t172 -173.5t240 -64z" />
    <glyph glyph-name="Ocircumflex" unicode="&#xd4;" horiz-adv-x="1652" 
d="M760 1528l268 280h125l154 -280h-105l-127 190l-205 -190h-110zM715 -25q-160 0 -295 79t-213 214t-78 295q0 169 73 329.5t193 278.5t283.5 189.5t335.5 71.5q125 0 233.5 -46t184.5 -124.5t119.5 -188t43.5 -233.5q0 -169 -72.5 -328.5t-192 -277t-281.5 -188.5
t-334 -71zM737 98q142 0 277.5 62.5t233.5 164.5t158 236.5t60 272.5q0 203 -134 339t-341 136q-141 0 -275 -60.5t-233.5 -160t-160 -235t-60.5 -278.5q0 -130 63 -239.5t172 -173.5t240 -64z" />
    <glyph glyph-name="Otilde" unicode="&#xd5;" horiz-adv-x="1652" 
d="M1176 1534q-35 0 -64.5 14t-50 34t-39.5 39.5t-40.5 33.5t-43.5 14q-42 0 -79.5 -39t-63.5 -112l-86 22q78 232 233 232q35 0 64.5 -14t50 -34t39 -40t39.5 -34t43 -14q43 0 80 39t65 113l86 -23q-78 -231 -233 -231zM715 -25q-160 0 -295 79t-213 214t-78 295
q0 169 73 329.5t193 278.5t283.5 189.5t335.5 71.5q125 0 233.5 -46t184.5 -124.5t119.5 -188t43.5 -233.5q0 -169 -72.5 -328.5t-192 -277t-281.5 -188.5t-334 -71zM737 98q142 0 277.5 62.5t233.5 164.5t158 236.5t60 272.5q0 203 -134 339t-341 136q-141 0 -275 -60.5
t-233.5 -160t-160 -235t-60.5 -278.5q0 -130 63 -239.5t172 -173.5t240 -64z" />
    <glyph glyph-name="Odieresis" unicode="&#xd6;" horiz-adv-x="1652" 
d="M856 1581q-33 0 -54.5 22.5t-21.5 53.5q0 34 28 63t64 29q33 0 54.5 -22.5t21.5 -55.5q0 -34 -29 -62t-63 -28zM1249 1581q-33 0 -54 22t-21 54q0 34 28 63t64 29q33 0 54 -22.5t21 -55.5q0 -34 -29 -62t-63 -28zM715 -25q-160 0 -295 79t-213 214t-78 295
q0 169 73 329.5t193 278.5t283.5 189.5t335.5 71.5q125 0 233.5 -46t184.5 -124.5t119.5 -188t43.5 -233.5q0 -169 -72.5 -328.5t-192 -277t-281.5 -188.5t-334 -71zM737 98q142 0 277.5 62.5t233.5 164.5t158 236.5t60 272.5q0 203 -134 339t-341 136q-141 0 -275 -60.5
t-233.5 -160t-160 -235t-60.5 -278.5q0 -130 63 -239.5t172 -173.5t240 -64z" />
    <glyph glyph-name="multiply" unicode="&#xd7;" horiz-adv-x="1089" 
d="M1014 973l-346 -291l227 -285l-104 -90l-230 287l-344 -287l-76 90l348 289l-229 287l105 88l229 -287l346 287z" />
    <glyph glyph-name="Oslash" unicode="&#xd8;" horiz-adv-x="1652" 
d="M1704 1407l-221 -205q112 -156 112 -362q0 -169 -72.5 -328.5t-192 -277t-281.5 -188.5t-334 -71q-229 0 -396 154l-139 -129h-153l223 205q-121 159 -121 358q0 169 73 329.5t193 278.5t283.5 189.5t335.5 71.5q234 0 399 -152l137 127h154zM262 575q0 -151 88 -276
l965 891q-132 119 -324 119q-141 0 -275 -60.5t-233.5 -160t-160 -235t-60.5 -278.5zM1466 834q0 156 -84 276l-964 -891q134 -121 319 -121q142 0 277.5 62.5t233.5 164.5t158 236.5t60 272.5z" />
    <glyph glyph-name="Ugrave" unicode="&#xd9;" horiz-adv-x="1499" 
d="M991 1528l-219 262l139 31l189 -293h-109zM639 -25q-168 0 -284 76t-161 213t-8 311l172 832h131l-174 -842q-43 -206 54 -337.5t290 -131.5q195 0 347.5 134.5t195.5 344.5l172 832h131l-174 -842q-54 -260 -248 -425t-444 -165z" />
    <glyph glyph-name="Uacute" unicode="&#xda;" horiz-adv-x="1499" 
d="M766 1528l311 293l131 -31l-327 -262h-115zM639 -25q-168 0 -284 76t-161 213t-8 311l172 832h131l-174 -842q-43 -206 54 -337.5t290 -131.5q195 0 347.5 134.5t195.5 344.5l172 832h131l-174 -842q-54 -260 -248 -425t-444 -165z" />
    <glyph glyph-name="Ucircumflex" unicode="&#xdb;" horiz-adv-x="1499" 
d="M684 1528l268 280h125l154 -280h-105l-127 190l-204 -190h-111zM639 -25q-168 0 -284 76t-161 213t-8 311l172 832h131l-174 -842q-43 -206 54 -337.5t290 -131.5q195 0 347.5 134.5t195.5 344.5l172 832h131l-174 -842q-54 -260 -248 -425t-444 -165z" />
    <glyph glyph-name="Udieresis" unicode="&#xdc;" horiz-adv-x="1499" 
d="M780 1581q-33 0 -54 22t-21 54q0 34 28 63t64 29q33 0 54 -22.5t21 -55.5q0 -34 -29 -62t-63 -28zM1174 1581q-33 0 -54.5 22.5t-21.5 53.5q0 34 28 63t64 29q33 0 54.5 -22.5t21.5 -55.5q0 -34 -29 -62t-63 -28zM639 -25q-168 0 -284 76t-161 213t-8 311l172 832h131
l-174 -842q-43 -206 54 -337.5t290 -131.5q195 0 347.5 134.5t195.5 344.5l172 832h131l-174 -842q-54 -260 -248 -425t-444 -165z" />
    <glyph glyph-name="Yacute" unicode="&#xdd;" horiz-adv-x="1347" 
d="M676 1528l311 293l131 -31l-327 -262h-115zM494 0l122 573l-397 834h135l340 -717l635 717h164l-741 -834l-121 -573h-137z" />
    <glyph glyph-name="Thorn" unicode="&#xde;" horiz-adv-x="1316" 
d="M51 0l293 1407h133l-51 -254h438q191 0 310.5 -100.5t119.5 -261.5q0 -147 -84.5 -269t-222.5 -190t-297 -68h-450l-58 -264h-131zM264 391h418q129 0 239 50t176 140t66 201q0 114 -90.5 179t-247.5 65h-428z" />
    <glyph glyph-name="germandbls" unicode="&#xdf;" horiz-adv-x="1150" 
d="M61 0l228 1079q32 159 168.5 264t310.5 105q158 0 254 -85t96 -220q0 -125 -74.5 -233.5t-193.5 -166.5q85 -46 132.5 -122t47.5 -168q0 -120 -67.5 -225t-179.5 -166.5t-238 -61.5h-191l25 121h139q99 0 188.5 49t143 130t53.5 169q0 94 -70.5 151.5t-189.5 57.5h-147
l24 121h117q139 0 242.5 98.5t103.5 226.5q0 89 -61.5 146t-161.5 57q-123 0 -223 -80.5t-125 -197.5l-219 -1049h-132z" />
    <glyph glyph-name="agrave" unicode="&#xe0;" horiz-adv-x="1290" 
d="M891 1180h-109l-219 262l139 31zM1104 1059h127l-221 -1059h-127l43 207q-83 -108 -197.5 -170t-239.5 -62q-163 0 -277 124t-114 302q0 132 51.5 258t135.5 218.5t199 149t235 56.5q117 0 207.5 -67.5t130.5 -179.5zM514 92q131 0 244.5 76t180.5 205.5t67 279.5
q0 135 -89 224.5t-223 89.5q-120 0 -227.5 -77t-172.5 -206.5t-65 -273.5q0 -134 82.5 -226t202.5 -92z" />
    <glyph glyph-name="aacute" unicode="&#xe1;" horiz-adv-x="1290" 
d="M999 1442l-327 -262h-115l311 293zM1104 1059h127l-221 -1059h-127l43 207q-83 -108 -197.5 -170t-239.5 -62q-163 0 -277 124t-114 302q0 132 51.5 258t135.5 218.5t199 149t235 56.5q117 0 207.5 -67.5t130.5 -179.5zM514 92q131 0 244.5 76t180.5 205.5t67 279.5
q0 135 -89 224.5t-223 89.5q-120 0 -227.5 -77t-172.5 -206.5t-65 -273.5q0 -134 82.5 -226t202.5 -92z" />
    <glyph glyph-name="acircumflex" unicode="&#xe2;" horiz-adv-x="1290" 
d="M791 1370l-205 -190h-111l268 280h125l154 -280h-104zM1104 1059h127l-221 -1059h-127l43 207q-83 -108 -197.5 -170t-239.5 -62q-163 0 -277 124t-114 302q0 132 51.5 258t135.5 218.5t199 149t235 56.5q117 0 207.5 -67.5t130.5 -179.5zM514 92q131 0 244.5 76
t180.5 205.5t67 279.5q0 135 -89 224.5t-223 89.5q-120 0 -227.5 -77t-172.5 -206.5t-65 -273.5q0 -134 82.5 -226t202.5 -92z" />
    <glyph glyph-name="atilde" unicode="&#xe3;" horiz-adv-x="1290" 
d="M653 1321q-42 0 -79.5 -39.5t-63.5 -112.5l-86 23q78 231 233 231q42 0 78 -21t57 -46.5t48 -46.5t53 -21q43 0 80 39t65 113l86 -23q-78 -231 -233 -231q-35 0 -64.5 14t-50 34t-39.5 39.5t-40.5 33.5t-43.5 14zM1104 1059h127l-221 -1059h-127l43 207
q-83 -108 -197.5 -170t-239.5 -62q-163 0 -277 124t-114 302q0 132 51.5 258t135.5 218.5t199 149t235 56.5q117 0 207.5 -67.5t130.5 -179.5zM514 92q131 0 244.5 76t180.5 205.5t67 279.5q0 135 -89 224.5t-223 89.5q-120 0 -227.5 -77t-172.5 -206.5t-65 -273.5
q0 -134 82.5 -226t202.5 -92z" />
    <glyph glyph-name="adieresis" unicode="&#xe4;" horiz-adv-x="1290" 
d="M571 1233q-33 0 -54 22t-21 54q0 34 28 63t64 29q33 0 54.5 -22.5t21.5 -55.5q0 -34 -29.5 -62t-63.5 -28zM965 1233q-33 0 -54.5 22.5t-21.5 53.5q0 34 28 63t64 29q33 0 54.5 -22.5t21.5 -55.5q0 -34 -29 -62t-63 -28zM1104 1059h127l-221 -1059h-127l43 207
q-83 -108 -197.5 -170t-239.5 -62q-163 0 -277 124t-114 302q0 132 51.5 258t135.5 218.5t199 149t235 56.5q117 0 207.5 -67.5t130.5 -179.5zM514 92q131 0 244.5 76t180.5 205.5t67 279.5q0 135 -89 224.5t-223 89.5q-120 0 -227.5 -77t-172.5 -206.5t-65 -273.5
q0 -134 82.5 -226t202.5 -92z" />
    <glyph glyph-name="aring" unicode="&#xe5;" horiz-adv-x="1290" 
d="M754 1206q-76 0 -124 48.5t-48 121.5q0 100 80.5 176t179.5 76q76 0 123 -47t47 -119q0 -102 -79.5 -179t-178.5 -77zM825 1544q-59 0 -108 -45.5t-49 -103.5q0 -45 29 -75t73 -30q59 0 107.5 47t48.5 107q0 43 -28.5 71.5t-72.5 28.5zM1104 1059h127l-221 -1059h-127
l43 207q-83 -108 -197.5 -170t-239.5 -62q-163 0 -277 124t-114 302q0 132 51.5 258t135.5 218.5t199 149t235 56.5q117 0 207.5 -67.5t130.5 -179.5zM514 92q131 0 244.5 76t180.5 205.5t67 279.5q0 135 -89 224.5t-223 89.5q-120 0 -227.5 -77t-172.5 -206.5t-65 -273.5
q0 -134 82.5 -226t202.5 -92z" />
    <glyph glyph-name="ae" unicode="&#xe6;" horiz-adv-x="1939" 
d="M1391 479h-400q-2 -16 -2 -49q0 -151 88 -244.5t234 -93.5q104 0 208.5 37.5t170.5 97.5l69 -92q-80 -71 -216 -115.5t-253 -44.5q-138 0 -243.5 71t-151.5 192q-83 -119 -216 -191t-278 -72q-190 0 -283 94.5t-59 254.5q20 100 90.5 178.5t173 121t218.5 42.5
q165 0 350 -68l10 51q10 50 10.5 94t-11.5 86.5t-38.5 73t-74.5 49.5t-115 19q-144 0 -338 -97l-39 109q211 100 391 100q146 0 233 -63.5t109 -175.5q95 110 222.5 174.5t262.5 64.5q158 0 268.5 -81t110.5 -211q0 -141 -134 -226.5t-367 -85.5zM1501 967q-166 0 -298 -107
t-185 -264h397q167 0 258.5 49.5t91.5 138.5q0 82 -73.5 132.5t-190.5 50.5zM426 90q149 0 274 99.5t154 240.5l16 74q-155 51 -315 51q-138 0 -245.5 -70t-129.5 -176q-22 -101 45 -160t201 -59z" />
    <glyph glyph-name="ccedilla" unicode="&#xe7;" horiz-adv-x="1099" 
d="M752 1083q92 0 188 -44.5t154 -114.5l-101 -80q-40 54 -113.5 88.5t-148.5 34.5q-103 0 -197.5 -43.5t-163.5 -116.5t-110 -173t-41 -208q0 -139 95.5 -236.5t230.5 -97.5q80 0 162.5 34.5t154.5 98.5l76 -94q-168 -139 -369 -154l-43 -69h13q56 0 89.5 -31t33.5 -82
q0 -80 -67 -134t-157 -54q-102 0 -170 61l45 72q45 -45 119 -45q61 0 99 26.5t38 69.5q0 26 -16.5 42.5t-44.5 16.5q-43 0 -80 -26l-29 39l72 117q-164 20 -273.5 144.5t-109.5 293.5q0 132 53.5 255t143 213t212.5 143.5t255 53.5z" />
    <glyph glyph-name="egrave" unicode="&#xe8;" horiz-adv-x="1163" 
d="M899 1180h-108l-220 262l140 31zM614 479h-399q-2 -16 -2 -49q0 -151 88 -244.5t234 -93.5q104 0 208 37.5t170 97.5l70 -92q-80 -71 -216 -115.5t-253 -44.5q-188 0 -307 124t-119 319q0 170 91.5 324.5t242 247.5t315.5 93q158 0 268.5 -81t110.5 -211
q0 -141 -134.5 -226.5t-367.5 -85.5zM725 967q-166 0 -298 -107t-185 -264h397q167 0 258.5 49.5t91.5 138.5q0 82 -73.5 132.5t-190.5 50.5z" />
    <glyph glyph-name="eacute" unicode="&#xe9;" horiz-adv-x="1163" 
d="M1008 1442l-328 -262h-115l312 293zM614 479h-399q-2 -16 -2 -49q0 -151 88 -244.5t234 -93.5q104 0 208 37.5t170 97.5l70 -92q-80 -71 -216 -115.5t-253 -44.5q-188 0 -307 124t-119 319q0 170 91.5 324.5t242 247.5t315.5 93q158 0 268.5 -81t110.5 -211
q0 -141 -134.5 -226.5t-367.5 -85.5zM725 967q-166 0 -298 -107t-185 -264h397q167 0 258.5 49.5t91.5 138.5q0 82 -73.5 132.5t-190.5 50.5z" />
    <glyph glyph-name="ecircumflex" unicode="&#xea;" horiz-adv-x="1163" 
d="M799 1370l-205 -190h-111l269 280h125l153 -280h-104zM614 479h-399q-2 -16 -2 -49q0 -151 88 -244.5t234 -93.5q104 0 208 37.5t170 97.5l70 -92q-80 -71 -216 -115.5t-253 -44.5q-188 0 -307 124t-119 319q0 170 91.5 324.5t242 247.5t315.5 93q158 0 268.5 -81
t110.5 -211q0 -141 -134.5 -226.5t-367.5 -85.5zM725 967q-166 0 -298 -107t-185 -264h397q167 0 258.5 49.5t91.5 138.5q0 82 -73.5 132.5t-190.5 50.5z" />
    <glyph glyph-name="edieresis" unicode="&#xeb;" horiz-adv-x="1163" 
d="M580 1233q-33 0 -54.5 22.5t-21.5 53.5q0 34 28 63t64 29q33 0 54.5 -22.5t21.5 -55.5q0 -34 -29 -62t-63 -28zM973 1233q-33 0 -54.5 22.5t-21.5 53.5q0 34 28 63t64 29q33 0 54.5 -22.5t21.5 -55.5q0 -34 -29 -62t-63 -28zM614 479h-399q-2 -16 -2 -49
q0 -151 88 -244.5t234 -93.5q104 0 208 37.5t170 97.5l70 -92q-80 -71 -216 -115.5t-253 -44.5q-188 0 -307 124t-119 319q0 170 91.5 324.5t242 247.5t315.5 93q158 0 268.5 -81t110.5 -211q0 -141 -134.5 -226.5t-367.5 -85.5zM725 967q-166 0 -298 -107t-185 -264h397
q167 0 258.5 49.5t91.5 138.5q0 82 -73.5 132.5t-190.5 50.5z" />
    <glyph glyph-name="igrave" unicode="&#xec;" horiz-adv-x="434" 
d="M293 1180l-219 262l139 31l188 -293h-108zM43 0l221 1059h127l-221 -1059h-127z" />
    <glyph glyph-name="iacute" unicode="&#xed;" horiz-adv-x="434" 
d="M295 1180l311 293l131 -31l-327 -262h-115zM43 0l221 1059h127l-221 -1059h-127z" />
    <glyph glyph-name="icircumflex" unicode="&#xee;" horiz-adv-x="434" 
d="M80 1180l268 280h125l154 -280h-105l-127 190l-205 -190h-110zM43 0l221 1059h127l-221 -1059h-127z" />
    <glyph glyph-name="idieresis" unicode="&#xef;" horiz-adv-x="434" 
d="M176 1233q-33 0 -54.5 22.5t-21.5 53.5q0 34 28.5 63t64.5 29q33 0 54 -22.5t21 -55.5q0 -34 -29 -62t-63 -28zM569 1233q-33 0 -54 22t-21 54q0 34 28 63t64 29q33 0 54.5 -22.5t21.5 -55.5q0 -34 -29.5 -62t-63.5 -28zM43 0l221 1059h127l-221 -1059h-127z" />
    <glyph glyph-name="eth" unicode="&#xf0;" horiz-adv-x="1277" 
d="M926 1249q245 -274 245 -561q0 -137 -48.5 -267t-132 -228.5t-203 -158t-252.5 -59.5q-195 0 -310.5 113.5t-115.5 300.5q0 123 46.5 239t125.5 203t190.5 140t233.5 53q211 0 323 -172q-57 184 -215 352l-278 -114l-27 106l223 90q-79 73 -153 127l129 47
q74 -61 139 -127l223 92l27 -106zM541 92q131 0 244 73.5t178 192.5t65 252q0 134 -79.5 216.5t-221.5 82.5q-100 0 -190.5 -43t-155 -114t-103 -165.5t-38.5 -195.5q0 -136 81 -217.5t220 -81.5z" />
    <glyph glyph-name="ntilde" unicode="&#xf1;" 
d="M639 1321q-42 0 -79.5 -39.5t-63.5 -112.5l-86 23q78 231 233 231q42 0 78 -21t57 -46.5t48 -46.5t53 -21q43 0 80 39t65 113l86 -23q-78 -231 -233 -231q-35 0 -64.5 14t-50 34t-39.5 39.5t-40.5 33.5t-43.5 14zM739 1083q151 0 240.5 -86t89.5 -227q0 -11 -0.5 -21.5
t-2 -22t-4.5 -30.5t-6.5 -38t-10.5 -54t-14.5 -69.5t-19.5 -93t-24.5 -116t-31 -147.5t-37.5 -178h-127q135 640 142 687q5 34 5 61q0 100 -59.5 159.5t-161.5 59.5q-142 0 -259.5 -87t-142.5 -210v4l-141 -674h-127l221 1059h127l-35 -170q62 89 164 141.5t215 52.5z" />
    <glyph glyph-name="ograve" unicode="&#xf2;" horiz-adv-x="1294" 
d="M811 1180l-219 262l139 31l189 -293h-109zM532 -25q-118 0 -220 61.5t-162 165.5t-60 224q0 175 91 326.5t245 241t332 89.5q119 0 222 -61t163.5 -164.5t60.5 -222.5q0 -132 -54 -254t-144.5 -211t-215 -142t-258.5 -53zM553 92q139 0 259 72t190.5 195t70.5 266
q0 138 -100 240t-236 102q-138 0 -257 -72.5t-189 -195.5t-70 -265q0 -139 98.5 -240.5t233.5 -101.5z" />
    <glyph glyph-name="oacute" unicode="&#xf3;" horiz-adv-x="1294" 
d="M586 1180l311 293l131 -31l-328 -262h-114zM532 -25q-118 0 -220 61.5t-162 165.5t-60 224q0 175 91 326.5t245 241t332 89.5q119 0 222 -61t163.5 -164.5t60.5 -222.5q0 -132 -54 -254t-144.5 -211t-215 -142t-258.5 -53zM553 92q139 0 259 72t190.5 195t70.5 266
q0 138 -100 240t-236 102q-138 0 -257 -72.5t-189 -195.5t-70 -265q0 -139 98.5 -240.5t233.5 -101.5z" />
    <glyph glyph-name="ocircumflex" unicode="&#xf4;" horiz-adv-x="1294" 
d="M504 1180l268 280h125l154 -280h-105l-127 190l-205 -190h-110zM532 -25q-118 0 -220 61.5t-162 165.5t-60 224q0 175 91 326.5t245 241t332 89.5q119 0 222 -61t163.5 -164.5t60.5 -222.5q0 -132 -54 -254t-144.5 -211t-215 -142t-258.5 -53zM553 92q139 0 259 72
t190.5 195t70.5 266q0 138 -100 240t-236 102q-138 0 -257 -72.5t-189 -195.5t-70 -265q0 -139 98.5 -240.5t233.5 -101.5z" />
    <glyph glyph-name="otilde" unicode="&#xf5;" horiz-adv-x="1294" 
d="M920 1186q-35 0 -64.5 14t-50 34t-39.5 39.5t-40.5 33.5t-43.5 14q-42 0 -79.5 -39.5t-63.5 -112.5l-86 23q78 231 233 231q42 0 78 -21t57 -46.5t48 -46.5t53 -21q43 0 80 39t65 113l86 -23q-78 -231 -233 -231zM532 -25q-118 0 -220 61.5t-162 165.5t-60 224
q0 175 91 326.5t245 241t332 89.5q119 0 222 -61t163.5 -164.5t60.5 -222.5q0 -132 -54 -254t-144.5 -211t-215 -142t-258.5 -53zM553 92q139 0 259 72t190.5 195t70.5 266q0 138 -100 240t-236 102q-138 0 -257 -72.5t-189 -195.5t-70 -265q0 -139 98.5 -240.5
t233.5 -101.5z" />
    <glyph glyph-name="odieresis" unicode="&#xf6;" horiz-adv-x="1294" 
d="M600 1233q-33 0 -54.5 22.5t-21.5 53.5q0 34 28 63t64 29q33 0 54.5 -22.5t21.5 -55.5q0 -34 -29 -62t-63 -28zM993 1233q-33 0 -54 22t-21 54q0 34 28 63t64 29q33 0 54 -22.5t21 -55.5q0 -34 -29 -62t-63 -28zM532 -25q-118 0 -220 61.5t-162 165.5t-60 224
q0 175 91 326.5t245 241t332 89.5q119 0 222 -61t163.5 -164.5t60.5 -222.5q0 -132 -54 -254t-144.5 -211t-215 -142t-258.5 -53zM553 92q139 0 259 72t190.5 195t70.5 266q0 138 -100 240t-236 102q-138 0 -257 -72.5t-189 -195.5t-70 -265q0 -139 98.5 -240.5
t233.5 -101.5z" />
    <glyph glyph-name="divide" unicode="&#xf7;" horiz-adv-x="1216" 
d="M702 922q-39 0 -62.5 24t-23.5 60q0 43 32 73.5t73 30.5q36 0 60 -24t24 -58q0 -42 -32 -74t-71 -32zM156 621l28 127h940l-28 -127h-940zM565 258q-39 0 -62.5 24t-23.5 60q0 43 32 73.5t73 30.5q36 0 59 -23.5t23 -57.5q0 -41 -31.5 -74t-69.5 -33z" />
    <glyph glyph-name="oslash" unicode="&#xf8;" horiz-adv-x="1294" 
d="M1286 1059l-170 -160q88 -122 88 -264q0 -132 -54 -254t-144.5 -211t-215 -142t-258.5 -53q-156 0 -282 107l-88 -82h-154l170 160q-88 122 -88 266q0 175 91 326.5t245 241t332 89.5q162 0 286 -108l89 84h153zM221 434q0 -99 53 -184l676 637q-96 80 -213 80
q-138 0 -257 -72.5t-189 -195.5t-70 -265zM1073 625q0 97 -53 182l-676 -637q95 -78 209 -78q139 0 259 72t190.5 195t70.5 266z" />
    <glyph glyph-name="ugrave" unicode="&#xf9;" 
d="M877 1180h-109l-219 262l139 31zM1012 1059h127l-221 -1059h-127l34 170q-62 -89 -164 -142t-215 -53q-151 0 -240 86.5t-89 227.5q0 11 0.5 21.5t2 22t4.5 30.5t6.5 38t10.5 54t14.5 69.5t19.5 93t24.5 116t31 147.5t37.5 178h127q-135 -640 -142 -687q-5 -34 -5 -61
q0 -100 59.5 -159.5t161.5 -59.5q142 0 259 87t142 210v-4z" />
    <glyph glyph-name="uacute" unicode="&#xfa;" 
d="M985 1442l-328 -262h-114l311 293zM1012 1059h127l-221 -1059h-127l34 170q-62 -89 -164 -142t-215 -53q-151 0 -240 86.5t-89 227.5q0 11 0.5 21.5t2 22t4.5 30.5t6.5 38t10.5 54t14.5 69.5t19.5 93t24.5 116t31 147.5t37.5 178h127q-135 -640 -142 -687q-5 -34 -5 -61
q0 -100 59.5 -159.5t161.5 -59.5q142 0 259 87t142 210v-4z" />
    <glyph glyph-name="ucircumflex" unicode="&#xfb;" 
d="M776 1370l-205 -190h-110l268 280h125l154 -280h-105zM1012 1059h127l-221 -1059h-127l34 170q-62 -89 -164 -142t-215 -53q-151 0 -240 86.5t-89 227.5q0 11 0.5 21.5t2 22t4.5 30.5t6.5 38t10.5 54t14.5 69.5t19.5 93t24.5 116t31 147.5t37.5 178h127
q-135 -640 -142 -687q-5 -34 -5 -61q0 -100 59.5 -159.5t161.5 -59.5q142 0 259 87t142 210v-4z" />
    <glyph glyph-name="udieresis" unicode="&#xfc;" 
d="M557 1233q-33 0 -54.5 22.5t-21.5 53.5q0 34 28 63t64 29q33 0 54.5 -22.5t21.5 -55.5q0 -34 -29 -62t-63 -28zM950 1233q-33 0 -54.5 22.5t-21.5 53.5q0 34 28.5 63t64.5 29q33 0 54 -22.5t21 -55.5q0 -34 -29 -62t-63 -28zM1012 1059h127l-221 -1059h-127l34 170
q-62 -89 -164 -142t-215 -53q-151 0 -240 86.5t-89 227.5q0 11 0.5 21.5t2 22t4.5 30.5t6.5 38t10.5 54t14.5 69.5t19.5 93t24.5 116t31 147.5t37.5 178h127q-135 -640 -142 -687q-5 -34 -5 -61q0 -100 59.5 -159.5t161.5 -59.5q142 0 259 87t142 210v-4z" />
    <glyph glyph-name="yacute" unicode="&#xfd;" horiz-adv-x="1196" 
d="M535 1180l311 293l131 -31l-328 -262h-114zM117 -369q-94 0 -166 37l47 109q51 -29 121 -29q121 0 198 102l95 134l-240 1075h137l197 -924l565 924h139l-735 -1194q-75 -123 -163 -178.5t-195 -55.5z" />
    <glyph glyph-name="thorn" unicode="&#xfe;" horiz-adv-x="1292" 
d="M803 1083q163 0 277 -123.5t114 -300.5q0 -132 -51 -258t-134.5 -219.5t-197 -150t-233.5 -56.5q-119 0 -210.5 68.5t-131.5 183.5l-121 -579h-127l370 1784h127l-120 -582q85 110 198.5 171.5t239.5 61.5zM592 92q122 0 231 77t174.5 206t65.5 274q0 134 -82.5 226
t-202.5 92q-131 0 -244.5 -77t-180 -207t-66.5 -280q0 -135 87 -223t218 -88z" />
    <glyph glyph-name="ydieresis" unicode="&#xff;" horiz-adv-x="1196" 
d="M549 1233q-33 0 -54.5 22.5t-21.5 53.5q0 34 28 63t64 29q33 0 54.5 -22.5t21.5 -55.5q0 -34 -29 -62t-63 -28zM942 1233q-33 0 -54.5 22.5t-21.5 53.5q0 34 28 63t64 29q33 0 54.5 -22.5t21.5 -55.5q0 -34 -29 -62t-63 -28zM117 -369q-94 0 -166 37l47 109
q51 -29 121 -29q121 0 198 102l95 134l-240 1075h137l197 -924l565 924h139l-735 -1194q-75 -123 -163 -178.5t-195 -55.5z" />
    <glyph glyph-name="Amacron" unicode="&#x100;" horiz-adv-x="1515" 
d="M1313 1671l-19 -100h-635l19 100h635zM1200 0l-78 332h-805l-215 -332h-147l913 1407h146l-2 -2l327 -1405h-139zM399 459h695l-185 786z" />
    <glyph glyph-name="amacron" unicode="&#x101;" horiz-adv-x="1290" 
d="M1094 1323l-19 -100h-635l19 100h635zM1104 1059h127l-221 -1059h-127l43 207q-83 -108 -197.5 -170t-239.5 -62q-163 0 -277 124t-114 302q0 132 51.5 258t135.5 218.5t199 149t235 56.5q117 0 207.5 -67.5t130.5 -179.5zM514 92q131 0 244.5 76t180.5 205.5t67 279.5
q0 135 -89 224.5t-223 89.5q-120 0 -227.5 -77t-172.5 -206.5t-65 -273.5q0 -134 82.5 -226t202.5 -92z" />
    <glyph glyph-name="Abreve" unicode="&#x102;" horiz-adv-x="1515" 
d="M981 1554q-174 0 -279 127l93 74q33 -42 84 -64t108 -22q61 0 125 25.5t117 68.5l71 -90q-142 -119 -319 -119zM1200 0l-78 332h-805l-215 -332h-147l913 1407h146l-2 -2l327 -1405h-139zM399 459h695l-185 786z" />
    <glyph glyph-name="abreve" unicode="&#x103;" horiz-adv-x="1290" 
d="M762 1206q-174 0 -279 127l92 74q33 -42 84.5 -64t108.5 -22q61 0 125 25.5t117 68.5l71 -90q-142 -119 -319 -119zM1104 1059h127l-221 -1059h-127l43 207q-83 -108 -197.5 -170t-239.5 -62q-163 0 -277 124t-114 302q0 132 51.5 258t135.5 218.5t199 149t235 56.5
q117 0 207.5 -67.5t130.5 -179.5zM514 92q131 0 244.5 76t180.5 205.5t67 279.5q0 135 -89 224.5t-223 89.5q-120 0 -227.5 -77t-172.5 -206.5t-65 -273.5q0 -134 82.5 -226t202.5 -92z" />
    <glyph glyph-name="Aogonek" unicode="&#x104;" horiz-adv-x="1515" 
d="M1397 -205l45 -94q-79 -55 -176 -55q-85 0 -136 45.5t-51 124.5q0 65 31.5 119t85.5 85l-74 312h-805l-215 -332h-147l913 1407h146l-2 -2l327 -1403l4 -2q-71 0 -116 -46.5t-45 -119.5q0 -38 26 -61t70 -23q71 0 119 45zM399 459h695l-185 786z" />
    <glyph glyph-name="aogonek" unicode="&#x105;" horiz-adv-x="1290" 
d="M948 -250q71 0 119 45l45 -94q-79 -55 -176 -55q-85 0 -135.5 45.5t-50.5 124.5q0 71 39 130.5t100 86.5l37 174q-83 -108 -197.5 -170t-239.5 -62q-163 0 -277 124t-114 302q0 132 51.5 258t135.5 218.5t199 149t235 56.5q117 0 207.5 -67.5t130.5 -179.5l47 223h127
l-221 -1057l4 -2q-71 0 -116.5 -46.5t-45.5 -119.5q0 -38 26 -61t70 -23zM514 92q131 0 244.5 76t180.5 205.5t67 279.5q0 135 -89 224.5t-223 89.5q-120 0 -227.5 -77t-172.5 -206.5t-65 -273.5q0 -134 82.5 -226t202.5 -92z" />
    <glyph glyph-name="Cacute" unicode="&#x106;" horiz-adv-x="1398" 
d="M817 1528l311 293l132 -31l-328 -262h-115zM719 -25q-155 0 -289.5 79.5t-215.5 219t-81 304.5q0 167 72 324.5t191.5 273.5t282 186t335.5 70q132 0 259 -61t204 -159l-103 -84q-62 80 -165 130.5t-216 50.5q-192 0 -360.5 -101t-268.5 -269.5t-100 -358.5
q0 -131 65.5 -242.5t175 -175.5t234.5 -64q105 0 231 52.5t222 134.5l76 -99q-112 -92 -265 -151.5t-284 -59.5z" />
    <glyph glyph-name="cacute" unicode="&#x107;" horiz-adv-x="1099" 
d="M561 1180l311 293l132 -31l-328 -262h-115zM526 -25q-183 0 -310.5 129t-127.5 314q0 132 53.5 255t143 213t212.5 143.5t255 53.5q92 0 188 -44.5t154 -114.5l-101 -80q-40 54 -113.5 88.5t-148.5 34.5q-103 0 -197.5 -43.5t-163.5 -116.5t-110 -173t-41 -208
q0 -139 95.5 -236.5t230.5 -97.5q80 0 162.5 34.5t154.5 98.5l76 -94q-189 -156 -412 -156z" />
    <glyph glyph-name="Ccaron" unicode="&#x10c;" horiz-adv-x="1398" 
d="M946 1528l-149 280h104l123 -190l207 190h112l-270 -280h-127zM719 -25q-155 0 -289.5 79.5t-215.5 219t-81 304.5q0 167 72 324.5t191.5 273.5t282 186t335.5 70q132 0 259 -61t204 -159l-103 -84q-62 80 -165 130.5t-216 50.5q-192 0 -360.5 -101t-268.5 -269.5
t-100 -358.5q0 -131 65.5 -242.5t175 -175.5t234.5 -64q105 0 231 52.5t222 134.5l76 -99q-112 -92 -265 -151.5t-284 -59.5z" />
    <glyph glyph-name="ccaron" unicode="&#x10d;" horiz-adv-x="1099" 
d="M690 1180l-149 280h104l123 -190l207 190h112l-270 -280h-127zM526 -25q-183 0 -310.5 129t-127.5 314q0 132 53.5 255t143 213t212.5 143.5t255 53.5q92 0 188 -44.5t154 -114.5l-101 -80q-40 54 -113.5 88.5t-148.5 34.5q-103 0 -197.5 -43.5t-163.5 -116.5t-110 -173
t-41 -208q0 -139 95.5 -236.5t230.5 -97.5q80 0 162.5 34.5t154.5 98.5l76 -94q-189 -156 -412 -156z" />
    <glyph glyph-name="Dcaron" unicode="&#x10e;" horiz-adv-x="1550" 
d="M811 1528l-149 280h104l123 -190l207 190h112l-270 -280h-127zM82 0l293 1407h473q274 0 448 -155.5t174 -399.5q0 -136 -46.5 -265.5t-131.5 -234.5t-196.5 -185t-249 -123.5t-281.5 -43.5h-483zM240 121h340q151 0 291.5 58.5t242 156t162.5 230.5t61 276
q0 195 -141.5 319.5t-364.5 124.5h-350z" />
    <glyph glyph-name="dcaron" unicode="&#x10f;" horiz-adv-x="1290" 
d="M1057 838l123 594h127l-297 -1432h-127l43 205q-86 -107 -199.5 -168.5t-237.5 -61.5q-163 0 -277 124t-114 302q0 132 51.5 258t135.5 218.5t199 149t235 56.5q117 0 207.5 -66.5t130.5 -178.5zM1536 1432q37 0 57.5 -25.5t20.5 -67.5q0 -66 -42.5 -129.5t-137.5 -160.5
l-58 51q94 88 137 172q-30 -4 -49.5 15.5t-19.5 51.5q0 36 27.5 64.5t64.5 28.5zM514 92q164 0 297 117.5t176 294.5l10 49q9 49 9 100q0 135 -89 224.5t-223 89.5q-120 0 -227.5 -77t-172.5 -206.5t-65 -273.5q0 -134 82.5 -226t202.5 -92z" />
    <glyph glyph-name="Dcroat" unicode="&#x110;" horiz-adv-x="1593" 
d="M891 1407q274 0 448 -155.5t174 -399.5q0 -136 -46.5 -265.5t-131.5 -234.5t-196.5 -185t-249 -123.5t-281.5 -43.5h-483l135 653h-147l26 127h148l131 627h473zM623 121q151 0 291.5 58.5t242 156t162.5 230.5t61 276q0 195 -141.5 319.5t-364.5 124.5h-350l-104 -506
h434l-29 -127h-432l-110 -532h340z" />
    <glyph glyph-name="dcroat" unicode="&#x111;" horiz-adv-x="1325" 
d="M1407 1296l-18 -94h-129l-250 -1202h-127l43 205q-86 -107 -199.5 -168.5t-237.5 -61.5q-163 0 -277 124t-114 302q0 132 51.5 258t135.5 218.5t199 149t235 56.5q117 0 207.5 -66.5t130.5 -178.5l76 364h-367l20 94h365l29 136h127l-29 -136h129zM514 92
q164 0 297 117.5t176 294.5l10 49q9 49 9 100q0 135 -89 224.5t-223 89.5q-120 0 -227.5 -77t-172.5 -206.5t-65 -273.5q0 -134 82.5 -226t202.5 -92z" />
    <glyph glyph-name="Emacron" unicode="&#x112;" horiz-adv-x="1271" 
d="M1206 1671l-18 -100h-635l18 100h635zM1300 1282h-849l-103 -502h770l-24 -127h-775l-108 -528h848l-27 -125h-981l293 1407h981z" />
    <glyph glyph-name="emacron" unicode="&#x113;" horiz-adv-x="1163" 
d="M1102 1323l-19 -100h-634l18 100h635zM614 479h-399q-2 -16 -2 -49q0 -151 88 -244.5t234 -93.5q104 0 208 37.5t170 97.5l70 -92q-80 -71 -216 -115.5t-253 -44.5q-188 0 -307 124t-119 319q0 170 91.5 324.5t242 247.5t315.5 93q158 0 268.5 -81t110.5 -211
q0 -141 -134.5 -226.5t-367.5 -85.5zM725 967q-166 0 -298 -107t-185 -264h397q167 0 258.5 49.5t91.5 138.5q0 82 -73.5 132.5t-190.5 50.5z" />
    <glyph glyph-name="Edotaccent" unicode="&#x116;" horiz-adv-x="1271" 
d="M881 1581q-34 0 -55 22t-21 54q0 35 27 63.5t63 28.5q33 0 54.5 -22.5t21.5 -55.5q0 -34 -28 -62t-62 -28zM1300 1282h-849l-103 -502h770l-24 -127h-775l-108 -528h848l-27 -125h-981l293 1407h981z" />
    <glyph glyph-name="edotaccent" unicode="&#x117;" horiz-adv-x="1163" 
d="M776 1233q-34 0 -55 22t-21 54q0 35 27.5 63.5t63.5 28.5q33 0 54 -22.5t21 -55.5q0 -34 -28 -62t-62 -28zM614 479h-399q-2 -16 -2 -49q0 -151 88 -244.5t234 -93.5q104 0 208 37.5t170 97.5l70 -92q-80 -71 -216 -115.5t-253 -44.5q-188 0 -307 124t-119 319
q0 170 91.5 324.5t242 247.5t315.5 93q158 0 268.5 -81t110.5 -211q0 -141 -134.5 -226.5t-367.5 -85.5zM725 967q-166 0 -298 -107t-185 -264h397q167 0 258.5 49.5t91.5 138.5q0 82 -73.5 132.5t-190.5 50.5z" />
    <glyph glyph-name="Eogonek" unicode="&#x118;" horiz-adv-x="1271" 
d="M1300 1282h-849l-103 -502h770l-24 -127h-775l-108 -528h848l-27 -125h-411q-71 0 -116.5 -46.5t-45.5 -119.5q0 -38 26 -61t70 -23q71 0 119 45l45 -94q-79 -55 -176 -55q-85 0 -136 45.5t-51 124.5q0 111 86 184h-391l293 1407h981z" />
    <glyph glyph-name="eogonek" unicode="&#x119;" horiz-adv-x="1163" 
d="M614 479h-399q-2 -16 -2 -49q0 -151 88 -244.5t234 -93.5q104 0 208 37.5t170 97.5l70 -92q-80 -71 -213.5 -114.5t-251.5 -45.5q-71 0 -116.5 -46t-45.5 -119q0 -38 26.5 -61t70.5 -23q70 0 118 45l45 -95q-79 -55 -176 -55q-85 0 -135.5 45.5t-50.5 124.5
q0 65 32.5 120.5t86.5 86.5q-130 42 -207.5 154t-77.5 266q0 170 91.5 324.5t242 247.5t315.5 93q158 0 268.5 -81t110.5 -211q0 -141 -134.5 -226.5t-367.5 -85.5zM725 967q-166 0 -298 -107t-185 -264h397q167 0 258.5 49.5t91.5 138.5q0 82 -73.5 132.5t-190.5 50.5z" />
    <glyph glyph-name="Ecaron" unicode="&#x11a;" horiz-adv-x="1271" 
d="M926 1528h-127l-150 280h105l123 -190l206 190h113zM1300 1282h-849l-103 -502h770l-24 -127h-775l-108 -528h848l-27 -125h-981l293 1407h981z" />
    <glyph glyph-name="ecaron" unicode="&#x11b;" horiz-adv-x="1163" 
d="M821 1180h-127l-149 280h104l123 -190l207 190h113zM614 479h-399q-2 -16 -2 -49q0 -151 88 -244.5t234 -93.5q104 0 208 37.5t170 97.5l70 -92q-80 -71 -216 -115.5t-253 -44.5q-188 0 -307 124t-119 319q0 170 91.5 324.5t242 247.5t315.5 93q158 0 268.5 -81
t110.5 -211q0 -141 -134.5 -226.5t-367.5 -85.5zM725 967q-166 0 -298 -107t-185 -264h397q167 0 258.5 49.5t91.5 138.5q0 82 -73.5 132.5t-190.5 50.5z" />
    <glyph glyph-name="Gbreve" unicode="&#x11e;" horiz-adv-x="1515" 
d="M1044 1554q-173 0 -278 127l92 74q33 -42 84.5 -64t108.5 -22q126 0 241 94l72 -90q-142 -119 -320 -119zM815 598l27 125h563l-113 -537q-118 -94 -274.5 -152.5t-296.5 -58.5q-162 0 -298 79.5t-214 216t-78 298.5q0 169 73.5 328t194 276t284.5 188t337 71
q138 0 269 -60t214 -158l-104 -84q-64 80 -173.5 129.5t-228.5 49.5q-142 0 -277.5 -61t-235.5 -161t-161 -235.5t-61 -278.5q0 -197 139.5 -336t339.5 -139q104 0 220 41.5t213 110.5l71 348h-430z" />
    <glyph glyph-name="gbreve" unicode="&#x11f;" horiz-adv-x="1255" 
d="M754 1206q-174 0 -279 127l92 74q33 -42 84.5 -64t108.5 -22q126 0 241 94l72 -90q-142 -119 -319 -119zM1067 1059h127l-197 -950q-44 -208 -210.5 -334.5t-385.5 -126.5q-124 0 -232.5 40.5t-170.5 104.5l72 94q52 -58 139 -90.5t190 -32.5q179 0 309 97t164 256
l37 180q-84 -105 -198.5 -162t-239.5 -57q-180 0 -288.5 109.5t-108.5 289.5q0 155 79 294.5t216 225.5t295 86q135 0 229 -63t131 -172zM502 195q163 0 294.5 110t170.5 266l6 33q6 34 6 70q0 134 -80.5 213.5t-216.5 79.5q-125 0 -235.5 -68t-175 -178.5t-64.5 -231.5
q0 -133 79 -213.5t216 -80.5z" />
    <glyph glyph-name="Gcommaaccent" unicode="&#x122;" horiz-adv-x="1515" 
d="M815 598l27 125h563l-113 -537q-118 -94 -274.5 -152.5t-296.5 -58.5q-162 0 -298 79.5t-214 216t-78 298.5q0 169 73.5 328t194 276t284.5 188t337 71q138 0 269 -60t214 -158l-104 -84q-64 80 -173.5 129.5t-228.5 49.5q-142 0 -277.5 -61t-235.5 -161t-161 -235.5
t-61 -278.5q0 -197 139.5 -336t339.5 -139q104 0 220 41.5t213 110.5l71 348h-430zM674 -178q37 0 57.5 -25t20.5 -67q0 -66 -43 -130t-138 -161l-57 51q94 88 137 172q-30 -4 -49.5 16t-19.5 52q0 36 27 64t65 28z" />
    <glyph glyph-name="gcommaaccent" unicode="&#x123;" horiz-adv-x="1228" 
d="M797 1235q-37 0 -57.5 25t-20.5 67q0 66 43 130.5t137 160.5l57 -51q-94 -88 -137 -172q30 4 50 -16t20 -52q0 -36 -27 -64t-65 -28zM1067 1059h127l-197 -950q-44 -208 -210.5 -334.5t-385.5 -126.5q-124 0 -232.5 40.5t-170.5 104.5l72 94q52 -58 139 -90.5t190 -32.5
q179 0 309 97t164 256l37 180q-84 -105 -198.5 -162t-239.5 -57q-180 0 -288.5 109.5t-108.5 289.5q0 155 79 294.5t216 225.5t295 86q135 0 229 -63t131 -172zM502 195q163 0 294.5 110t170.5 266l6 33q6 34 6 70q0 134 -80.5 213.5t-216.5 79.5q-125 0 -235.5 -68
t-175 -178.5t-64.5 -231.5q0 -133 79 -213.5t216 -80.5z" />
    <glyph glyph-name="Imacron" unicode="&#x12a;" horiz-adv-x="454" 
d="M127 1571l18 100h635l-18 -100h-635zM51 0l293 1407h131l-293 -1407h-131z" />
    <glyph glyph-name="imacron" unicode="&#x12b;" horiz-adv-x="434" 
d="M45 1223l18 100h635l-18 -100h-635zM43 0l221 1059h127l-221 -1059h-127z" />
    <glyph glyph-name="Iogonek" unicode="&#x12e;" horiz-adv-x="454" 
d="M121 -250q71 0 119 45l45 -94q-79 -55 -176 -55q-85 0 -136 45.5t-51 124.5q0 70 37.5 128.5t97.5 86.5l287 1376h131l-293 -1405l4 -2q-71 0 -116 -46.5t-45 -119.5q0 -38 26 -61t70 -23z" />
    <glyph glyph-name="iogonek" unicode="&#x12f;" horiz-adv-x="434" 
d="M387 1401q33 0 54.5 -22.5t21.5 -55.5q0 -34 -28 -62t-62 -28t-55 22t-21 54q0 35 27 63.5t63 28.5zM111 0q-71 0 -116.5 -46.5t-45.5 -119.5q0 -38 26 -61t70 -23q71 0 119 45l45 -94q-79 -55 -176 -55q-85 0 -136 45.5t-51 124.5q0 78 47 141t117 84l39 -16l215 1034
h127l-221 -1059h-59z" />
    <glyph glyph-name="Idotaccent" unicode="&#x130;" horiz-adv-x="454" 
d="M455 1581q-34 0 -55 22t-21 54q0 35 27 63.5t63 28.5q33 0 54.5 -22.5t21.5 -55.5q0 -34 -28 -62t-62 -28zM51 0l293 1407h131l-293 -1407h-131z" />
    <glyph glyph-name="dotlessi" unicode="&#x131;" horiz-adv-x="434" 
d="M43 0l221 1059h127l-221 -1059h-127z" />
    <glyph glyph-name="Kcommaaccent" unicode="&#x136;" horiz-adv-x="1316" 
d="M78 0l293 1407h131l-170 -813l913 813h176l-723 -641l467 -766h-164l-409 676l-293 -254l-90 -422h-131zM440 -561l-57 51q94 88 137 172q-30 -4 -49.5 16t-19.5 52q0 36 27 64t65 28q37 0 57.5 -25t20.5 -67q0 -66 -43 -130t-138 -161z" />
    <glyph glyph-name="kcommaaccent" unicode="&#x137;" horiz-adv-x="1087" 
d="M1169 1059l-579 -486l328 -573h-154l-279 487l-256 -213l-57 -274h-127l297 1432h127l-205 -992l735 619h170zM420 -178q37 0 57.5 -25t20.5 -67q0 -66 -43 -130t-138 -161l-57 51q94 88 137 172q-30 -4 -49.5 16t-19.5 52q0 36 27 64t65 28z" />
    <glyph glyph-name="Lacute" unicode="&#x139;" horiz-adv-x="1122" 
d="M799 1790l-328 -262h-115l312 293zM188 125h781l-27 -125h-913l293 1407h131z" />
    <glyph glyph-name="lacute" unicode="&#x13a;" horiz-adv-x="438" 
d="M346 1552l311 293l131 -30l-327 -263h-115zM47 0l297 1432h127l-297 -1432h-127z" />
    <glyph glyph-name="Lcaron" unicode="&#x13d;" horiz-adv-x="1122" 
d="M764 1339q0 -66 -42.5 -129.5t-137.5 -160.5l-58 51q96 90 138 172q-30 -4 -50 16t-20 51q0 36 27.5 64.5t64.5 28.5t57.5 -25.5t20.5 -67.5zM188 125h781l-27 -125h-913l293 1407h131z" />
    <glyph glyph-name="lcaron" unicode="&#x13e;" horiz-adv-x="438" 
d="M47 0l297 1432h127l-297 -1432h-127zM596 1049l-57 51q94 88 137 172q-30 -4 -50 16t-20 51q0 36 27.5 64.5t64.5 28.5t57.5 -25.5t20.5 -67.5q0 -66 -42.5 -129.5t-137.5 -160.5z" />
    <glyph glyph-name="Lslash" unicode="&#x141;" horiz-adv-x="1243" 
d="M307 125h780l-26 -125h-914l121 584l-196 -92l24 131l201 92l143 692h131l-129 -623l332 154l-24 -131l-334 -156z" />
    <glyph glyph-name="lslash" unicode="&#x142;" horiz-adv-x="606" 
d="M594 852l-25 -131l-176 -82l-133 -639h-127l119 573l-180 -84l24 132l183 86l151 725h127l-137 -660z" />
    <glyph glyph-name="Nacute" unicode="&#x143;" horiz-adv-x="1548" 
d="M788 1528l312 293l131 -31l-328 -262h-115zM82 0l293 1407h129l653 -1194l250 1194h131l-293 -1407h-127l-653 1194l-252 -1194h-131z" />
    <glyph glyph-name="nacute" unicode="&#x144;" 
d="M985 1442l-328 -262h-114l311 293zM739 1083q151 0 240.5 -86t89.5 -227q0 -11 -0.5 -21.5t-2 -22t-4.5 -30.5t-6.5 -38t-10.5 -54t-14.5 -69.5t-19.5 -93t-24.5 -116t-31 -147.5t-37.5 -178h-127q135 640 142 687q5 34 5 61q0 100 -59.5 159.5t-161.5 59.5
q-142 0 -259.5 -87t-142.5 -210v4l-141 -674h-127l221 1059h127l-35 -170q62 89 164 141.5t215 52.5z" />
    <glyph glyph-name="Ncommaaccent" unicode="&#x145;" horiz-adv-x="1548" 
d="M82 0l293 1407h129l653 -1194l250 1194h131l-293 -1407h-127l-653 1194l-252 -1194h-131zM516 -561l-57 51q94 88 137 172q-30 -4 -50 16t-20 52q0 36 27 64t65 28q37 0 57.5 -25t20.5 -67q0 -66 -43 -130.5t-137 -160.5z" />
    <glyph glyph-name="ncommaaccent" unicode="&#x146;" 
d="M739 1083q151 0 240.5 -86t89.5 -227q0 -11 -0.5 -21.5t-2 -22t-4.5 -30.5t-6.5 -38t-10.5 -54t-14.5 -69.5t-19.5 -93t-24.5 -116t-31 -147.5t-37.5 -178h-127q135 640 142 687q5 34 5 61q0 100 -59.5 159.5t-161.5 59.5q-142 0 -259.5 -87t-142.5 -210v4l-141 -674
h-127l221 1059h127l-35 -170q62 89 164 141.5t215 52.5zM442 -178q37 0 57.5 -25t20.5 -67q0 -66 -43 -130.5t-137 -160.5l-57 51q94 88 137 172q-30 -4 -50 16t-20 52q0 36 27 64t65 28z" />
    <glyph glyph-name="Ncaron" unicode="&#x147;" horiz-adv-x="1548" 
d="M918 1528l-150 280h104l123 -190l207 190h113l-271 -280h-126zM82 0l293 1407h129l653 -1194l250 1194h131l-293 -1407h-127l-653 1194l-252 -1194h-131z" />
    <glyph glyph-name="ncaron" unicode="&#x148;" 
d="M799 1180h-127l-150 280h105l123 -190l206 190h113zM739 1083q151 0 240.5 -86t89.5 -227q0 -11 -0.5 -21.5t-2 -22t-4.5 -30.5t-6.5 -38t-10.5 -54t-14.5 -69.5t-19.5 -93t-24.5 -116t-31 -147.5t-37.5 -178h-127q135 640 142 687q5 34 5 61q0 100 -59.5 159.5
t-161.5 59.5q-142 0 -259.5 -87t-142.5 -210v4l-141 -674h-127l221 1059h127l-35 -170q62 89 164 141.5t215 52.5z" />
    <glyph glyph-name="Omacron" unicode="&#x14c;" horiz-adv-x="1652" 
d="M725 1571l18 100h635l-18 -100h-635zM715 -25q-160 0 -295 79t-213 214t-78 295q0 169 73 329.5t193 278.5t283.5 189.5t335.5 71.5q125 0 233.5 -46t184.5 -124.5t119.5 -188t43.5 -233.5q0 -169 -72.5 -328.5t-192 -277t-281.5 -188.5t-334 -71zM737 98
q142 0 277.5 62.5t233.5 164.5t158 236.5t60 272.5q0 203 -134 339t-341 136q-141 0 -275 -60.5t-233.5 -160t-160 -235t-60.5 -278.5q0 -130 63 -239.5t172 -173.5t240 -64z" />
    <glyph glyph-name="omacron" unicode="&#x14d;" horiz-adv-x="1294" 
d="M469 1223l18 100h635l-18 -100h-635zM532 -25q-118 0 -220 61.5t-162 165.5t-60 224q0 175 91 326.5t245 241t332 89.5q119 0 222 -61t163.5 -164.5t60.5 -222.5q0 -132 -54 -254t-144.5 -211t-215 -142t-258.5 -53zM553 92q139 0 259 72t190.5 195t70.5 266
q0 138 -100 240t-236 102q-138 0 -257 -72.5t-189 -195.5t-70 -265q0 -139 98.5 -240.5t233.5 -101.5z" />
    <glyph glyph-name="Ohungarumlaut" unicode="&#x150;" horiz-adv-x="1652" 
d="M846 1528l311 293l133 -31l-329 -262h-115zM1233 1528l311 291l131 -31l-327 -260h-115zM715 -25q-160 0 -295 79t-213 214t-78 295q0 169 73 329.5t193 278.5t283.5 189.5t335.5 71.5q125 0 233.5 -46t184.5 -124.5t119.5 -188t43.5 -233.5q0 -169 -72.5 -328.5
t-192 -277t-281.5 -188.5t-334 -71zM737 98q142 0 277.5 62.5t233.5 164.5t158 236.5t60 272.5q0 203 -134 339t-341 136q-141 0 -275 -60.5t-233.5 -160t-160 -235t-60.5 -278.5q0 -130 63 -239.5t172 -173.5t240 -64z" />
    <glyph glyph-name="ohungarumlaut" unicode="&#x151;" horiz-adv-x="1294" 
d="M524 1180l312 293l133 -31l-330 -262h-115zM911 1180l312 290l131 -30l-328 -260h-115zM532 -25q-118 0 -220 61.5t-162 165.5t-60 224q0 175 91 326.5t245 241t332 89.5q119 0 222 -61t163.5 -164.5t60.5 -222.5q0 -132 -54 -254t-144.5 -211t-215 -142t-258.5 -53z
M553 92q139 0 259 72t190.5 195t70.5 266q0 138 -100 240t-236 102q-138 0 -257 -72.5t-189 -195.5t-70 -265q0 -139 98.5 -240.5t233.5 -101.5z" />
    <glyph glyph-name="OE" unicode="&#x152;" horiz-adv-x="2088" 
d="M2134 1282h-850l-102 -502h770l-25 -127h-774l-109 -528h848l-26 -125h-1143q-169 0 -305 71t-213.5 199t-77.5 289q0 162 76 318.5t198 272t282.5 186.5t322.5 71h1153zM739 123h170l244 1161h-164q-181 0 -351 -103t-275 -271t-105 -347q0 -194 135 -317t346 -123z" />
    <glyph glyph-name="oe" unicode="&#x153;" horiz-adv-x="2134" 
d="M1585 479h-399q-2 -16 -2 -49q0 -152 87.5 -245t233.5 -93q104 0 208.5 37.5t170.5 97.5l70 -92q-80 -71 -216 -115.5t-253 -44.5q-146 0 -253 77.5t-149 209.5q-94 -132 -239.5 -209.5t-311.5 -77.5q-118 0 -220 61.5t-162 165.5t-60 224q0 175 91 326.5t245 241
t332 89.5q141 0 256.5 -84t163.5 -215q93 135 234.5 217t295.5 82q158 0 268.5 -81t110.5 -211q0 -141 -134.5 -226.5t-367.5 -85.5zM553 92q139 0 259 72t190.5 195t70.5 266q0 138 -100 240t-236 102q-138 0 -257 -72.5t-189 -195.5t-70 -265q0 -139 98.5 -240.5
t233.5 -101.5zM1696 967q-166 0 -298.5 -107t-185.5 -264h398q167 0 258.5 49.5t91.5 138.5q0 82 -73.5 132.5t-190.5 50.5z" />
    <glyph glyph-name="Racute" unicode="&#x154;" horiz-adv-x="1316" 
d="M1114 1790l-328 -262h-114l311 293zM1346 1036q0 -191 -151 -336.5t-370 -173.5l318 -526h-148l-315 520h-389l-109 -520h-131l293 1407h571q191 0 311 -103.5t120 -267.5zM754 645q188 0 324 114t136 273q0 111 -90 180.5t-237 69.5h-436l-134 -637h437z" />
    <glyph glyph-name="racute" unicode="&#x155;" horiz-adv-x="768" 
d="M829 1442l-327 -262h-115l311 293zM365 850q66 109 186.5 171t265.5 62l-14 -116q-180 0 -319.5 -107t-174.5 -272l-123 -588h-127l222 1059h127z" />
    <glyph glyph-name="Rcommaaccent" unicode="&#x156;" horiz-adv-x="1316" 
d="M1346 1036q0 -191 -151 -336.5t-370 -173.5l318 -526h-148l-315 520h-389l-109 -520h-131l293 1407h571q191 0 311 -103.5t120 -267.5zM754 645q188 0 324 114t136 273q0 111 -90 180.5t-237 69.5h-436l-134 -637h437zM475 -178q37 0 57.5 -25t20.5 -67q0 -66 -43 -130.5
t-137 -160.5l-58 51q96 90 138 172q-30 -4 -50 16t-20 52q0 36 27 64t65 28z" />
    <glyph glyph-name="rcommaaccent" unicode="&#x157;" horiz-adv-x="768" 
d="M365 850q66 109 186.5 171t265.5 62l-14 -116q-180 0 -319.5 -107t-174.5 -272l-123 -588h-127l222 1059h127zM141 -178q37 0 57.5 -25t20.5 -67q0 -66 -43 -130.5t-137 -160.5l-57 51q94 88 137 172q-30 -4 -50 16t-20 52q0 36 27 64t65 28z" />
    <glyph glyph-name="Rcaron" unicode="&#x158;" horiz-adv-x="1316" 
d="M928 1528h-127l-150 280h105l123 -190l206 190h113zM1346 1036q0 -191 -151 -336.5t-370 -173.5l318 -526h-148l-315 520h-389l-109 -520h-131l293 1407h571q191 0 311 -103.5t120 -267.5zM754 645q188 0 324 114t136 273q0 111 -90 180.5t-237 69.5h-436l-134 -637h437z
" />
    <glyph glyph-name="rcaron" unicode="&#x159;" horiz-adv-x="768" 
d="M643 1180h-127l-149 280h104l123 -190l207 190h112zM365 850q66 109 186.5 171t265.5 62l-14 -116q-180 0 -319.5 -107t-174.5 -272l-123 -588h-127l222 1059h127z" />
    <glyph glyph-name="Sacute" unicode="&#x15a;" horiz-adv-x="1249" 
d="M623 1528l311 293l131 -31l-328 -262h-114zM541 -23q-146 0 -287 62t-227 166l96 94q71 -91 190 -146t238 -55q182 0 304 92.5t122 229.5q0 85 -78 135t-254 96q-214 54 -305.5 124t-91.5 192q0 131 71 238t196 168t278 61q124 0 247 -56t207 -149l-96 -94
q-65 79 -167 128.5t-204 49.5q-170 0 -284.5 -90.5t-114.5 -225.5q0 -79 78.5 -127.5t257.5 -95.5q212 -53 303.5 -128t91.5 -202q0 -131 -74 -238t-204.5 -168t-292.5 -61z" />
    <glyph glyph-name="sacute" unicode="&#x15b;" horiz-adv-x="1007" 
d="M465 1180l311 293l131 -31l-327 -262h-115zM422 -25q-114 0 -223.5 43t-188.5 119l82 86q71 -62 160.5 -96.5t175.5 -34.5q120 0 212.5 63.5t92.5 153.5q0 54 -54 95t-177 81q-161 50 -232 108.5t-71 143.5q0 151 122 248.5t297 97.5q94 0 189.5 -32t171.5 -90l-78 -91
q-63 46 -140 71.5t-149 25.5q-120 0 -203 -58.5t-83 -144.5q0 -45 56.5 -86t184.5 -86q157 -50 226 -110.5t69 -149.5q0 -98 -62.5 -181t-163.5 -129.5t-214 -46.5z" />
    <glyph glyph-name="Scedilla" unicode="&#x15e;" horiz-adv-x="1249" 
d="M793 1434q124 0 247 -56t207 -149l-96 -94q-65 79 -167 128.5t-204 49.5q-170 0 -284.5 -90.5t-114.5 -225.5q0 -79 78.5 -127.5t257.5 -95.5q212 -53 303.5 -128t91.5 -202q0 -192 -151 -323.5t-383 -143.5l-43 -69h12q56 0 89.5 -31t33.5 -82q0 -80 -67 -134t-157 -54
q-102 0 -170 61l46 72q45 -45 118 -45q61 0 99.5 26.5t38.5 69.5q0 26 -17 42.5t-45 16.5q-43 0 -80 -26l-28 39l71 117q-132 12 -254 72t-198 153l96 94q71 -91 190 -146t238 -55q182 0 304 92.5t122 229.5q0 85 -78 135t-254 96q-214 54 -305.5 124t-91.5 192
q0 131 71 238t196 168t278 61z" />
    <glyph glyph-name="scedilla" unicode="&#x15f;" horiz-adv-x="1007" 
d="M612 967q-120 0 -203 -58.5t-83 -144.5q0 -45 56.5 -86t184.5 -86q157 -50 226 -110.5t69 -149.5q0 -140 -120 -242t-283 -113l-43 -69h12q56 0 89.5 -31t33.5 -82q0 -80 -66.5 -134t-156.5 -54q-102 0 -170 61l45 72q45 -45 119 -45q61 0 99 26.5t38 69.5q0 26 -17 42.5
t-45 16.5q-43 0 -80 -26l-28 39l71 117q-98 9 -189.5 50t-160.5 107l82 86q71 -62 160.5 -96.5t175.5 -34.5q120 0 212.5 63.5t92.5 153.5q0 54 -54 95t-177 81q-161 50 -232 108.5t-71 143.5q0 151 122 248.5t297 97.5q94 0 189.5 -32t171.5 -90l-78 -91q-63 46 -140 71.5
t-149 25.5z" />
    <glyph glyph-name="Scaron" unicode="&#x160;" horiz-adv-x="1249" 
d="M752 1528l-150 280h105l122 -190l207 190h113l-270 -280h-127zM541 -23q-146 0 -287 62t-227 166l96 94q71 -91 190 -146t238 -55q182 0 304 92.5t122 229.5q0 85 -78 135t-254 96q-214 54 -305.5 124t-91.5 192q0 131 71 238t196 168t278 61q124 0 247 -56t207 -149
l-96 -94q-65 79 -167 128.5t-204 49.5q-170 0 -284.5 -90.5t-114.5 -225.5q0 -79 78.5 -127.5t257.5 -95.5q212 -53 303.5 -128t91.5 -202q0 -131 -74 -238t-204.5 -168t-292.5 -61z" />
    <glyph glyph-name="scaron" unicode="&#x161;" horiz-adv-x="1007" 
d="M594 1180l-150 280h105l123 -190l207 190h112l-270 -280h-127zM422 -25q-114 0 -223.5 43t-188.5 119l82 86q71 -62 160.5 -96.5t175.5 -34.5q120 0 212.5 63.5t92.5 153.5q0 54 -54 95t-177 81q-161 50 -232 108.5t-71 143.5q0 151 122 248.5t297 97.5q94 0 189.5 -32
t171.5 -90l-78 -91q-63 46 -140 71.5t-149 25.5q-120 0 -203 -58.5t-83 -144.5q0 -45 56.5 -86t184.5 -86q157 -50 226 -110.5t69 -149.5q0 -98 -62.5 -181t-163.5 -129.5t-214 -46.5z" />
    <glyph glyph-name="uni0162" unicode="&#x162;" horiz-adv-x="1290" 
d="M274 1407h1106l-24 -125h-488l-268 -1282h-18l-58 -92h13q55 0 88.5 -31t33.5 -82q0 -80 -66.5 -134t-156.5 -54q-102 0 -170 61l45 72q45 -45 119 -45q61 0 99 26.5t38 69.5q0 26 -16.5 42.5t-44.5 16.5q-43 0 -80 -26l-29 39l84 137h-12l268 1282h-487z" />
    <glyph glyph-name="uni0163" unicode="&#x163;" horiz-adv-x="755" 
d="M729 942h-266q-150 -715 -151 -731q-1 -5 -1 -14q0 -47 24.5 -76t65.5 -29q80 0 140 49l51 -102q-70 -46 -148 -59l-45 -72h13q56 0 89.5 -31t33.5 -82q0 -80 -67 -134t-157 -54q-102 0 -170 61l45 72q45 -45 119 -45q61 0 99 26.5t38 69.5q0 26 -16.5 42.5t-44.5 16.5
q-43 0 -80 -26l-29 39l72 117q-74 12 -117 67t-43 135q0 33 12 96t81 391q35 167 57 273h-172l24 117h172l62 291h127l-62 -291h267z" />
    <glyph glyph-name="Tcaron" unicode="&#x164;" horiz-adv-x="1290" 
d="M791 1528l-150 280h104l123 -190l207 190h113l-270 -280h-127zM469 0l268 1282h-487l24 125h1106l-24 -125h-488l-268 -1282h-131z" />
    <glyph glyph-name="tcaron" unicode="&#x165;" horiz-adv-x="755" 
d="M1063 1432q37 0 57.5 -25.5t20.5 -67.5q0 -66 -42.5 -129.5t-137.5 -160.5l-58 51q94 88 137 172q-30 -4 -49.5 15.5t-19.5 51.5q0 36 27.5 64.5t64.5 28.5zM547 1350l-62 -291h267l-23 -117h-266q-150 -715 -151 -731q-1 -5 -1 -14q0 -47 24.5 -76t65.5 -29q80 0 140 49
l51 -102q-98 -64 -205 -64q-93 0 -148 57.5t-55 149.5q0 33 12 96t81 391q35 167 57 273h-172l24 117h172l62 291h127z" />
    <glyph glyph-name="Umacron" unicode="&#x16a;" horiz-adv-x="1499" 
d="M649 1571l19 100h635l-19 -100h-635zM639 -25q-168 0 -284 76t-161 213t-8 311l172 832h131l-174 -842q-43 -206 54 -337.5t290 -131.5q195 0 347.5 134.5t195.5 344.5l172 832h131l-174 -842q-54 -260 -248 -425t-444 -165z" />
    <glyph glyph-name="umacron" unicode="&#x16b;" 
d="M1079 1323l-18 -100h-635l18 100h635zM1012 1059h127l-221 -1059h-127l34 170q-62 -89 -164 -142t-215 -53q-151 0 -240 86.5t-89 227.5q0 11 0.5 21.5t2 22t4.5 30.5t6.5 38t10.5 54t14.5 69.5t19.5 93t24.5 116t31 147.5t37.5 178h127q-135 -640 -142 -687
q-5 -34 -5 -61q0 -100 59.5 -159.5t161.5 -59.5q142 0 259 87t142 210v-4z" />
    <glyph glyph-name="Uring" unicode="&#x16e;" horiz-adv-x="1499" 
d="M963 1554q-76 0 -124 48.5t-48 121.5q0 100 80.5 176t179.5 76q75 0 122.5 -47t47.5 -119q0 -102 -79.5 -179t-178.5 -77zM979 1638q59 0 107.5 47t48.5 107q0 43 -28.5 71.5t-72.5 28.5q-59 0 -108 -45.5t-49 -103.5q0 -45 29 -75t73 -30zM639 -25q-168 0 -284 76
t-161 213t-8 311l172 832h131l-174 -842q-43 -206 54 -337.5t290 -131.5q195 0 347.5 134.5t195.5 344.5l172 832h131l-174 -842q-54 -260 -248 -425t-444 -165z" />
    <glyph glyph-name="uring" unicode="&#x16f;" 
d="M739 1206q-76 0 -124 48.5t-48 121.5q0 100 80.5 176t179.5 76q75 0 122.5 -47t47.5 -119q0 -102 -79.5 -179t-178.5 -77zM811 1544q-59 0 -108.5 -45.5t-49.5 -103.5q0 -44 29.5 -74.5t73.5 -30.5q59 0 107 47t48 107q0 43 -28 71.5t-72 28.5zM1012 1059h127l-221 -1059
h-127l34 170q-62 -89 -164 -142t-215 -53q-151 0 -240 86.5t-89 227.5q0 11 0.5 21.5t2 22t4.5 30.5t6.5 38t10.5 54t14.5 69.5t19.5 93t24.5 116t31 147.5t37.5 178h127q-135 -640 -142 -687q-5 -34 -5 -61q0 -100 59.5 -159.5t161.5 -59.5q142 0 259 87t142 210v-4z" />
    <glyph glyph-name="Uhungarumlaut" unicode="&#x170;" horiz-adv-x="1499" 
d="M569 1528l312 293l133 -31l-330 -262h-115zM956 1528l312 291l131 -31l-328 -260h-115zM639 -25q-168 0 -284 76t-161 213t-8 311l172 832h131l-174 -842q-43 -206 54 -337.5t290 -131.5q195 0 347.5 134.5t195.5 344.5l172 832h131l-174 -842q-54 -260 -248 -425
t-444 -165z" />
    <glyph glyph-name="uhungarumlaut" unicode="&#x171;" 
d="M791 1442l-330 -262h-115l311 293zM848 1180h-115l311 290l132 -30zM870 385l142 674h127l-221 -1059h-127l34 170q-62 -89 -164 -142t-215 -53q-151 0 -240 86.5t-89 227.5q0 11 0.5 21.5t2 22t4.5 30.5t6.5 38t10.5 54t14.5 69.5t19.5 93t24.5 116t31 147.5t37.5 178
h127q-135 -640 -142 -687q-5 -34 -5 -61q0 -100 59.5 -159.5t161.5 -59.5q142 0 259 87t142 210v-4z" />
    <glyph glyph-name="Uogonek" unicode="&#x172;" horiz-adv-x="1499" 
d="M1374 1407h131l-174 -842q-54 -260 -248 -425t-444 -165q-37 0 -53 2q-35 -20 -55.5 -58t-20.5 -85q0 -38 26 -61t70 -23q71 0 119 45l45 -94q-79 -55 -176 -55q-85 0 -135.5 45.5t-50.5 124.5q0 109 79 178q-182 47 -264.5 204t-36.5 377l172 832h131l-174 -842
q-43 -206 54 -337.5t290 -131.5q195 0 347.5 134.5t195.5 344.5z" />
    <glyph glyph-name="uogonek" unicode="&#x173;" 
d="M850 -250q71 0 119 45l45 -94q-79 -55 -176 -55q-85 0 -136 45.5t-51 124.5q0 73 42 133.5t106 85.5l26 135q-62 -89 -164 -142t-215 -53q-151 0 -240 86.5t-89 227.5q0 11 0.5 21.5t2 22t4.5 30.5t6.5 38t10.5 54t14.5 69.5t19.5 93t24.5 116t31 147.5t37.5 178h127
q-135 -640 -142 -687q-5 -34 -5 -61q0 -100 59.5 -159.5t161.5 -59.5q142 0 259 87t142 210v-4l142 674h127l-221 -1059h-3q-71 0 -116 -46.5t-45 -119.5q0 -38 26 -61t70 -23z" />
    <glyph glyph-name="Wcircumflex" unicode="&#x174;" horiz-adv-x="2181" 
d="M1024 1528l268 280h125l154 -280h-105l-127 190l-204 -190h-111zM442 0l-184 1407h145l154 -1188l641 1188h145l144 -1188l651 1188h150l-770 -1407h-134l-145 1229l-664 -1229h-133z" />
    <glyph glyph-name="wcircumflex" unicode="&#x175;" horiz-adv-x="1679" 
d="M702 1180l269 280h125l153 -280h-104l-127 190l-205 -190h-111zM313 0l-131 1059h131l97 -889l485 889h109l112 -889l469 889h137l-575 -1059h-127l-105 870l-475 -870h-127z" />
    <glyph glyph-name="Ycircumflex" unicode="&#x176;" horiz-adv-x="1347" 
d="M594 1528l268 280h125l154 -280h-105l-127 190l-204 -190h-111zM494 0l122 573l-397 834h135l340 -717l635 717h164l-741 -834l-121 -573h-137z" />
    <glyph glyph-name="ycircumflex" unicode="&#x177;" horiz-adv-x="1196" 
d="M453 1180l268 280h125l153 -280h-104l-127 190l-205 -190h-110zM117 -369q-94 0 -166 37l47 109q51 -29 121 -29q121 0 198 102l95 134l-240 1075h137l197 -924l565 924h139l-735 -1194q-75 -123 -163 -178.5t-195 -55.5z" />
    <glyph glyph-name="Ydieresis" unicode="&#x178;" horiz-adv-x="1347" 
d="M690 1581q-33 0 -54.5 22.5t-21.5 53.5q0 34 28.5 63t64.5 29q33 0 54 -22.5t21 -55.5q0 -34 -29 -62t-63 -28zM1083 1581q-33 0 -54 22t-21 54q0 34 28 63t64 29q33 0 54.5 -22.5t21.5 -55.5q0 -34 -29.5 -62t-63.5 -28zM494 0l122 573l-397 834h135l340 -717l635 717
h164l-741 -834l-121 -573h-137z" />
    <glyph glyph-name="Zacute" unicode="&#x179;" horiz-adv-x="1296" 
d="M670 1528l311 293l131 -31l-328 -262h-114zM12 0l19 104l1122 1178h-862l26 125h1039l-21 -104l-1122 -1178h885l-27 -125h-1059z" />
    <glyph glyph-name="zacute" unicode="&#x17a;" horiz-adv-x="1054" 
d="M483 1180l312 293l131 -31l-328 -262h-115zM4 0l19 100l833 838h-647l27 121h819l-21 -101l-835 -837h663l-24 -121h-834z" />
    <glyph glyph-name="Zdotaccent" unicode="&#x17b;" horiz-adv-x="1296" 
d="M881 1581q-34 0 -55 22t-21 54q0 35 27 63.5t63 28.5q33 0 54.5 -22.5t21.5 -55.5q0 -34 -28 -62t-62 -28zM12 0l19 104l1122 1178h-862l26 125h1039l-21 -104l-1122 -1178h885l-27 -125h-1059z" />
    <glyph glyph-name="zdotaccent" unicode="&#x17c;" horiz-adv-x="1054" 
d="M694 1233q-34 0 -55 22t-21 54q0 35 27.5 63.5t63.5 28.5q33 0 54 -22.5t21 -55.5q0 -34 -28 -62t-62 -28zM4 0l19 100l833 838h-647l27 121h819l-21 -101l-835 -837h663l-24 -121h-834z" />
    <glyph glyph-name="Zcaron" unicode="&#x17d;" horiz-adv-x="1296" 
d="M799 1528l-150 280h105l123 -190l206 190h113l-270 -280h-127zM12 0l19 104l1122 1178h-862l26 125h1039l-21 -104l-1122 -1178h885l-27 -125h-1059z" />
    <glyph glyph-name="zcaron" unicode="&#x17e;" horiz-adv-x="1054" 
d="M612 1180l-149 280h104l123 -190l207 190h113l-271 -280h-127zM4 0l19 100l833 838h-647l27 121h819l-21 -101l-835 -837h663l-24 -121h-834z" />
    <glyph glyph-name="uni0237" unicode="&#x237;" horiz-adv-x="460" 
d="M-127 -365q-88 0 -164 35l35 105q51 -23 127 -23q58 0 106 43.5t62 108.5l240 1155h127l-244 -1165q-23 -115 -103.5 -187t-185.5 -72z" />
    <glyph glyph-name="circumflex" unicode="&#x2c6;" horiz-adv-x="804" 
d="M264 1180l268 280h125l154 -280h-104l-127 190l-205 -190h-111z" />
    <glyph glyph-name="caron" unicode="&#x2c7;" horiz-adv-x="804" 
d="M473 1180l-149 280h104l123 -190l207 190h112l-270 -280h-127z" />
    <glyph glyph-name="breve" unicode="&#x2d8;" horiz-adv-x="858" 
d="M575 1206q-173 0 -278 127l92 74q33 -42 84.5 -64t108.5 -22q126 0 241 94l72 -90q-142 -119 -320 -119z" />
    <glyph glyph-name="dotaccent" unicode="&#x2d9;" horiz-adv-x="423" 
d="M369 1233q-34 0 -55 22t-21 54q0 35 27 63.5t63 28.5q33 0 54.5 -22.5t21.5 -55.5q0 -34 -28 -62t-62 -28z" />
    <glyph glyph-name="ring" unicode="&#x2da;" horiz-adv-x="679" 
d="M481 1206q-76 0 -124 48.5t-48 121.5q0 100 80.5 176t179.5 76q75 0 122.5 -47t47.5 -119q0 -102 -79.5 -179t-178.5 -77zM498 1290q59 0 107 47t48 107q0 43 -28 71.5t-72 28.5q-59 0 -108.5 -45.5t-49.5 -103.5q0 -44 29.5 -74.5t73.5 -30.5z" />
    <glyph glyph-name="ogonek" unicode="&#x2db;" horiz-adv-x="649" 
d="M172 -354q-85 0 -135.5 45.5t-50.5 124.5q0 78 47 141t117 84l100 -41q-71 0 -116.5 -46.5t-45.5 -119.5q0 -38 26 -61t70 -23q71 0 119 45l45 -94q-79 -55 -176 -55z" />
    <glyph glyph-name="tilde" unicode="&#x2dc;" horiz-adv-x="772" 
d="M664 1186q-35 0 -64.5 14t-50 34t-39.5 39.5t-40.5 33.5t-43.5 14q-42 0 -79.5 -39.5t-63.5 -112.5l-86 23q78 231 233 231q42 0 78 -21t57 -46.5t48 -46.5t53 -21q43 0 80 39t65 113l86 -23q-78 -231 -233 -231z" />
    <glyph glyph-name="hungarumlaut" unicode="&#x2dd;" horiz-adv-x="1034" 
d="M264 1180l311 293l134 -31l-330 -262h-115zM651 1180l312 290l131 -30l-328 -260h-115z" />
    <glyph glyph-name="uni0326" unicode="&#x326;" horiz-adv-x="0" 
d="M-510 -561l-57 51q94 88 137 172q-30 -4 -50 16t-20 52q0 36 27 64t65 28q37 0 57.5 -25t20.5 -67q0 -66 -43 -130.5t-137 -160.5z" />
    <glyph glyph-name="Wgrave" unicode="&#x1e80;" horiz-adv-x="2181" 
d="M1241 1528l-219 262l139 31l189 -293h-109zM442 0l-184 1407h145l154 -1188l641 1188h145l144 -1188l651 1188h150l-770 -1407h-134l-145 1229l-664 -1229h-133z" />
    <glyph glyph-name="wgrave" unicode="&#x1e81;" horiz-adv-x="1679" 
d="M907 1180l-219 262l139 31l189 -293h-109zM313 0l-131 1059h131l97 -889l485 889h109l112 -889l469 889h137l-575 -1059h-127l-105 870l-475 -870h-127z" />
    <glyph glyph-name="Wacute" unicode="&#x1e82;" horiz-adv-x="2181" 
d="M1241 1528l311 293l131 -31l-327 -262h-115zM442 0l-184 1407h145l154 -1188l641 1188h145l144 -1188l651 1188h150l-770 -1407h-134l-145 1229l-664 -1229h-133z" />
    <glyph glyph-name="wacute" unicode="&#x1e83;" horiz-adv-x="1679" 
d="M924 1180l311 293l131 -31l-328 -262h-114zM313 0l-131 1059h131l97 -889l485 889h109l112 -889l469 889h137l-575 -1059h-127l-105 870l-475 -870h-127z" />
    <glyph glyph-name="Wdieresis" unicode="&#x1e84;" horiz-adv-x="2181" 
d="M1120 1581q-33 0 -54.5 22.5t-21.5 53.5q0 34 28.5 63t64.5 29q33 0 54 -22.5t21 -55.5q0 -34 -29 -62t-63 -28zM1513 1581q-33 0 -54 22t-21 54q0 34 28 63t64 29q33 0 54.5 -22.5t21.5 -55.5q0 -34 -29.5 -62t-63.5 -28zM442 0l-184 1407h145l154 -1188l641 1188h145
l144 -1188l651 1188h150l-770 -1407h-134l-145 1229l-664 -1229h-133z" />
    <glyph glyph-name="wdieresis" unicode="&#x1e85;" horiz-adv-x="1679" 
d="M799 1233q-33 0 -54.5 22.5t-21.5 53.5q0 34 28 63t64 29q33 0 54.5 -22.5t21.5 -55.5q0 -34 -29 -62t-63 -28zM1192 1233q-33 0 -54.5 22.5t-21.5 53.5q0 34 28 63t64 29q33 0 54.5 -22.5t21.5 -55.5q0 -34 -29 -62t-63 -28zM313 0l-131 1059h131l97 -889l485 889h109
l112 -889l469 889h137l-575 -1059h-127l-105 870l-475 -870h-127z" />
    <glyph glyph-name="uni1EB8" unicode="&#x1eb8;" horiz-adv-x="1255" 
d="M1300 1282h-849l-103 -502h770l-24 -127h-775l-108 -528h848l-27 -125h-981l293 1407h981zM496 -174q33 0 54 -22.5t21 -55.5q0 -34 -28 -62t-62 -28t-54.5 22t-20.5 54q0 35 27 63.5t63 28.5z" />
    <glyph glyph-name="uni1EB9" unicode="&#x1eb9;" horiz-adv-x="1228" 
d="M614 479h-399q-2 -16 -2 -49q0 -151 88 -244.5t234 -93.5q104 0 208 37.5t170 97.5l70 -92q-80 -71 -216 -115.5t-253 -44.5q-188 0 -307 124t-119 319q0 170 91.5 324.5t242 247.5t315.5 93q158 0 268.5 -81t110.5 -211q0 -141 -134.5 -226.5t-367.5 -85.5zM725 967
q-166 0 -298 -107t-185 -264h397q167 0 258.5 49.5t91.5 138.5q0 82 -73.5 132.5t-190.5 50.5zM438 -176q33 0 54.5 -22.5t21.5 -55.5q0 -34 -28 -62t-62 -28t-55 22t-21 54q0 35 27 63.5t63 28.5z" />
    <glyph glyph-name="uni1EBC" unicode="&#x1ebc;" horiz-adv-x="1271" 
d="M766 1669q-42 0 -79.5 -39t-63.5 -112l-86 22q78 232 233 232q35 0 64.5 -14t50 -34t39 -40t39.5 -34t43 -14q43 0 80 39t65 113l86 -23q-78 -231 -233 -231q-35 0 -64.5 14t-50 34t-39.5 39.5t-40.5 33.5t-43.5 14zM1300 1282h-849l-103 -502h770l-24 -127h-775
l-108 -528h848l-27 -125h-981l293 1407h981z" />
    <glyph glyph-name="uni1EBD" unicode="&#x1ebd;" horiz-adv-x="1163" 
d="M662 1321q-42 0 -80 -39.5t-64 -112.5l-86 23q78 231 234 231q35 0 64.5 -14t50 -33.5t39 -39.5t39 -34t42.5 -14q43 0 80.5 39.5t65.5 112.5l86 -23q-78 -231 -234 -231q-35 0 -64.5 14t-50 34t-39 39.5t-40 33.5t-43.5 14zM737 1083q158 0 268.5 -81t110.5 -211
q0 -141 -134.5 -226.5t-367.5 -85.5h-399q-2 -16 -2 -49q0 -151 88 -244.5t234 -93.5q104 0 208 37.5t170 97.5l70 -92q-80 -71 -216 -115.5t-253 -44.5q-188 0 -307 124t-119 319q0 170 91.5 324.5t242 247.5t315.5 93zM639 596q167 0 258.5 49.5t91.5 138.5
q0 82 -73.5 132.5t-190.5 50.5q-166 0 -298 -107t-185 -264h397z" />
    <glyph glyph-name="Ygrave" unicode="&#x1ef2;" horiz-adv-x="1347" 
d="M901 1528l-219 262l139 31l189 -293h-109zM494 0l122 573l-397 834h135l340 -717l635 717h164l-741 -834l-121 -573h-137z" />
    <glyph glyph-name="ygrave" unicode="&#x1ef3;" horiz-adv-x="1196" 
d="M760 1180l-219 262l139 31l188 -293h-108zM117 -369q-94 0 -166 37l47 109q51 -29 121 -29q121 0 198 102l95 134l-240 1075h137l197 -924l565 924h139l-735 -1194q-75 -123 -163 -178.5t-195 -55.5z" />
    <glyph glyph-name="endash" unicode="&#x2013;" horiz-adv-x="1183" 
d="M109 496l24 120h952l-24 -120h-952z" />
    <glyph glyph-name="emdash" unicode="&#x2014;" horiz-adv-x="1808" 
d="M109 496l24 120h1577l-24 -120h-1577z" />
    <glyph glyph-name="quoteleft" unicode="&#x2018;" horiz-adv-x="524" 
d="M469 1374l63 -57q-96 -89 -151 -191q34 0 56 -21t22 -56q0 -46 -32 -76.5t-75 -30.5q-42 0 -66 28.5t-24 76.5q0 72 51.5 147.5t155.5 179.5z" />
    <glyph glyph-name="quoteright" unicode="&#x2019;" horiz-adv-x="524" 
d="M317 932l-63 57q98 90 152 191q-34 0 -56 21t-22 56q0 46 31.5 76.5t74.5 30.5q42 0 66 -28t24 -76q0 -72 -52 -148.5t-155 -179.5z" />
    <glyph glyph-name="quotedblleft" unicode="&#x201c;" horiz-adv-x="921" 
d="M469 1374l63 -57q-96 -89 -151 -191q34 0 56 -21t22 -56q0 -46 -32 -76.5t-75 -30.5q-42 0 -66 28.5t-24 76.5q0 72 51.5 147.5t155.5 179.5zM862 1374l64 -57q-98 -90 -152 -191q34 0 56 -21t22 -56q0 -46 -32 -76.5t-75 -30.5q-42 0 -66 28.5t-24 76.5q0 72 51.5 147.5
t155.5 179.5z" />
    <glyph glyph-name="quotedblright" unicode="&#x201d;" horiz-adv-x="921" 
d="M317 932l-63 57q98 90 152 191q-34 0 -56 21t-22 56q0 46 31.5 76.5t74.5 30.5q42 0 66 -28t24 -76q0 -72 -52 -148.5t-155 -179.5zM713 932l-64 57q98 90 152 191q-34 0 -56 21t-22 56q0 46 31.5 76.5t74.5 30.5q42 0 66.5 -28t24.5 -76q0 -72 -52 -148.5t-155 -179.5z
" />
    <glyph glyph-name="ellipsis" unicode="&#x2026;" horiz-adv-x="1280" 
d="M139 -25q-38 0 -62 24t-24 60q0 43 32.5 74t74.5 31q36 0 59 -24t23 -58q0 -41 -31.5 -74t-71.5 -33zM535 -25q-38 0 -62 24t-24 60q0 43 32 74t74 31q36 0 59 -24t23 -58q0 -41 -31 -74t-71 -33zM932 -25q-38 0 -62 24t-24 60q0 43 32 74t74 31q36 0 59 -24t23 -58
q0 -41 -31 -74t-71 -33z" />
    <glyph glyph-name="perthousand" unicode="&#x2030;" horiz-adv-x="2390" 
d="M461 715q-121 0 -190.5 74.5t-69.5 195.5q0 111 51.5 210.5t142 161.5t195.5 62q122 0 191 -76t69 -196q0 -111 -51.5 -210t-141.5 -160.5t-196 -61.5zM152 0l1255 1407h127l-1255 -1407h-127zM463 813q113 0 194.5 102.5t81.5 225.5q0 80 -40.5 130t-112.5 50
q-76 0 -141.5 -51t-101.5 -126.5t-36 -152.5q0 -80 43 -129t113 -49zM1090 -20q-119 0 -191 75t-72 197q0 110 51.5 209t143 161t197.5 62q121 0 190.5 -75.5t69.5 -196.5q0 -110 -51.5 -209.5t-142 -161t-195.5 -61.5zM1868 -20q-119 0 -189.5 75t-70.5 197q0 110 51 209
t141.5 161t196.5 62q121 0 190.5 -75.5t69.5 -196.5q0 -111 -51.5 -210t-141.5 -160.5t-196 -61.5zM1092 78q77 0 142.5 51t100.5 127t35 154q0 79 -42.5 127.5t-113.5 48.5q-75 0 -139.5 -49t-100.5 -125t-36 -158q0 -79 41.5 -127.5t112.5 -48.5zM1872 78q77 0 142.5 51
t100.5 127t35 154q0 79 -43 127.5t-114 48.5q-112 0 -193.5 -102.5t-81.5 -229.5q0 -79 41 -127.5t113 -48.5z" />
    <glyph glyph-name="Euro" unicode="&#x20ac;" horiz-adv-x="1398" 
d="M1014 1432q132 0 259 -61t204 -159l-103 -84q-62 80 -165 130.5t-216 50.5q-188 0 -353.5 -98t-266.5 -259h682l-25 -116h-717q-43 -116 -49 -226h719l-22 -116h-689q31 -170 164.5 -283t302.5 -113q105 0 231 52.5t222 134.5l76 -99q-112 -92 -265 -151.5t-284 -59.5
q-216 0 -382.5 148.5t-197.5 370.5h-194l22 116h166q6 123 45 226h-164l25 116h190q112 213 325.5 346.5t459.5 133.5z" />
    <glyph glyph-name="minus" unicode="&#x2212;" horiz-adv-x="1216" 
d="M156 621l28 127h940l-28 -127h-940z" />
    <glyph glyph-name="a.alt" horiz-adv-x="1159" 
d="M686 1083q172 0 261 -87t89 -236q0 -17 -1 -32t-3 -32t-7.5 -47t-11.5 -61t-18.5 -91t-25 -120.5t-34.5 -165.5t-44 -211h-127l33 160q-73 -87 -189.5 -136t-226.5 -49q-150 0 -240 74.5t-90 198.5q0 120 69.5 217t181.5 149t239 52q167 0 348 -68q22 106 22 150
q0 100 -56 161.5t-183 61.5q-144 0 -338 -97l-39 109q211 100 391 100zM831 336l3 -6q19 96 36 174q-155 51 -315 51q-151 0 -265 -84.5t-114 -206.5q0 -81 63.5 -127.5t166.5 -46.5q124 0 249 66t176 180z" />
    <glyph glyph-name="aacute.alt" horiz-adv-x="1159" 
d="M983 1442l-328 -262h-114l311 293zM686 1083q172 0 261 -87t89 -236q0 -17 -1 -32t-3 -32t-7.5 -47t-11.5 -61t-18.5 -91t-25 -120.5t-34.5 -165.5t-44 -211h-127l33 160q-73 -87 -189.5 -136t-226.5 -49q-150 0 -240 74.5t-90 198.5q0 120 69.5 217t181.5 149t239 52
q167 0 348 -68q22 106 22 150q0 100 -56 161.5t-183 61.5q-144 0 -338 -97l-39 109q211 100 391 100zM831 336l3 -6q19 96 36 174q-155 51 -315 51q-151 0 -265 -84.5t-114 -206.5q0 -81 63.5 -127.5t166.5 -46.5q124 0 249 66t176 180z" />
    <glyph glyph-name="abreve.alt" horiz-adv-x="1159" 
d="M745 1206q-173 0 -278 127l92 74q33 -42 84.5 -64t108.5 -22q126 0 241 94l72 -90q-142 -119 -320 -119zM686 1083q172 0 261 -87t89 -236q0 -17 -1 -32t-3 -32t-7.5 -47t-11.5 -61t-18.5 -91t-25 -120.5t-34.5 -165.5t-44 -211h-127l33 160q-73 -87 -189.5 -136
t-226.5 -49q-150 0 -240 74.5t-90 198.5q0 120 69.5 217t181.5 149t239 52q167 0 348 -68q22 106 22 150q0 100 -56 161.5t-183 61.5q-144 0 -338 -97l-39 109q211 100 391 100zM831 336l3 -6q19 96 36 174q-155 51 -315 51q-151 0 -265 -84.5t-114 -206.5
q0 -81 63.5 -127.5t166.5 -46.5q124 0 249 66t176 180z" />
    <glyph glyph-name="acircumflex.alt" horiz-adv-x="1159" 
d="M774 1370l-205 -190h-110l268 280h125l154 -280h-105zM686 1083q172 0 261 -87t89 -236q0 -17 -1 -32t-3 -32t-7.5 -47t-11.5 -61t-18.5 -91t-25 -120.5t-34.5 -165.5t-44 -211h-127l33 160q-73 -87 -189.5 -136t-226.5 -49q-150 0 -240 74.5t-90 198.5q0 120 69.5 217
t181.5 149t239 52q167 0 348 -68q22 106 22 150q0 100 -56 161.5t-183 61.5q-144 0 -338 -97l-39 109q211 100 391 100zM831 336l3 -6q19 96 36 174q-155 51 -315 51q-151 0 -265 -84.5t-114 -206.5q0 -81 63.5 -127.5t166.5 -46.5q124 0 249 66t176 180z" />
    <glyph glyph-name="adieresis.alt" horiz-adv-x="1159" 
d="M555 1233q-33 0 -54.5 22.5t-21.5 53.5q0 34 28 63t64 29q33 0 54.5 -22.5t21.5 -55.5q0 -34 -29 -62t-63 -28zM948 1233q-33 0 -54.5 22.5t-21.5 53.5q0 34 28.5 63t64.5 29q33 0 54 -22.5t21 -55.5q0 -34 -29 -62t-63 -28zM686 1083q172 0 261 -87t89 -236
q0 -17 -1 -32t-3 -32t-7.5 -47t-11.5 -61t-18.5 -91t-25 -120.5t-34.5 -165.5t-44 -211h-127l33 160q-73 -87 -189.5 -136t-226.5 -49q-150 0 -240 74.5t-90 198.5q0 120 69.5 217t181.5 149t239 52q167 0 348 -68q22 106 22 150q0 100 -56 161.5t-183 61.5q-144 0 -338 -97
l-39 109q211 100 391 100zM831 336l3 -6q19 96 36 174q-155 51 -315 51q-151 0 -265 -84.5t-114 -206.5q0 -81 63.5 -127.5t166.5 -46.5q124 0 249 66t176 180z" />
    <glyph glyph-name="agrave.alt" horiz-adv-x="1159" 
d="M874 1180h-108l-219 262l139 31zM686 1083q172 0 261 -87t89 -236q0 -17 -1 -32t-3 -32t-7.5 -47t-11.5 -61t-18.5 -91t-25 -120.5t-34.5 -165.5t-44 -211h-127l33 160q-73 -87 -189.5 -136t-226.5 -49q-150 0 -240 74.5t-90 198.5q0 120 69.5 217t181.5 149t239 52
q167 0 348 -68q22 106 22 150q0 100 -56 161.5t-183 61.5q-144 0 -338 -97l-39 109q211 100 391 100zM831 336l3 -6q19 96 36 174q-155 51 -315 51q-151 0 -265 -84.5t-114 -206.5q0 -81 63.5 -127.5t166.5 -46.5q124 0 249 66t176 180z" />
    <glyph glyph-name="amacron.alt" horiz-adv-x="1159" 
d="M442 1323h635l-18 -100h-635zM686 1083q172 0 261 -87t89 -236q0 -17 -1 -32t-3 -32t-7.5 -47t-11.5 -61t-18.5 -91t-25 -120.5t-34.5 -165.5t-44 -211h-127l33 160q-73 -87 -189.5 -136t-226.5 -49q-150 0 -240 74.5t-90 198.5q0 120 69.5 217t181.5 149t239 52
q167 0 348 -68q22 106 22 150q0 100 -56 161.5t-183 61.5q-144 0 -338 -97l-39 109q211 100 391 100zM831 336l3 -6q19 96 36 174q-155 51 -315 51q-151 0 -265 -84.5t-114 -206.5q0 -81 63.5 -127.5t166.5 -46.5q124 0 249 66t176 180z" />
    <glyph glyph-name="aogonek.alt" horiz-adv-x="1159" 
d="M829 -250q71 0 119 45l45 -94q-79 -55 -176 -55q-85 0 -135.5 45.5t-50.5 124.5q0 71 39 130.5t100 86.5q12 56 27 127q-73 -87 -189.5 -136t-226.5 -49q-150 0 -240 74.5t-90 198.5q0 120 69.5 217t181.5 149t239 52q167 0 348 -68q22 106 22 150q0 100 -56 161.5
t-183 61.5q-144 0 -338 -97l-39 109q211 100 391 100q172 0 261 -87t89 -236q0 -17 -1 -32t-3 -32t-7.5 -47t-11.5 -61t-18.5 -91l-25 -120t-34.5 -165l-44 -210l4 -2q-71 0 -116.5 -46.5t-45.5 -119.5q0 -38 26 -61t70 -23zM831 336l3 -6q19 96 36 174q-155 51 -315 51
q-151 0 -265 -84.5t-114 -206.5q0 -81 63.5 -127.5t166.5 -46.5q124 0 249 66t176 180z" />
    <glyph glyph-name="aring.alt" horiz-adv-x="1159" 
d="M737 1206q-76 0 -124 48.5t-48 121.5q0 100 80.5 176t179.5 76q75 0 122.5 -47t47.5 -119q0 -102 -79.5 -179t-178.5 -77zM809 1544q-59 0 -108.5 -45.5t-49.5 -103.5q0 -44 29.5 -74.5t73.5 -30.5q59 0 107 47t48 107q0 43 -28 71.5t-72 28.5zM686 1083q172 0 261 -87
t89 -236q0 -17 -1 -32t-3 -32t-7.5 -47t-11.5 -61t-18.5 -91t-25 -120.5t-34.5 -165.5t-44 -211h-127l33 160q-73 -87 -189.5 -136t-226.5 -49q-150 0 -240 74.5t-90 198.5q0 120 69.5 217t181.5 149t239 52q167 0 348 -68q22 106 22 150q0 100 -56 161.5t-183 61.5
q-144 0 -338 -97l-39 109q211 100 391 100zM831 336l3 -6q19 96 36 174q-155 51 -315 51q-151 0 -265 -84.5t-114 -206.5q0 -81 63.5 -127.5t166.5 -46.5q124 0 249 66t176 180z" />
    <glyph glyph-name="atilde.alt" horiz-adv-x="1159" 
d="M637 1321q-42 0 -79.5 -39.5t-63.5 -112.5l-86 23q78 231 233 231q42 0 78 -21t57 -46.5t48 -46.5t53 -21q43 0 80 39t65 113l86 -23q-78 -231 -234 -231q-35 0 -64.5 14t-50 34t-39 39.5t-40 33.5t-43.5 14zM686 1083q172 0 261 -87t89 -236q0 -17 -1 -32t-3 -32
t-7.5 -47t-11.5 -61t-18.5 -91t-25 -120.5t-34.5 -165.5t-44 -211h-127l33 160q-73 -87 -189.5 -136t-226.5 -49q-150 0 -240 74.5t-90 198.5q0 120 69.5 217t181.5 149t239 52q167 0 348 -68q22 106 22 150q0 100 -56 161.5t-183 61.5q-144 0 -338 -97l-39 109
q211 100 391 100zM831 336l3 -6q19 96 36 174q-155 51 -315 51q-151 0 -265 -84.5t-114 -206.5q0 -81 63.5 -127.5t166.5 -46.5q124 0 249 66t176 180z" />
    <glyph glyph-name="ascender" horiz-adv-x="1292" 
d="M61 0l297 1432h127l-297 -1432h-127z" />
    <glyph glyph-name="descender" horiz-adv-x="1292" 
d="M-12 -352l293 1411h127l-293 -1411h-127z" />
    </font>
</defs>
</svg>
