<?xml version="1.0" standalone="no"?>
<!DOCTYPE svg PUBLIC "-//W3C//DTD SVG 1.1//EN" "http://www.w3.org/Graphics/SVG/1.1/DTD/svg11.dtd" >
<svg xmlns="http://www.w3.org/2000/svg" xmlns:xlink="http://www.w3.org/1999/xlink" version="1.1">
<metadata>
Created by FontForge 20170731 at Tue Jan 26 16:34:57 2021
 By Aleksey,,,
Copyright (c) 2016 by Chris Simpson.
</metadata>
<defs>
<font id="Metropolis-BoldItalic" horiz-adv-x="1255" >
  <font-face 
    font-family="Metropolis"
    font-weight="700"
    font-style="italic"
    font-stretch="normal"
    units-per-em="2048"
    panose-1="0 0 8 0 0 0 0 0 0 0"
    ascent="1628"
    descent="-420"
    x-height="1059"
    cap-height="1407"
    bbox="-627 -602 2396 2003"
    underline-thickness="40"
    underline-position="-312"
    slope="-11.75"
    unicode-range="U+0020-2212"
  />
<missing-glyph horiz-adv-x="1024" 
d="M840 1628v-2048h-650v2048h650zM682 1491h-338v-68h133v-75h-135v-68h340v68h-135v75h135v68zM547 1227h-205v-213h340v69h-135v144zM477 1157v-74h-67v74h67zM682 958h-340v-67h135v-76h-135v-67h205v143h135v67zM682 836h-68v-136h-272v-69h340v205zM682 586h-205v-115
h70v47h67v-96h-204v164h-68v-232h340v232zM682 231h-340v-231h340v231zM614 164v-96h-204v96h204zM682 -47h-340v-68h143l-143 -96v-68h340v68h-209l143 96h66v68z" />
    <glyph glyph-name=".notdef" horiz-adv-x="1024" 
d="M840 1628v-2048h-650v2048h650zM682 1491h-338v-68h133v-75h-135v-68h340v68h-135v75h135v68zM547 1227h-205v-213h340v69h-135v144zM477 1157v-74h-67v74h67zM682 958h-340v-67h135v-76h-135v-67h205v143h135v67zM682 836h-68v-136h-272v-69h340v205zM682 586h-205v-115
h70v47h67v-96h-204v164h-68v-232h340v232zM682 231h-340v-231h340v231zM614 164v-96h-204v96h204zM682 -47h-340v-68h143l-143 -96v-68h340v68h-209l143 96h66v68z" />
    <glyph glyph-name=".null" horiz-adv-x="0" 
 />
    <glyph glyph-name="nonmarkingreturn" horiz-adv-x="682" 
 />
    <glyph glyph-name="space" unicode=" " horiz-adv-x="571" 
 />
    <glyph glyph-name="exclam" unicode="!" horiz-adv-x="626" 
d="M199 496l120 911h340l-258 -911h-202zM219 -25q-74 0 -121 48t-47 120q0 87 62.5 146t146.5 59q69 0 115.5 -48.5t46.5 -117.5q0 -84 -62 -145.5t-141 -61.5z" />
    <glyph glyph-name="quotedbl" unicode="&#x22;" horiz-adv-x="1056" 
d="M279 807q-19 190 -17 307q2 136 52 220.5t151 84.5q56 0 91.5 -36t35.5 -91q0 -54 -65.5 -207.5t-129.5 -277.5h-118zM774 807q-19 182 -16 307q2 136 52 220.5t151 84.5q56 0 91 -36t35 -91q0 -54 -65 -208t-129 -277h-119z" />
    <glyph glyph-name="numbersign" unicode="#" horiz-adv-x="1386" 
d="M1339 862h-198l-148 -319h197l-96 -215h-199l-152 -328h-225l152 328h-232l-151 -328h-224l152 328h-192l96 215h194l148 319h-199l96 215h201l152 330h223l-152 -330h232l151 330h226l-152 -330h197zM768 543l147 319h-231l-147 -319h231z" />
    <glyph glyph-name="dollar" unicode="$" horiz-adv-x="1298" 
d="M801 825q213 -54 305 -131.5t92 -216.5q0 -210 -160.5 -347.5t-412.5 -152.5l-27 -129h-199l29 140q-133 22 -249.5 81.5t-196.5 145.5l202 195q118 -127 297 -166l74 352q-90 26 -151 52t-110.5 65t-73 93.5t-23.5 127.5q0 199 146 336t384 157l27 127h198l-26 -133
q114 -17 216.5 -66.5t176.5 -123.5l-189 -205q-113 107 -260 137zM506 977q0 -34 24.5 -57t81.5 -43l60 284q-77 -21 -121.5 -72t-44.5 -112zM680 240q99 18 155 72t56 122q0 38 -32.5 63t-115.5 50z" />
    <glyph glyph-name="percent" unicode="%" horiz-adv-x="1714" 
d="M481 700q-137 0 -218 82.5t-81 212.5q0 172 120 299t290 127q141 0 222 -83.5t81 -213.5q0 -173 -121 -298.5t-293 -125.5zM145 0l1272 1407h225l-1271 -1407h-226zM481 877q89 0 153 79.5t64 173.5q0 52 -28 82.5t-74 30.5q-60 0 -111 -39t-78.5 -97t-27.5 -116
q0 -54 27 -84t75 -30zM1190 -23q-138 0 -220.5 83.5t-82.5 213.5q0 110 55 208t150.5 157t207.5 59q139 0 220.5 -83t81.5 -214q0 -111 -54.5 -208.5t-150 -156.5t-207.5 -59zM1188 156q91 0 154 81t63 173q0 52 -28 82t-74 30q-90 0 -154 -79.5t-64 -174.5
q0 -53 27.5 -82.5t75.5 -29.5z" />
    <glyph glyph-name="ampersand" unicode="&#x26;" horiz-adv-x="1386" 
d="M1335 625q-153 -212 -268 -330q24 -34 80.5 -108t87.5 -117l-254 -95l-109 150q-211 -150 -436 -150q-187 0 -299 90t-112 246q0 180 102.5 293.5t300.5 194.5q-57 111 -57 194q0 122 64.5 222.5t169 155t224.5 54.5q156 0 251.5 -85.5t95.5 -219.5q0 -64 -20 -117.5
t-53 -94t-88 -78.5t-111.5 -66t-137.5 -62q29 -40 164 -225q107 118 203 275zM829 1210q-80 0 -143 -60.5t-63 -141.5q0 -62 34 -129q64 22 108 43t82 49.5t56.5 65.5t18.5 83q0 42 -24.5 66t-68.5 24zM481 203q122 0 264 104q-125 177 -204 301q-222 -107 -222 -268
q0 -64 45.5 -100.5t116.5 -36.5z" />
    <glyph glyph-name="quotesingle" unicode="'" horiz-adv-x="561" 
d="M279 807q-19 190 -17 307q2 136 52 220.5t151 84.5q56 0 91.5 -36t35.5 -91q0 -54 -65.5 -207.5t-129.5 -277.5h-118z" />
    <glyph glyph-name="parenleft" unicode="(" horiz-adv-x="792" 
d="M391 -342q-147 124 -225 297t-78 379q0 327 177 621.5t476 484.5l136 -174q-500 -424 -500 -961q0 -137 45 -258t139 -242z" />
    <glyph glyph-name="parenright" unicode=")" horiz-adv-x="792" 
d="M57 -354l-135 176q500 419 500 958q0 138 -45 259t-139 243l170 145q146 -124 224.5 -295.5t78.5 -375.5q0 -329 -177.5 -624t-476.5 -486z" />
    <glyph glyph-name="asterisk" unicode="*" horiz-adv-x="813" 
d="M444 707q-32 0 -50.5 21t-12.5 50q9 42 45.5 126.5t44.5 109.5q-26 -17 -99 -76t-112 -80q-28 -14 -56.5 -4t-37.5 37q-10 29 2.5 58.5t40.5 43.5q41 21 128 45.5t114 34.5q-22 10 -99.5 34.5t-107.5 45.5q-22 14 -23.5 44t21.5 58q22 29 54 38.5t54 -5.5q29 -20 78 -78
t70 -77q1 22 -2 117.5t6 117.5q6 30 33.5 51t60.5 21q32 0 50.5 -21.5t12.5 -50.5q-9 -42 -47 -124.5t-47 -110.5q25 16 99 75t114 80q28 14 56.5 4t37.5 -37q10 -29 -3 -58.5t-40 -43.5q-41 -21 -128.5 -45.5t-114.5 -34.5q21 -9 100 -34t109 -46q22 -14 23 -44t-21 -58
q-22 -29 -54.5 -38.5t-54.5 5.5q-30 21 -79 80t-68 76q-1 -21 2.5 -118t-6.5 -118q-6 -29 -33.5 -50t-59.5 -21z" />
    <glyph glyph-name="plus" unicode="+" horiz-adv-x="1234" 
d="M1169 805l-51 -244h-364l-78 -373h-258l78 373h-367l51 244h367l78 373h258l-78 -373h364z" />
    <glyph glyph-name="comma" unicode="," horiz-adv-x="606" 
d="M115 -307l-107 98q108 79 180 195q-64 0 -106.5 42.5t-42.5 110.5q0 85 63 147t140 62t121.5 -54.5t44.5 -143.5q0 -124 -78.5 -235.5t-214.5 -221.5z" />
    <glyph glyph-name="hyphen" unicode="-" horiz-adv-x="747" 
d="M74 436l53 254h561l-53 -254h-561z" />
    <glyph glyph-name="period" unicode="." horiz-adv-x="591" 
d="M203 -25q-74 0 -121 48t-47 120q0 87 62.5 146t146.5 59q69 0 115.5 -48.5t46.5 -117.5q0 -84 -62 -145.5t-141 -61.5z" />
    <glyph glyph-name="slash" unicode="/" horiz-adv-x="952" 
d="M-190 -152l1054 1674h322l-1055 -1674h-321z" />
    <glyph glyph-name="zero" unicode="0" horiz-adv-x="1447" 
d="M629 -25q-238 0 -378 151t-140 402q0 172 59.5 336t161.5 289.5t248.5 202t310.5 76.5q240 0 379 -151t139 -402q0 -172 -59.5 -335.5t-161.5 -289.5t-248.5 -202.5t-310.5 -76.5zM645 250q126 0 233.5 96t165.5 237.5t58 284.5q0 132 -61 210.5t-167 78.5
q-95 0 -181.5 -56.5t-145.5 -145.5t-94 -198.5t-35 -215.5q0 -133 60.5 -212t166.5 -79z" />
    <glyph glyph-name="one" unicode="1" horiz-adv-x="847" 
d="M276 0l224 1061l-267 -150l-81 213l477 283h243l-292 -1407h-304z" />
    <glyph glyph-name="two" unicode="2" 
d="M-14 0l47 246l600 407q139 97 221 189t82 188q0 60 -45.5 93.5t-116.5 33.5q-107 0 -200.5 -49t-194.5 -145l-168 202q264 267 588 267q202 0 325 -104t123 -273q0 -94 -31 -177.5t-92 -156t-134 -132.5t-173 -124l-305 -193h594l-57 -272h-1063z" />
    <glyph glyph-name="three" unicode="3" horiz-adv-x="1239" 
d="M518 -27q-186 0 -320 67.5t-210 178.5l207 184q56 -78 141 -117.5t186 -39.5q125 0 217 65t92 160q0 58 -56 84t-181 25h-174l55 258l152 -2q122 0 205 55t90 145q4 59 -46.5 92t-142.5 33q-183 0 -377 -172l-147 203q247 240 569 240q214 0 336.5 -91.5t122.5 -240.5
q0 -142 -91.5 -241t-244.5 -142q99 -24 165.5 -95t66.5 -180q0 -104 -51 -193t-136.5 -149t-196.5 -93.5t-231 -33.5z" />
    <glyph glyph-name="four" unicode="4" horiz-adv-x="1329" 
d="M657 0l62 287h-686l16 233l834 885h370l-180 -864h187l-54 -254h-186l-59 -287h-304zM377 541h393l117 544z" />
    <glyph glyph-name="five" unicode="5" horiz-adv-x="1263" 
d="M518 -27q-324 0 -512 226l207 196q135 -157 324 -157q131 0 230 82t99 194q0 68 -52 105.5t-146 37.5q-159 0 -308 -100l-192 90l178 760h934l-57 -272h-652l-82 -304q133 78 279 78q175 0 288 -96.5t113 -263.5t-87 -299.5t-235.5 -204.5t-328.5 -72z" />
    <glyph glyph-name="six" unicode="6" horiz-adv-x="1320" 
d="M811 909q182 0 296 -98.5t114 -265.5q0 -120 -50.5 -226.5t-136 -181.5t-201 -118.5t-241.5 -43.5q-245 0 -368.5 133t-123.5 363q0 186 60.5 360.5t164.5 307t255.5 213t322.5 80.5q244 0 416 -158l-176 -217q-55 55 -114.5 81.5t-137.5 26.5q-139 0 -249.5 -103
t-176.5 -267q74 55 165 84.5t181 29.5zM590 231q125 0 222 87t97 196q0 71 -54 110.5t-142 39.5q-95 0 -179.5 -52t-136.5 -137v-29q0 -215 193 -215z" />
    <glyph glyph-name="seven" unicode="7" horiz-adv-x="1239" 
d="M121 0l794 1135h-694l58 272h1046l-43 -227l-813 -1180h-348z" />
    <glyph glyph-name="eight" unicode="8" horiz-adv-x="1277" 
d="M543 -25q-222 0 -363 94t-141 255q0 145 97.5 250t258.5 161q-178 86 -178 264q0 82 34 153t91.5 122t133 87t160 53.5t171.5 17.5q132 0 238.5 -39.5t170.5 -116t64 -178.5q0 -256 -311 -379q95 -41 151 -117t56 -176q0 -106 -53.5 -193t-142.5 -142.5t-202 -85.5
t-235 -30zM682 831q108 6 201.5 73.5t93.5 154.5q0 54 -49.5 86.5t-132.5 32.5q-112 0 -201.5 -64.5t-89.5 -152.5q0 -56 53 -90.5t125 -39.5zM557 229q126 0 226 67.5t100 162.5q0 59 -63.5 95.5t-147.5 39.5q-73 -2 -147.5 -33t-125.5 -86t-51 -117q0 -59 57 -94t152 -35z
" />
    <glyph glyph-name="nine" unicode="9" horiz-adv-x="1320" 
d="M803 1432q245 0 368 -133t123 -363q0 -148 -38 -290.5t-110 -263t-168.5 -212t-222.5 -143.5t-263 -52q-244 0 -416 158l176 217q55 -55 114.5 -81.5t137.5 -26.5q139 0 249.5 103t176.5 267q-74 -55 -165 -84.5t-181 -29.5q-182 0 -296 98.5t-114 265.5
q0 120 50.5 226.5t136 181.5t201 118.5t241.5 43.5zM682 743q95 0 179 52t136 137v29q0 106 -46 160.5t-146 54.5q-125 0 -222.5 -87t-97.5 -196q0 -71 54.5 -110.5t142.5 -39.5z" />
    <glyph glyph-name="colon" unicode=":" horiz-adv-x="593" 
d="M360 715q-77 0 -124.5 48.5t-47.5 121.5q0 85 63.5 143.5t145.5 58.5q71 0 117.5 -48t46.5 -117q0 -83 -61.5 -145t-139.5 -62zM205 -25q-74 0 -121 48t-47 120q0 87 62.5 146t144.5 59q71 0 117.5 -48.5t46.5 -117.5q0 -84 -62 -145.5t-141 -61.5z" />
    <glyph glyph-name="semicolon" unicode=";" horiz-adv-x="612" 
d="M385 825q-74 0 -121 48t-47 120q0 87 62.5 146t146.5 59q69 0 115.5 -48.5t46.5 -117.5q0 -84 -62 -145.5t-141 -61.5zM121 -307l-107 98q110 80 181 195q-64 0 -107 42.5t-43 110.5q0 85 63 147t140 62t121.5 -54.5t44.5 -143.5q0 -124 -78.5 -235.5t-214.5 -221.5z" />
    <glyph glyph-name="less" unicode="&#x3c;" horiz-adv-x="1216" 
d="M995 168l-868 418l47 235l1043 418l-48 -242l-780 -295l655 -290z" />
    <glyph glyph-name="equal" unicode="=" horiz-adv-x="1234" 
d="M180 803l51 244h990l-52 -244h-989zM82 336l51 244h989l-51 -244h-989z" />
    <glyph glyph-name="greater" unicode="&#x3e;" horiz-adv-x="1216" 
d="M74 168l47 244l780 290l-655 295l47 242l870 -418l-47 -235z" />
    <glyph glyph-name="question" unicode="?" horiz-adv-x="1040" 
d="M334 483l69 336q90 4 175.5 32.5t143.5 78.5t58 108q0 56 -42.5 89.5t-116.5 33.5q-149 0 -297 -133l-150 191q236 213 512 213q185 0 294.5 -94t109.5 -244q0 -86 -36.5 -164.5t-97.5 -137.5t-140.5 -101.5t-166.5 -61.5l-28 -146h-287zM418 -25q-74 0 -121 48t-47 120
q0 87 62.5 146t146.5 59q69 0 115.5 -48.5t46.5 -117.5q0 -84 -62 -145.5t-141 -61.5z" />
    <glyph glyph-name="at" unicode="@" horiz-adv-x="1804" 
d="M711 -238q-142 0 -261.5 46.5t-201.5 128t-128 194t-46 242.5q0 189 91 375.5t236.5 325t338 224.5t386.5 86q141 0 260 -45t200 -122.5t126 -183.5t45 -226t-42.5 -238.5t-114 -210.5t-172 -149t-209.5 -57q-101 0 -156 43t-64 118q-156 -159 -335 -159
q-130 0 -203.5 73.5t-73.5 200.5q0 108 50.5 219t131 196t186 139t208.5 54q180 0 239 -147l49 119l242 -19q-33 -82 -74 -181.5t-64.5 -157t-46 -116t-32.5 -93.5t-10 -56q0 -40 23.5 -61t66.5 -21q89 0 163.5 81t113 193.5t38.5 219.5q0 220 -155.5 363t-411.5 143
q-177 0 -350.5 -78.5t-303 -204.5t-210 -294t-80.5 -339q0 -237 158 -391t415 -154q122 0 232 30.5t231 94.5l29 -63q-254 -142 -514 -142zM793 360q81 0 155 54t117 134.5t43 158.5q0 58 -34.5 90t-98.5 32q-122 0 -223 -106t-101 -227q0 -63 38 -99.5t104 -36.5z" />
    <glyph glyph-name="A" unicode="A" horiz-adv-x="1570" 
d="M1100 0l-49 242h-609l-147 -242h-346l866 1407h342l-4 -4l281 -1403h-334zM588 477h418l-103 514z" />
    <glyph glyph-name="B" unicode="B" horiz-adv-x="1431" 
d="M41 0l293 1407h702q163 0 266 -85t103 -218q0 -116 -72 -215t-196 -158q85 -41 136.5 -121.5t51.5 -173.5q0 -126 -74 -227t-195.5 -155t-264.5 -54h-750zM518 840h328q101 0 170 58.5t69 143.5q0 51 -41 79t-116 28h-346zM395 258h373q110 0 186 64.5t76 158.5
q0 57 -44.5 89t-125.5 32h-393z" />
    <glyph glyph-name="C" unicode="C" horiz-adv-x="1433" 
d="M733 -25q-166 0 -308.5 82.5t-227 225.5t-84.5 313q0 163 73 317.5t193.5 267.5t283 182t334.5 69q154 0 293 -67.5t223 -174.5l-245 -182q-44 66 -123 107.5t-170 41.5q-108 0 -210 -46t-177.5 -122t-121.5 -178.5t-46 -210.5q0 -150 102.5 -250t241.5 -100
q85 0 188 47.5t178 120.5l189 -215q-116 -100 -279 -164t-307 -64z" />
    <glyph glyph-name="D" unicode="D" horiz-adv-x="1558" 
d="M41 0l293 1407h495q197 0 353 -73.5t243.5 -205t87.5 -297.5q0 -133 -49 -259.5t-139 -229t-208 -180t-263.5 -120t-298.5 -42.5h-514zM399 274h234q114 0 219.5 43.5t182.5 117t123 174t46 208.5q0 138 -105.5 227t-269.5 89h-249z" />
    <glyph glyph-name="E" unicode="E" horiz-adv-x="1312" 
d="M1348 1135h-781l-55 -281h705l-58 -272h-708l-60 -310h778l-57 -272h-1083l293 1407h1083z" />
    <glyph glyph-name="F" unicode="F" horiz-adv-x="1298" 
d="M1348 1135h-783l-59 -306h706l-57 -272h-709l-114 -557h-303l293 1407h1083z" />
    <glyph glyph-name="G" unicode="G" horiz-adv-x="1519" 
d="M786 545l52 237h620l-121 -579q-123 -106 -284 -167t-312 -61q-175 0 -319.5 82t-226.5 222t-82 307q0 134 49 263t135.5 233t199 183.5t246.5 123t271 43.5q157 0 295 -66t223 -176l-246 -182q-45 70 -126 109.5t-171 39.5q-146 0 -279 -80.5t-212.5 -211t-79.5 -271.5
q0 -143 101.5 -243.5t248.5 -100.5q153 0 305 104l37 191h-324z" />
    <glyph glyph-name="H" unicode="H" horiz-adv-x="1521" 
d="M1264 1407h301l-293 -1407h-301l119 582h-641l-119 -582h-301l293 1407h301l-111 -553h639z" />
    <glyph glyph-name="I" unicode="I" horiz-adv-x="587" 
d="M33 0l293 1407h303l-293 -1407h-303z" />
    <glyph glyph-name="J" unicode="J" horiz-adv-x="1112" 
d="M393 -25q-138 0 -258.5 69t-173.5 175l229 174q20 -65 75 -104t122 -39q99 0 179 71t102 175l188 911h303l-201 -961q-43 -210 -200 -340.5t-365 -130.5z" />
    <glyph glyph-name="K" unicode="K" horiz-adv-x="1421" 
d="M39 0l293 1407h301l-129 -610l680 610h389l-686 -616l418 -791h-353l-307 582l-217 -189l-88 -393h-301z" />
    <glyph glyph-name="L" unicode="L" horiz-adv-x="1187" 
d="M383 272h696l-57 -272h-1004l293 1407h303z" />
    <glyph glyph-name="M" unicode="M" horiz-adv-x="1775" 
d="M41 0l293 1407h299l266 -795l602 795h307l-292 -1407h-304l187 877l-596 -795l-275 795l-186 -877h-301z" />
    <glyph glyph-name="N" unicode="N" horiz-adv-x="1585" 
d="M41 0l293 1407h299l487 -909l193 909h303l-293 -1407h-297l-489 909l-195 -909h-301z" />
    <glyph glyph-name="O" unicode="O" horiz-adv-x="1662" 
d="M731 -25q-173 0 -315.5 81.5t-223.5 221t-81 304.5q0 168 75.5 326t198.5 272t286.5 183t332.5 69q133 0 249.5 -47.5t198 -128.5t128 -193t46.5 -238q0 -167 -76 -325t-199 -272t-287 -183.5t-333 -69.5zM760 250q108 0 211.5 49.5t179 128t122 181.5t46.5 206
q0 147 -96 244.5t-244 97.5q-144 0 -274.5 -80.5t-208.5 -211t-78 -271.5q0 -144 98.5 -244t243.5 -100z" />
    <glyph glyph-name="P" unicode="P" horiz-adv-x="1351" 
d="M29 0l293 1407h620q201 0 325 -110t124 -289q0 -114 -50 -216.5t-134.5 -176t-201 -116t-245.5 -42.5h-334l-96 -457h-301zM483 733h301q118 0 209.5 77.5t91.5 176.5q0 65 -55.5 104t-148.5 39h-314z" />
    <glyph glyph-name="Q" unicode="Q" horiz-adv-x="1665" 
d="M1626 825q0 -150 -60 -290t-167 -256l102 -107l-178 -172l-115 119q-226 -144 -477 -144q-173 0 -315.5 81.5t-223.5 221t-81 304.5q0 168 75.5 326t198.5 272t286.5 183t332.5 69q133 0 249.5 -47.5t198 -128.5t128 -193t46.5 -238zM760 250q129 0 254 72l-140 145
l179 172l147 -154q119 158 119 330q0 147 -96 244.5t-244 97.5q-144 0 -274.5 -80.5t-208.5 -211t-78 -271.5q0 -144 98.5 -244t243.5 -100z" />
    <glyph glyph-name="R" unicode="R" horiz-adv-x="1419" 
d="M1391 1008q0 -180 -116 -321.5t-302 -199.5l295 -487h-336l-277 457h-229l-96 -457h-301l293 1407h620q201 0 325 -110t124 -289zM567 1130l-84 -397h301q118 0 209.5 77.5t91.5 176.5q0 65 -55.5 104t-148.5 39h-314z" />
    <glyph glyph-name="S" unicode="S" horiz-adv-x="1298" 
d="M567 -25q-170 0 -327 65t-258 175l202 195q80 -84 190.5 -131.5t215.5 -47.5q137 0 219 59.5t82 143.5q0 48 -51 75t-197 64q-91 23 -152.5 42.5t-121.5 49.5t-95 65.5t-56 86.5t-21 117q0 216 169.5 357t438.5 141q146 0 282.5 -53t231.5 -148l-189 -205
q-74 71 -172.5 110.5t-181.5 39.5q-121 0 -195.5 -58.5t-74.5 -140.5q0 -49 53 -77.5t197 -63.5q240 -56 341 -134t101 -225t-82.5 -262t-226 -177.5t-322.5 -62.5z" />
    <glyph glyph-name="T" unicode="T" horiz-adv-x="1308" 
d="M393 0l236 1135h-439l58 272h1179l-57 -272h-438l-236 -1135h-303z" />
    <glyph glyph-name="U" unicode="U" horiz-adv-x="1546" 
d="M674 -25q-189 0 -321 83.5t-184.5 230.5t-14.5 332l163 786h304l-166 -799q-34 -160 34.5 -259t210.5 -99q151 0 272.5 109.5t155.5 273.5l162 774h301l-168 -811q-57 -276 -265 -448.5t-484 -172.5z" />
    <glyph glyph-name="V" unicode="V" horiz-adv-x="1538" 
d="M1348 1407h346l-867 -1407h-342l4 4l-280 1403h334l196 -991z" />
    <glyph glyph-name="W" unicode="W" horiz-adv-x="2207" 
d="M356 0l-133 1407h324l59 -944l512 944h328l113 -944l458 944h332l-719 -1407h-303l-127 967l-538 -967h-306z" />
    <glyph glyph-name="X" unicode="X" horiz-adv-x="1480" 
d="M1626 1407l-672 -715l361 -692h-344l-238 459l-432 -459h-375l672 715l-360 692h344l237 -459l432 459h375z" />
    <glyph glyph-name="Y" unicode="Y" horiz-adv-x="1421" 
d="M444 0l111 508l-365 899h285l262 -639l512 639h346l-735 -899l-110 -508h-306z" />
    <glyph glyph-name="Z" unicode="Z" horiz-adv-x="1343" 
d="M-8 0l41 229l930 906h-721l55 272h1139l-43 -229l-926 -906h743l-57 -272h-1161z" />
    <glyph glyph-name="bracketleft" unicode="[" horiz-adv-x="790" 
d="M-25 -291l361 1739h557l-41 -195h-322l-280 -1349h321l-41 -195h-555z" />
    <glyph glyph-name="backslash" unicode="\" horiz-adv-x="940" 
d="M539 -152l-359 1674h309l357 -1674h-307z" />
    <glyph glyph-name="bracketright" unicode="]" horiz-adv-x="790" 
d="M-82 -291l39 195h322l282 1349h-321l41 195h555l-363 -1739h-555z" />
    <glyph glyph-name="asciicircum" unicode="^" horiz-adv-x="999" 
d="M154 846l426 561h206l189 -561h-205l-117 377l-280 -377h-219z" />
    <glyph glyph-name="underscore" unicode="_" horiz-adv-x="1212" 
d="M-178 -311l37 174h1220l-37 -174h-1220z" />
    <glyph glyph-name="grave" unicode="`" horiz-adv-x="755" 
d="M567 1178l-248 270l273 49l170 -319h-195z" />
    <glyph glyph-name="a" unicode="a" horiz-adv-x="1355" 
d="M1036 1059h299l-221 -1059h-299l29 137q-162 -162 -373 -162q-176 0 -288.5 122t-112.5 309q0 132 47 256t126 216.5t192 148.5t237 56q108 0 193.5 -52t133.5 -144zM569 227q125 0 225 89.5t132 218.5l6 26q6 30 6 66q0 89 -60.5 146.5t-152.5 57.5q-149 0 -257 -118.5
t-108 -278.5q0 -90 58.5 -148.5t150.5 -58.5z" />
    <glyph glyph-name="b" unicode="b" horiz-adv-x="1355" 
d="M885 1083q176 0 288.5 -121t112.5 -307q0 -133 -47 -257t-126 -217.5t-192 -149.5t-237 -56q-107 0 -193.5 52t-134.5 143l-34 -170h-299l296 1432h299l-106 -510q161 161 373 161zM631 227q148 0 256 120t108 278q0 89 -58.5 147.5t-148.5 58.5q-120 0 -218 -81
t-136 -203l-14 -70q-2 -16 -2 -45q0 -89 60.5 -147t152.5 -58z" />
    <glyph glyph-name="c" unicode="c" horiz-adv-x="1128" 
d="M547 -25q-133 0 -243.5 62.5t-173 170t-62.5 234.5q0 128 57.5 247.5t152 205t219.5 137t255 51.5q123 0 223.5 -51.5t163.5 -136.5l-219 -152q-28 40 -82.5 64t-110.5 24q-147 0 -261 -116.5t-114 -263.5q0 -94 63.5 -159t155.5 -65q66 0 134 30t120 81l176 -184
q-197 -179 -454 -179z" />
    <glyph glyph-name="d" unicode="d" horiz-adv-x="1355" 
d="M1112 1432h299l-297 -1432h-299l29 137q-162 -162 -373 -162q-176 0 -288.5 122t-112.5 309q0 132 47 256t126 216.5t192 148.5t237 56q107 0 193 -52t134 -142zM569 227q122 0 220.5 84t134.5 209l10 55q4 32 4 52q0 89 -60.5 146.5t-152.5 57.5q-149 0 -257 -118.5
t-108 -278.5q0 -90 58.5 -148.5t150.5 -58.5z" />
    <glyph glyph-name="e" unicode="e" horiz-adv-x="1153" 
d="M600 432h-256v-10q0 -182 193 -182q75 0 150.5 27.5t135.5 76.5l164 -213q-85 -73 -205.5 -114.5t-251.5 -41.5q-211 0 -337.5 123t-126.5 322q0 180 89 333t238.5 241.5t323.5 88.5q175 0 287 -80.5t112 -207.5q0 -177 -136.5 -273t-379.5 -90zM705 821
q-99 0 -178 -46.5t-126 -127.5h238q87 0 135.5 24.5t48.5 67.5q0 36 -33 59t-85 23z" />
    <glyph glyph-name="f" unicode="f" horiz-adv-x="772" 
d="M762 1235q-59 0 -102 -39.5t-54 -91.5l-10 -45h229l-49 -242h-229l-172 -817h-287l170 817h-145l51 242h143l23 104q30 141 129.5 226.5t228.5 85.5q73 0 137 -28.5t105 -72.5l-92 -166q-27 27 -76 27z" />
    <glyph glyph-name="g" unicode="g" horiz-adv-x="1314" 
d="M995 1059h299l-198 -959q-44 -206 -223 -329t-422 -123q-140 0 -259 41t-192 106l133 199q41 -46 118.5 -70t166.5 -24q149 0 256.5 66.5t130.5 170.5l18 90q-76 -73 -170.5 -111t-193.5 -38q-178 0 -285.5 111.5t-107.5 293.5q0 152 74 290t204 224t281 86
q119 0 209.5 -52t128.5 -134zM565 330q135 0 237.5 98t102.5 223q0 86 -50.5 133t-141.5 47q-135 0 -237.5 -96.5t-102.5 -222.5q0 -88 51.5 -135t140.5 -47z" />
    <glyph glyph-name="h" unicode="h" 
d="M836 1083q153 0 243 -89.5t90 -233.5q0 -14 -0.5 -25.5t-3 -30t-5.5 -35.5t-9.5 -51.5t-13 -66.5t-19 -92.5t-25 -117.5t-32.5 -152.5t-39 -188.5h-289q104 488 120.5 571t16.5 115q0 68 -38 106.5t-105 38.5q-95 0 -176 -59.5t-105 -140.5l-131 -631h-299l297 1432h299
l-100 -486q61 64 146 100.5t178 36.5z" />
    <glyph glyph-name="i" unicode="i" horiz-adv-x="557" 
d="M436 1204q-66 0 -108.5 43.5t-42.5 106.5q0 71 54 123.5t124 52.5q63 0 104 -43.5t41 -106.5q0 -69 -53 -122.5t-119 -53.5zM18 0l222 1059h299l-222 -1059h-299z" />
    <glyph glyph-name="j" unicode="j" horiz-adv-x="557" 
d="M440 1204q-65 0 -106 43.5t-41 106.5q0 68 52.5 121t123.5 53q63 0 104 -43.5t41 -106.5q0 -69 -53 -121.5t-121 -52.5zM-68 -365q-58 0 -116.5 14t-96.5 34l60 213q31 -15 96 -15q51 0 94 39t54 92l217 1047h299l-230 -1102q-31 -146 -134.5 -234t-242.5 -88z" />
    <glyph glyph-name="k" unicode="k" horiz-adv-x="1169" 
d="M1276 1059l-512 -469l278 -590h-333l-177 397l-163 -141l-54 -256h-299l297 1432h299l-170 -824l484 451h350z" />
    <glyph glyph-name="l" unicode="l" horiz-adv-x="559" 
d="M23 0l296 1432h299l-296 -1432h-299z" />
    <glyph glyph-name="m" unicode="m" horiz-adv-x="1902" 
d="M1483 1083q153 0 245.5 -90.5t92.5 -236.5q0 -11 -0.5 -20t-3 -25.5t-5.5 -32.5t-9.5 -48.5t-13.5 -66t-19.5 -92.5t-25 -120.5t-32.5 -157t-41 -195.5h-287q22 106 43.5 209.5t34 164.5t24.5 119t18 88t11 55.5t6 37t1 18.5q0 141 -136 141q-88 0 -162.5 -53.5
t-97.5 -132.5q-16 -90 -135 -647h-286q16 74 42 200q96 463 97 492q-4 141 -135 141q-94 0 -172 -60.5t-93 -143.5l-131 -627h-299l222 1059h299l-27 -123q53 71 131 109t170 38q108 0 188.5 -51.5t116.5 -140.5q56 90 156 141t213 51z" />
    <glyph glyph-name="n" unicode="n" 
d="M836 1083q153 0 243 -89.5t90 -233.5q0 -14 -0.5 -25.5t-3 -30t-5.5 -35.5t-9.5 -51.5t-13 -66.5t-19 -92.5t-25 -117.5t-32.5 -152.5t-39 -188.5h-289q104 488 120.5 571t16.5 115q0 68 -38 106.5t-105 38.5q-100 0 -184 -65t-101 -152v2l-129 -616h-299l222 1059h299
l-25 -115q60 65 146.5 102t179.5 37z" />
    <glyph glyph-name="o" unicode="o" horiz-adv-x="1298" 
d="M549 -25q-204 0 -342.5 136t-138.5 331q0 129 57.5 248.5t152 205t219 136.5t253.5 51q204 0 343.5 -136t139.5 -331q0 -128 -58 -247.5t-152.5 -205t-219.5 -137t-254 -51.5zM571 227q73 0 143.5 32.5t122 85t83.5 122t32 141.5q0 94 -65 158.5t-160 64.5
q-149 0 -264 -116t-115 -264q0 -94 64.5 -159t158.5 -65z" />
    <glyph glyph-name="p" unicode="p" horiz-adv-x="1355" 
d="M885 1083q176 0 288.5 -121t112.5 -307q0 -133 -47 -257t-126 -217.5t-192 -149.5t-237 -56q-108 0 -194 52t-134 143l-108 -522h-299l293 1411h299l-29 -137q161 161 373 161zM631 227q148 0 256 120t108 278q0 89 -58.5 147.5t-148.5 58.5q-122 0 -221 -83t-135 -207
l-10 -58q-4 -32 -4 -51q0 -89 60.5 -147t152.5 -58z" />
    <glyph glyph-name="q" unicode="q" horiz-adv-x="1355" 
d="M1036 1059h299l-293 -1411h-299l103 491q-164 -164 -375 -164q-176 0 -288.5 122t-112.5 309q0 132 47 256t126 216.5t192 148.5t237 56q108 0 193.5 -52t133.5 -144zM569 227q98 0 184 57t135.5 149.5t49.5 193.5q0 89 -60.5 146.5t-152.5 57.5q-149 0 -257 -118.5
t-108 -278.5q0 -90 58.5 -148.5t150.5 -58.5z" />
    <glyph glyph-name="r" unicode="r" horiz-adv-x="886" 
d="M504 877q70 98 172 152t221 54l-33 -252q-159 0 -279 -87t-157 -226l-109 -518h-299l222 1059h299z" />
    <glyph glyph-name="s" unicode="s" horiz-adv-x="1030" 
d="M430 -25q-133 0 -254.5 45t-206.5 121l158 191q64 -54 147.5 -81.5t163.5 -27.5q85 0 139 29t54 74q0 26 -30 48.5t-122 47.5q-56 15 -86 24t-74 24.5t-66.5 28.5t-50.5 34t-41 44t-22.5 55t-9.5 70q0 164 135 272.5t338 108.5q216 0 406 -137l-152 -205q-123 93 -260 93
q-74 0 -126 -27t-52 -68q0 -25 31.5 -44.5t125.5 -47.5q52 -15 81.5 -24.5t71.5 -25t65.5 -29.5t51 -36t41 -46t23 -56.5t9.5 -71.5q0 -166 -137.5 -274.5t-350.5 -108.5z" />
    <glyph glyph-name="t" unicode="t" horiz-adv-x="821" 
d="M776 817h-229q-104 -501 -105 -520q0 -70 64 -70q34 0 68.5 13.5t52.5 31.5l43 -213q-114 -84 -254 -84q-121 0 -196 73.5t-75 189.5q0 33 12.5 99t61.5 297q24 113 39 183h-145l51 242h145l62 291h286l-61 -291h229z" />
    <glyph glyph-name="u" unicode="u" 
d="M942 1059h299l-221 -1059h-299l24 115q-61 -65 -146.5 -102.5t-178.5 -37.5q-153 0 -243.5 90t-90.5 234q0 14 0.5 25.5t3 30t5.5 35.5t9.5 51.5t13 66.5t19 92.5t25 117.5t32.5 152.5t39 188.5h289q-104 -488 -120.5 -571t-16.5 -115q0 -69 38.5 -107.5t104.5 -38.5
q100 0 184 65t101 152v-2z" />
    <glyph glyph-name="v" unicode="v" horiz-adv-x="1241" 
d="M375 0l-238 1059h305l136 -715l428 715h319l-672 -1059h-278z" />
    <glyph glyph-name="w" unicode="w" horiz-adv-x="1722" 
d="M287 0l-140 1059h287l62 -660l348 660h248l69 -660l338 660h301l-581 -1059h-269l-55 666l-340 -666h-268z" />
    <glyph glyph-name="x" unicode="x" horiz-adv-x="1159" 
d="M1227 1059l-482 -520l273 -539h-313l-164 319l-297 -319h-324l506 545l-262 514h317l150 -295l274 295h322z" />
    <glyph glyph-name="y" unicode="y" horiz-adv-x="1230" 
d="M197 -369q-66 0 -136.5 20t-121.5 52l88 193q65 -41 125 -41q42 0 84 19.5t63 49.5l57 66l-215 1069h303l121 -744l422 744h311l-667 -1122q-180 -306 -434 -306z" />
    <glyph glyph-name="z" unicode="z" horiz-adv-x="1093" 
d="M-20 0l38 211l656 594h-514l53 254h907l-43 -211l-655 -594h534l-53 -254h-923z" />
    <glyph glyph-name="braceleft" unicode="{" horiz-adv-x="851" 
d="M575 -340q-218 19 -317.5 88.5t-99.5 198.5q0 54 35.5 209.5t35.5 195.5q0 57 -36 80t-121 23l16 180q205 0 246 188l49 246q37 176 157 257.5t382 103.5l6 -187q-115 -15 -178.5 -39.5t-95.5 -66t-48 -115.5l-51 -258q-19 -93 -66.5 -145.5t-140.5 -81.5
q117 -43 117 -172q0 -47 -36 -201.5t-36 -194.5q0 -61 45.5 -85t179.5 -44z" />
    <glyph glyph-name="bar" unicode="|" horiz-adv-x="612" 
d="M61 -152l349 1674h206l-348 -1674h-207z" />
    <glyph glyph-name="braceright" unicode="}" horiz-adv-x="854" 
d="M-63 -340l-9 184q168 22 235 68.5t89 155.5l53 256q19 93 66 145.5t139 83.5q-55 19 -86 63t-31 109q0 43 37 203t37 192q0 58 -46.5 83t-178.5 44l41 180q218 -19 317.5 -88.5t99.5 -199.5q0 -51 -35.5 -210t-35.5 -194q0 -56 36 -78t123 -22l-18 -180q-206 0 -244 -189
l-49 -248q-37 -175 -157 -255.5t-383 -102.5z" />
    <glyph glyph-name="asciitilde" unicode="~" horiz-adv-x="929" 
d="M639 602q-43 0 -84.5 16.5t-67 36t-53 36t-45.5 16.5q-80 0 -127 -119l-143 43q44 136 106.5 198t155.5 62q54 0 104 -26.5t86.5 -52.5t57.5 -26q82 0 129 119l143 -45q-44 -135 -107 -196.5t-155 -61.5z" />
    <glyph glyph-name="exclamdown" unicode="&#xa1;" horiz-adv-x="626" 
d="M408 1083q74 0 120.5 -48t46.5 -120q0 -87 -62 -145.5t-146 -58.5q-69 0 -115.5 48.5t-46.5 117.5q0 83 62 144.5t141 61.5zM428 563l-121 -911h-340l258 911h203z" />
    <glyph glyph-name="cent" unicode="&#xa2;" horiz-adv-x="1128" 
d="M825 338l176 -184q-173 -156 -389 -177l-26 -129h-201l31 144q-155 41 -251.5 165.5t-96.5 284.5q0 115 46 223t124 190.5t183 140t220 77.5l27 133h200l-26 -131q187 -33 297 -180l-219 -152q-45 60 -132 80l-120 -579q91 28 157 94zM352 451q0 -65 32 -118t85 -81
l115 547q-101 -48 -166.5 -144.5t-65.5 -203.5z" />
    <glyph glyph-name="sterling" unicode="&#xa3;" horiz-adv-x="1339" 
d="M575 520l-57 -284h696l-51 -236h-1175l22 125l199 111l59 284h-139l35 162h139l57 279q44 211 201.5 341t362.5 130q148 0 269.5 -69.5t168.5 -174.5l-229 -174q-15 66 -69.5 104.5t-125.5 38.5q-100 0 -181.5 -71t-103.5 -175l-47 -229h334l-35 -162h-330z" />
    <glyph glyph-name="yen" unicode="&#xa5;" horiz-adv-x="1421" 
d="M1595 1407l-610 -748h262l-35 -161h-354l-29 -131h357l-35 -162h-356l-45 -205h-306l45 205h-354l35 162h354l29 131h-356l34 161h263l-304 748h285l262 -639l512 639h346z" />
    <glyph glyph-name="dieresis" unicode="&#xa8;" horiz-adv-x="978" 
d="M432 1196q-60 0 -96.5 38t-36.5 95q0 65 46.5 109.5t107.5 44.5q58 0 94.5 -38.5t36.5 -96.5q0 -62 -46 -107t-106 -45zM866 1196q-60 0 -96.5 38.5t-36.5 96.5q0 63 46.5 107.5t107.5 44.5q58 0 94.5 -38.5t36.5 -94.5q0 -63 -46 -108.5t-106 -45.5z" />
    <glyph glyph-name="macron" unicode="&#xaf;" horiz-adv-x="964" 
d="M266 1190l37 176h707l-37 -176h-707z" />
    <glyph glyph-name="acute" unicode="&#xb4;" horiz-adv-x="772" 
d="M264 1178l303 319l267 -49l-359 -270h-211z" />
    <glyph glyph-name="cedilla" unicode="&#xb8;" horiz-adv-x="669" 
d="M260 -90q55 -4 88 -39t33 -88q0 -86 -68 -136t-170 -50q-112 0 -194 67l63 103q39 -39 105 -39q56 0 89.5 19.5t33.5 53.5q0 20 -10.5 31.5t-28.5 11.5q-41 0 -78 -26l-43 51l92 154h160z" />
    <glyph glyph-name="questiondown" unicode="&#xbf;" horiz-adv-x="1040" 
d="M623 1083q74 0 121 -48t47 -120q0 -87 -62.5 -145.5t-146.5 -58.5q-69 0 -115.5 48.5t-46.5 117.5q0 83 62 144.5t141 61.5zM707 575l-70 -335q-90 -4 -175.5 -33t-143.5 -79t-58 -108q0 -56 43 -89t117 -33q149 0 297 133l149 -191q-236 -213 -512 -213q-185 0 -294 94
t-109 244q0 114 62.5 213t161 162.5t216.5 89.5l29 145h287z" />
    <glyph glyph-name="Agrave" unicode="&#xc0;" horiz-adv-x="1570" 
d="M1081 1526h-194l-248 270l272 49zM1100 0l-49 242h-609l-147 -242h-346l866 1407h342l-4 -4l281 -1403h-334zM588 477h418l-103 514z" />
    <glyph glyph-name="Aacute" unicode="&#xc1;" horiz-adv-x="1570" 
d="M1464 1796l-358 -270h-211l303 319zM1157 1407l-4 -4l281 -1403h-334l-49 242h-609l-147 -242h-346l866 1407h342zM1006 477l-103 514l-315 -514h418z" />
    <glyph glyph-name="Acircumflex" unicode="&#xc2;" horiz-adv-x="1570" 
d="M1057 1677l-189 -151h-192l278 301h248l154 -301h-178zM1100 0l-49 242h-609l-147 -242h-346l866 1407h342l-4 -4l281 -1403h-334zM588 477h418l-103 514z" />
    <glyph glyph-name="Atilde" unicode="&#xc3;" horiz-adv-x="1570" 
d="M926 1626q-80 0 -127 -119l-144 43q44 136 107 198t156 62q42 0 83 -16t67 -36t52.5 -36t44.5 -16q82 0 129 119l144 -45q-44 -135 -107 -196.5t-155 -61.5q-43 0 -84.5 16t-67 36t-53 36t-45.5 16zM1157 1407l-4 -4l281 -1403h-334l-49 242h-609l-147 -242h-346
l866 1407h342zM1006 477l-103 514l-315 -514h418z" />
    <glyph glyph-name="Adieresis" unicode="&#xc4;" horiz-adv-x="1570" 
d="M825 1544q-60 0 -96.5 38t-36.5 95q0 65 46.5 109.5t107.5 44.5q58 0 94.5 -38.5t36.5 -96.5q0 -62 -46 -107t-106 -45zM1260 1544q-60 0 -97 38.5t-37 96.5q0 63 46.5 107.5t107.5 44.5q58 0 94.5 -38.5t36.5 -94.5q0 -63 -45.5 -108.5t-105.5 -45.5zM1100 0l-49 242
h-609l-147 -242h-346l866 1407h342l-4 -4l281 -1403h-334zM588 477h418l-103 514z" />
    <glyph glyph-name="Aring" unicode="&#xc5;" horiz-adv-x="1570" 
d="M1020 1538q-84 0 -137.5 52.5t-53.5 131.5q0 112 89 196.5t198 84.5q84 0 137.5 -52t53.5 -132q0 -111 -88.5 -196t-198.5 -85zM1092 1878q-52 0 -94 -38.5t-42 -88.5q0 -39 26 -64.5t65 -25.5q50 0 90.5 40t40.5 91q0 37 -24 61.5t-62 24.5zM1100 0l-49 242h-609
l-147 -242h-346l866 1407h342l-4 -4l281 -1403h-334zM588 477h418l-103 514z" />
    <glyph glyph-name="AE" unicode="&#xc6;" horiz-adv-x="2205" 
d="M2241 1135h-781l-55 -281h704l-57 -272h-709l-59 -310h778l-57 -272h-1083l51 242h-510l-191 -242h-356l1106 1407h1276zM647 477h373l135 647z" />
    <glyph glyph-name="Ccedilla" unicode="&#xc7;" horiz-adv-x="1433" 
d="M1319 203q-103 -89 -245 -150t-277 -73l-43 -70q55 -4 87.5 -39t32.5 -88q0 -86 -67.5 -136t-169.5 -50q-113 0 -195 67l64 103q39 -39 104 -39q56 0 89.5 19.5t33.5 53.5q0 20 -10.5 31.5t-28.5 11.5q-41 0 -78 -26l-43 51l68 113q-224 34 -376 208t-152 406
q0 163 73 317.5t193.5 267.5t283 182t334.5 69q154 0 293 -67.5t223 -174.5l-245 -182q-44 66 -123 107.5t-170 41.5q-108 0 -210 -46t-177.5 -122t-121.5 -178.5t-46 -210.5q0 -150 102.5 -250t241.5 -100q85 0 188 47.5t178 120.5z" />
    <glyph glyph-name="Egrave" unicode="&#xc8;" horiz-adv-x="1312" 
d="M1075 1526h-194l-248 270l272 49zM1348 1135h-781l-55 -281h705l-58 -272h-708l-60 -310h778l-57 -272h-1083l293 1407h1083z" />
    <glyph glyph-name="Eacute" unicode="&#xc9;" horiz-adv-x="1312" 
d="M1231 1796l-359 -270h-210l303 319zM1348 1135h-781l-55 -281h705l-58 -272h-708l-60 -310h778l-57 -272h-1083l293 1407h1083z" />
    <glyph glyph-name="Ecircumflex" unicode="&#xca;" horiz-adv-x="1312" 
d="M928 1677l-189 -151h-192l278 301h248l154 -301h-178zM1348 1135h-781l-55 -281h705l-58 -272h-708l-60 -310h778l-57 -272h-1083l293 1407h1083z" />
    <glyph glyph-name="Edieresis" unicode="&#xcb;" horiz-adv-x="1312" 
d="M696 1544q-60 0 -96.5 38t-36.5 95q0 65 46.5 109.5t107.5 44.5q58 0 94.5 -38.5t36.5 -96.5q0 -62 -46 -107t-106 -45zM1130 1544q-60 0 -96.5 38.5t-36.5 96.5q0 63 46.5 107.5t107.5 44.5q58 0 94.5 -38.5t36.5 -94.5q0 -63 -46 -108.5t-106 -45.5zM1348 1135h-781
l-55 -281h705l-58 -272h-708l-60 -310h778l-57 -272h-1083l293 1407h1083z" />
    <glyph glyph-name="Igrave" unicode="&#xcc;" horiz-adv-x="587" 
d="M412 1526l-248 270l272 49l170 -319h-194zM33 0l293 1407h303l-293 -1407h-303z" />
    <glyph glyph-name="Iacute" unicode="&#xcd;" horiz-adv-x="587" 
d="M383 1526l303 319l266 -49l-358 -270h-211zM33 0l293 1407h303l-293 -1407h-303z" />
    <glyph glyph-name="Icircumflex" unicode="&#xce;" horiz-adv-x="587" 
d="M160 1526l278 301h248l154 -301h-178l-121 151l-189 -151h-192zM33 0l293 1407h303l-293 -1407h-303z" />
    <glyph glyph-name="Idieresis" unicode="&#xcf;" horiz-adv-x="587" 
d="M309 1544q-60 0 -96.5 38t-36.5 95q0 65 46.5 109.5t107.5 44.5q58 0 94.5 -38.5t36.5 -96.5q0 -62 -46 -107t-106 -45zM743 1544q-60 0 -96.5 38.5t-36.5 96.5q0 63 46.5 107.5t107.5 44.5q58 0 94.5 -38.5t36.5 -94.5q0 -63 -46 -108.5t-106 -45.5zM33 0l293 1407h303
l-293 -1407h-303z" />
    <glyph glyph-name="Eth" unicode="&#xd0;" horiz-adv-x="1642" 
d="M913 1407q197 0 353 -73.5t243.5 -205t87.5 -297.5q0 -133 -49 -259.5t-139 -229t-208 -180t-263.5 -120t-298.5 -42.5h-514l119 573h-150l56 273h151l117 561h495zM717 274q114 0 219.5 43.5t182.5 117t123 174t46 208.5q0 138 -105.5 227t-269.5 89h-249l-60 -287h322
l-58 -273h-321l-64 -299h234z" />
    <glyph glyph-name="Ntilde" unicode="&#xd1;" horiz-adv-x="1585" 
d="M1155 1522q-43 0 -84.5 16t-67 36t-53 36t-45.5 16q-80 0 -127 -119l-143 43q44 136 106.5 198t155.5 62q42 0 83.5 -16t67 -36t52.5 -36t45 -16q82 0 129 119l143 -45q-44 -135 -107 -196.5t-155 -61.5zM41 0l293 1407h299l487 -909l193 909h303l-293 -1407h-297
l-489 909l-195 -909h-301z" />
    <glyph glyph-name="Ograve" unicode="&#xd2;" horiz-adv-x="1662" 
d="M936 1526l-248 270l273 49l169 -319h-194zM731 -25q-173 0 -315.5 81.5t-223.5 221t-81 304.5q0 168 75.5 326t198.5 272t286.5 183t332.5 69q133 0 249.5 -47.5t198 -128.5t128 -193t46.5 -238q0 -167 -76 -325t-199 -272t-287 -183.5t-333 -69.5zM760 250
q108 0 211.5 49.5t179 128t122 181.5t46.5 206q0 147 -96 244.5t-244 97.5q-144 0 -274.5 -80.5t-208.5 -211t-78 -271.5q0 -144 98.5 -244t243.5 -100z" />
    <glyph glyph-name="Oacute" unicode="&#xd3;" horiz-adv-x="1662" 
d="M913 1526l304 319l266 -49l-359 -270h-211zM731 -25q-173 0 -315.5 81.5t-223.5 221t-81 304.5q0 168 75.5 326t198.5 272t286.5 183t332.5 69q133 0 249.5 -47.5t198 -128.5t128 -193t46.5 -238q0 -167 -76 -325t-199 -272t-287 -183.5t-333 -69.5zM760 250
q108 0 211.5 49.5t179 128t122 181.5t46.5 206q0 147 -96 244.5t-244 97.5q-144 0 -274.5 -80.5t-208.5 -211t-78 -271.5q0 -144 98.5 -244t243.5 -100z" />
    <glyph glyph-name="Ocircumflex" unicode="&#xd4;" horiz-adv-x="1662" 
d="M682 1526l279 301h247l154 -301h-178l-121 151l-189 -151h-192zM731 -25q-173 0 -315.5 81.5t-223.5 221t-81 304.5q0 168 75.5 326t198.5 272t286.5 183t332.5 69q133 0 249.5 -47.5t198 -128.5t128 -193t46.5 -238q0 -167 -76 -325t-199 -272t-287 -183.5t-333 -69.5z
M760 250q108 0 211.5 49.5t179 128t122 181.5t46.5 206q0 147 -96 244.5t-244 97.5q-144 0 -274.5 -80.5t-208.5 -211t-78 -271.5q0 -144 98.5 -244t243.5 -100z" />
    <glyph glyph-name="Otilde" unicode="&#xd5;" horiz-adv-x="1662" 
d="M1182 1522q-43 0 -84.5 16t-67 36t-53 36t-45.5 16q-80 0 -127 -119l-143 43q44 136 106.5 198t155.5 62q42 0 83 -16t67 -36t52.5 -36t44.5 -16q82 0 129 119l144 -45q-44 -135 -107 -196.5t-155 -61.5zM731 -25q-173 0 -315.5 81.5t-223.5 221t-81 304.5
q0 168 75.5 326t198.5 272t286.5 183t332.5 69q133 0 249.5 -47.5t198 -128.5t128 -193t46.5 -238q0 -167 -76 -325t-199 -272t-287 -183.5t-333 -69.5zM760 250q108 0 211.5 49.5t179 128t122 181.5t46.5 206q0 147 -96 244.5t-244 97.5q-144 0 -274.5 -80.5t-208.5 -211
t-78 -271.5q0 -144 98.5 -244t243.5 -100z" />
    <glyph glyph-name="Odieresis" unicode="&#xd6;" horiz-adv-x="1662" 
d="M831 1544q-60 0 -96.5 38t-36.5 95q0 65 46.5 109.5t107.5 44.5q58 0 94.5 -38.5t36.5 -96.5q0 -62 -46 -107t-106 -45zM1266 1544q-60 0 -96.5 38.5t-36.5 96.5q0 63 46 107.5t107 44.5q58 0 94.5 -38.5t36.5 -94.5q0 -63 -45.5 -108.5t-105.5 -45.5zM731 -25
q-173 0 -315.5 81.5t-223.5 221t-81 304.5q0 168 75.5 326t198.5 272t286.5 183t332.5 69q133 0 249.5 -47.5t198 -128.5t128 -193t46.5 -238q0 -167 -76 -325t-199 -272t-287 -183.5t-333 -69.5zM760 250q108 0 211.5 49.5t179 128t122 181.5t46.5 206q0 147 -96 244.5
t-244 97.5q-144 0 -274.5 -80.5t-208.5 -211t-78 -271.5q0 -144 98.5 -244t243.5 -100z" />
    <glyph glyph-name="multiply" unicode="&#xd7;" horiz-adv-x="1148" 
d="M1098 946l-314 -260l209 -260l-213 -182l-211 262l-309 -258l-145 172l313 262l-209 260l213 182l211 -262l309 258z" />
    <glyph glyph-name="Oslash" unicode="&#xd8;" horiz-adv-x="1662" 
d="M1753 1407l-237 -225q110 -157 110 -357q0 -167 -76 -325t-199 -272t-287 -183.5t-333 -69.5q-206 0 -366 115l-97 -90h-274l235 223q-118 155 -118 359q0 168 75.5 326t198.5 272t286.5 183t332.5 69q215 0 376 -117l99 92h274zM418 594q0 -88 37 -158l708 672
q-84 49 -184 49q-144 0 -274.5 -80.5t-208.5 -211t-78 -271.5zM1319 815q0 82 -31 152l-704 -670q79 -47 176 -47q108 0 211.5 49.5t179 128t122 181.5t46.5 206z" />
    <glyph glyph-name="Ugrave" unicode="&#xd9;" horiz-adv-x="1546" 
d="M971 1526l-248 270l272 49l170 -319h-194zM674 -25q-189 0 -321 83.5t-184.5 230.5t-14.5 332l163 786h304l-166 -799q-34 -160 34.5 -259t210.5 -99q151 0 272.5 109.5t155.5 273.5l162 774h301l-168 -811q-57 -276 -265 -448.5t-484 -172.5z" />
    <glyph glyph-name="Uacute" unicode="&#xda;" horiz-adv-x="1546" 
d="M752 1526l303 319l266 -49l-358 -270h-211zM674 -25q-189 0 -321 83.5t-184.5 230.5t-14.5 332l163 786h304l-166 -799q-34 -160 34.5 -259t210.5 -99q151 0 272.5 109.5t155.5 273.5l162 774h301l-168 -811q-57 -276 -265 -448.5t-484 -172.5z" />
    <glyph glyph-name="Ucircumflex" unicode="&#xdb;" horiz-adv-x="1546" 
d="M637 1526l278 301h248l154 -301h-178l-121 151l-189 -151h-192zM674 -25q-189 0 -321 83.5t-184.5 230.5t-14.5 332l163 786h304l-166 -799q-34 -160 34.5 -259t210.5 -99q151 0 272.5 109.5t155.5 273.5l162 774h301l-168 -811q-57 -276 -265 -448.5t-484 -172.5z" />
    <glyph glyph-name="Udieresis" unicode="&#xdc;" horiz-adv-x="1546" 
d="M786 1544q-60 0 -96.5 38t-36.5 95q0 65 46.5 109.5t107.5 44.5q58 0 94.5 -38.5t36.5 -96.5q0 -62 -46 -107t-106 -45zM1221 1544q-60 0 -97 38.5t-37 96.5q0 63 46.5 107.5t107.5 44.5q58 0 94.5 -38.5t36.5 -94.5q0 -63 -45.5 -108.5t-105.5 -45.5zM674 -25
q-189 0 -321 83.5t-184.5 230.5t-14.5 332l163 786h304l-166 -799q-34 -160 34.5 -259t210.5 -99q151 0 272.5 109.5t155.5 273.5l162 774h301l-168 -811q-57 -276 -265 -448.5t-484 -172.5z" />
    <glyph glyph-name="Yacute" unicode="&#xdd;" horiz-adv-x="1421" 
d="M659 1526l304 319l266 -49l-359 -270h-211zM444 0l111 508l-365 899h285l262 -639l512 639h346l-735 -899l-110 -508h-306z" />
    <glyph glyph-name="Thorn" unicode="&#xde;" horiz-adv-x="1353" 
d="M29 0l293 1407h296l-47 -225h326q201 0 325 -108.5t124 -285.5q0 -118 -50 -222.5t-134.5 -177.5t-199.5 -115t-241 -42h-342l-49 -231h-301zM436 510h291q124 0 216.5 76t92.5 180q0 66 -54.5 102.5t-152.5 36.5h-309z" />
    <glyph glyph-name="germandbls" unicode="&#xdf;" 
d="M20 0l226 1075q37 177 192 285t369 108q198 0 317 -95.5t119 -250.5q0 -127 -71.5 -228.5t-198.5 -162.5q89 -43 138.5 -120.5t49.5 -174.5q0 -128 -74.5 -229t-195.5 -154t-264 -53h-158l53 258h82q99 0 176.5 64t83.5 151q5 60 -40 94.5t-128 34.5h-102l51 238h35
q93 0 168.5 68t75.5 147q0 50 -38.5 80t-107.5 30q-90 0 -162.5 -54t-89.5 -134l-204 -977h-302z" />
    <glyph glyph-name="agrave" unicode="&#xe0;" horiz-adv-x="1355" 
d="M971 1178h-195l-248 270l273 49zM1036 1059h299l-221 -1059h-299l29 137q-162 -162 -373 -162q-176 0 -288.5 122t-112.5 309q0 132 47 256t126 216.5t192 148.5t237 56q108 0 193.5 -52t133.5 -144zM569 227q125 0 225 89.5t132 218.5l6 26q6 30 6 66q0 89 -60.5 146.5
t-152.5 57.5q-149 0 -257 -118.5t-108 -278.5q0 -90 58.5 -148.5t150.5 -58.5z" />
    <glyph glyph-name="aacute" unicode="&#xe1;" horiz-adv-x="1355" 
d="M1126 1448l-358 -270h-211l303 319zM1036 1059h299l-221 -1059h-299l29 137q-162 -162 -373 -162q-176 0 -288.5 122t-112.5 309q0 132 47 256t126 216.5t192 148.5t237 56q108 0 193.5 -52t133.5 -144zM569 227q125 0 225 89.5t132 218.5l6 26q6 30 6 66
q0 89 -60.5 146.5t-152.5 57.5q-149 0 -257 -118.5t-108 -278.5q0 -90 58.5 -148.5t150.5 -58.5z" />
    <glyph glyph-name="acircumflex" unicode="&#xe2;" horiz-adv-x="1355" 
d="M823 1329l-188 -151h-193l279 301h248l153 -301h-178zM1036 1059h299l-221 -1059h-299l29 137q-162 -162 -373 -162q-176 0 -288.5 122t-112.5 309q0 132 47 256t126 216.5t192 148.5t237 56q108 0 193.5 -52t133.5 -144zM569 227q125 0 225 89.5t132 218.5l6 26
q6 30 6 66q0 89 -60.5 146.5t-152.5 57.5q-149 0 -257 -118.5t-108 -278.5q0 -90 58.5 -148.5t150.5 -58.5z" />
    <glyph glyph-name="atilde" unicode="&#xe3;" horiz-adv-x="1355" 
d="M692 1278q-80 0 -127 -119l-143 43q44 136 106.5 198t155.5 62q42 0 83.5 -16t67 -36t52.5 -36t45 -16q82 0 129 119l143 -45q-44 -135 -107 -196.5t-155 -61.5q-43 0 -84.5 16t-67 36t-53 36t-45.5 16zM1036 1059h299l-221 -1059h-299l29 137q-162 -162 -373 -162
q-176 0 -288.5 122t-112.5 309q0 132 47 256t126 216.5t192 148.5t237 56q108 0 193.5 -52t133.5 -144zM569 227q125 0 225 89.5t132 218.5l6 26q6 30 6 66q0 89 -60.5 146.5t-152.5 57.5q-149 0 -257 -118.5t-108 -278.5q0 -90 58.5 -148.5t150.5 -58.5z" />
    <glyph glyph-name="adieresis" unicode="&#xe4;" horiz-adv-x="1355" 
d="M592 1196q-60 0 -96.5 38t-36.5 95q0 65 46 109.5t107 44.5q58 0 94.5 -38.5t36.5 -96.5q0 -62 -46 -107t-105 -45zM1026 1196q-60 0 -96.5 38.5t-36.5 96.5q0 63 46.5 107.5t107.5 44.5q58 0 94.5 -38.5t36.5 -94.5q0 -63 -46 -108.5t-106 -45.5zM1036 1059h299
l-221 -1059h-299l29 137q-162 -162 -373 -162q-176 0 -288.5 122t-112.5 309q0 132 47 256t126 216.5t192 148.5t237 56q108 0 193.5 -52t133.5 -144zM569 227q125 0 225 89.5t132 218.5l6 26q6 30 6 66q0 89 -60.5 146.5t-152.5 57.5q-149 0 -257 -118.5t-108 -278.5
q0 -90 58.5 -148.5t150.5 -58.5z" />
    <glyph glyph-name="aring" unicode="&#xe5;" horiz-adv-x="1355" 
d="M786 1190q-84 0 -137 52.5t-53 131.5q0 112 89 196.5t198 84.5q84 0 137 -52.5t53 -132.5q0 -111 -88.5 -195.5t-198.5 -84.5zM858 1530q-52 0 -93.5 -38.5t-41.5 -88.5q0 -39 25.5 -64.5t64.5 -25.5q50 0 90.5 40t40.5 91q0 37 -24 61.5t-62 24.5zM1036 1059h299
l-221 -1059h-299l29 137q-162 -162 -373 -162q-176 0 -288.5 122t-112.5 309q0 132 47 256t126 216.5t192 148.5t237 56q108 0 193.5 -52t133.5 -144zM569 227q125 0 225 89.5t132 218.5l6 26q6 30 6 66q0 89 -60.5 146.5t-152.5 57.5q-149 0 -257 -118.5t-108 -278.5
q0 -90 58.5 -148.5t150.5 -58.5z" />
    <glyph glyph-name="ae" unicode="&#xe6;" horiz-adv-x="1851" 
d="M1309 432h-256v-10q0 -182 192 -182q75 0 151 27.5t136 76.5l164 -213q-85 -73 -205.5 -114.5t-251.5 -41.5q-126 0 -225 46.5t-158 130.5q-79 -84 -192.5 -130.5t-245.5 -46.5q-207 0 -315 100t-74 261q30 147 169.5 238.5t319.5 91.5q135 0 279 -62l8 41q19 91 -24 145
t-160 54q-133 0 -297 -80l-78 209q126 57 227 83.5t201 26.5q119 0 203.5 -42t128.5 -117q183 159 419 159q175 0 287.5 -80.5t112.5 -207.5q0 -177 -136.5 -273t-379.5 -90zM1413 821q-99 0 -177.5 -46.5t-125.5 -127.5h238q87 0 135.5 24.5t48.5 67.5q0 35 -33.5 58.5
t-85.5 23.5zM453 182q109 0 194 58t103 139l12 61q-91 31 -203 31q-88 0 -160.5 -50t-87.5 -122q-12 -55 26 -86t116 -31z" />
    <glyph glyph-name="ccedilla" unicode="&#xe7;" horiz-adv-x="1128" 
d="M1001 154q-180 -160 -395 -177l-43 -67q55 -4 88 -39t33 -88q0 -86 -68 -136t-170 -50q-112 0 -194 67l63 103q39 -39 105 -39q56 0 89.5 19.5t33.5 53.5q0 20 -10.5 31.5t-28.5 11.5q-41 0 -78 -26l-43 51l70 115q-169 32 -277 160t-108 298q0 128 57.5 247.5t152 205
t219.5 137t255 51.5q123 0 223.5 -51.5t163.5 -136.5l-219 -152q-28 40 -82.5 64t-110.5 24q-147 0 -261 -116.5t-114 -263.5q0 -94 63.5 -159t155.5 -65q66 0 134 30t120 81z" />
    <glyph glyph-name="egrave" unicode="&#xe8;" horiz-adv-x="1153" 
d="M928 1178h-195l-248 270l273 49zM600 432h-256v-10q0 -182 193 -182q75 0 150.5 27.5t135.5 76.5l164 -213q-85 -73 -205.5 -114.5t-251.5 -41.5q-211 0 -337.5 123t-126.5 322q0 180 89 333t238.5 241.5t323.5 88.5q175 0 287 -80.5t112 -207.5q0 -177 -136.5 -273
t-379.5 -90zM705 821q-99 0 -178 -46.5t-126 -127.5h238q87 0 135.5 24.5t48.5 67.5q0 36 -33 59t-85 23z" />
    <glyph glyph-name="eacute" unicode="&#xe9;" horiz-adv-x="1153" 
d="M1083 1448l-358 -270h-211l303 319zM600 432h-256v-10q0 -182 193 -182q75 0 150.5 27.5t135.5 76.5l164 -213q-85 -73 -205.5 -114.5t-251.5 -41.5q-211 0 -337.5 123t-126.5 322q0 180 89 333t238.5 241.5t323.5 88.5q175 0 287 -80.5t112 -207.5q0 -177 -136.5 -273
t-379.5 -90zM705 821q-99 0 -178 -46.5t-126 -127.5h238q87 0 135.5 24.5t48.5 67.5q0 36 -33 59t-85 23z" />
    <glyph glyph-name="ecircumflex" unicode="&#xea;" horiz-adv-x="1153" 
d="M780 1329l-188 -151h-193l279 301h248l153 -301h-178zM600 432h-256v-10q0 -182 193 -182q75 0 150.5 27.5t135.5 76.5l164 -213q-85 -73 -205.5 -114.5t-251.5 -41.5q-211 0 -337.5 123t-126.5 322q0 180 89 333t238.5 241.5t323.5 88.5q175 0 287 -80.5t112 -207.5
q0 -177 -136.5 -273t-379.5 -90zM705 821q-99 0 -178 -46.5t-126 -127.5h238q87 0 135.5 24.5t48.5 67.5q0 36 -33 59t-85 23z" />
    <glyph glyph-name="edieresis" unicode="&#xeb;" horiz-adv-x="1153" 
d="M549 1196q-60 0 -96.5 38t-36.5 95q0 65 46 109.5t107 44.5q58 0 94.5 -38.5t36.5 -96.5q0 -62 -46 -107t-105 -45zM983 1196q-60 0 -96.5 38.5t-36.5 96.5q0 63 46.5 107.5t107.5 44.5q58 0 94.5 -38.5t36.5 -94.5q0 -63 -46 -108.5t-106 -45.5zM717 1083
q175 0 287 -80.5t112 -207.5q0 -177 -136.5 -273t-379.5 -90h-256v-10q0 -182 193 -182q75 0 150.5 27.5t135.5 76.5l164 -213q-85 -73 -205.5 -114.5t-251.5 -41.5q-211 0 -337.5 123t-126.5 322q0 180 89 333t238.5 241.5t323.5 88.5zM639 647q87 0 135.5 24.5t48.5 67.5
q0 36 -33 59t-85 23q-99 0 -178 -46.5t-126 -127.5h238z" />
    <glyph glyph-name="igrave" unicode="&#xec;" horiz-adv-x="557" 
d="M315 1178l-247 270l272 49l170 -319h-195zM18 0l222 1059h299l-222 -1059h-299z" />
    <glyph glyph-name="iacute" unicode="&#xed;" horiz-adv-x="557" 
d="M305 1178l303 319l266 -49l-358 -270h-211zM18 0l222 1059h299l-222 -1059h-299z" />
    <glyph glyph-name="icircumflex" unicode="&#xee;" horiz-adv-x="557" 
d="M72 1178l278 301h248l154 -301h-179l-120 151l-189 -151h-192zM18 0l222 1059h299l-222 -1059h-299z" />
    <glyph glyph-name="idieresis" unicode="&#xef;" horiz-adv-x="557" 
d="M221 1196q-60 0 -96.5 38t-36.5 95q0 65 46.5 109.5t107.5 44.5q58 0 94.5 -38.5t36.5 -96.5q0 -62 -46 -107t-106 -45zM655 1196q-60 0 -96.5 38.5t-36.5 96.5q0 63 46.5 107.5t107.5 44.5q58 0 94.5 -38.5t36.5 -94.5q0 -63 -46 -108.5t-106 -45.5zM18 0l222 1059h299
l-222 -1059h-299z" />
    <glyph glyph-name="eth" unicode="&#xf0;" horiz-adv-x="1296" 
d="M997 1255q118 -137 176 -264.5t58 -269.5q0 -148 -51.5 -284.5t-140 -238.5t-215.5 -162.5t-269 -60.5q-215 0 -345 120t-130 315q0 156 72.5 294.5t201.5 223t281 84.5q181 0 299 -146q-34 148 -174 291l-240 -98l-39 158l148 61q-75 61 -129 100l276 101
q37 -33 103 -99l208 86l41 -157zM571 229q140 0 245.5 107.5t105.5 245.5q0 84 -53.5 136t-149.5 52q-143 0 -247.5 -107t-104.5 -245q0 -88 54.5 -138.5t149.5 -50.5z" />
    <glyph glyph-name="ntilde" unicode="&#xf1;" 
d="M688 1278q-80 0 -127 -119l-143 43q44 136 106.5 198t155.5 62q42 0 83.5 -16t67 -36t52.5 -36t45 -16q82 0 129 119l143 -45q-44 -135 -107 -196.5t-155 -61.5q-43 0 -84.5 16t-67 36t-53 36t-45.5 16zM836 1083q153 0 243 -89.5t90 -233.5q0 -14 -0.5 -25.5t-3 -30
t-5.5 -35.5t-9.5 -51.5t-13 -66.5t-19 -92.5t-25 -117.5t-32.5 -152.5t-39 -188.5h-289q104 488 120.5 571t16.5 115q0 68 -38 106.5t-105 38.5q-100 0 -184 -65t-101 -152v2l-129 -616h-299l222 1059h299l-25 -115q60 65 146.5 102t179.5 37z" />
    <glyph glyph-name="ograve" unicode="&#xf2;" horiz-adv-x="1298" 
d="M764 1178l-248 270l272 49l170 -319h-194zM549 -25q-204 0 -342.5 136t-138.5 331q0 129 57.5 248.5t152 205t219 136.5t253.5 51q204 0 343.5 -136t139.5 -331q0 -128 -58 -247.5t-152.5 -205t-219.5 -137t-254 -51.5zM571 227q73 0 143.5 32.5t122 85t83.5 122
t32 141.5q0 94 -65 158.5t-160 64.5q-149 0 -264 -116t-115 -264q0 -94 64.5 -159t158.5 -65z" />
    <glyph glyph-name="oacute" unicode="&#xf3;" horiz-adv-x="1298" 
d="M545 1178l303 319l266 -49l-358 -270h-211zM549 -25q-204 0 -342.5 136t-138.5 331q0 129 57.5 248.5t152 205t219 136.5t253.5 51q204 0 343.5 -136t139.5 -331q0 -128 -58 -247.5t-152.5 -205t-219.5 -137t-254 -51.5zM571 227q73 0 143.5 32.5t122 85t83.5 122
t32 141.5q0 94 -65 158.5t-160 64.5q-149 0 -264 -116t-115 -264q0 -94 64.5 -159t158.5 -65z" />
    <glyph glyph-name="ocircumflex" unicode="&#xf4;" horiz-adv-x="1298" 
d="M430 1178l279 301h247l154 -301h-178l-121 151l-188 -151h-193zM549 -25q-204 0 -342.5 136t-138.5 331q0 129 57.5 248.5t152 205t219 136.5t253.5 51q204 0 343.5 -136t139.5 -331q0 -128 -58 -247.5t-152.5 -205t-219.5 -137t-254 -51.5zM571 227q73 0 143.5 32.5
t122 85t83.5 122t32 141.5q0 94 -65 158.5t-160 64.5q-149 0 -264 -116t-115 -264q0 -94 64.5 -159t158.5 -65z" />
    <glyph glyph-name="otilde" unicode="&#xf5;" horiz-adv-x="1298" 
d="M930 1174q-43 0 -84.5 16t-67 36t-53 36t-45.5 16q-80 0 -127 -119l-143 43q44 136 106.5 198t155.5 62q42 0 83.5 -16t67 -36t52.5 -36t45 -16q82 0 129 119l143 -45q-44 -135 -107 -196.5t-155 -61.5zM549 -25q-204 0 -342.5 136t-138.5 331q0 129 57.5 248.5t152 205
t219 136.5t253.5 51q204 0 343.5 -136t139.5 -331q0 -128 -58 -247.5t-152.5 -205t-219.5 -137t-254 -51.5zM571 227q73 0 143.5 32.5t122 85t83.5 122t32 141.5q0 94 -65 158.5t-160 64.5q-149 0 -264 -116t-115 -264q0 -94 64.5 -159t158.5 -65z" />
    <glyph glyph-name="odieresis" unicode="&#xf6;" horiz-adv-x="1298" 
d="M580 1196q-60 0 -97 38t-37 95q0 65 46.5 109.5t107.5 44.5q58 0 94.5 -38.5t36.5 -96.5q0 -62 -46 -107t-105 -45zM1014 1196q-60 0 -96.5 38.5t-36.5 96.5q0 63 46 107.5t107 44.5q58 0 94.5 -38.5t36.5 -94.5q0 -63 -45.5 -108.5t-105.5 -45.5zM549 -25
q-204 0 -342.5 136t-138.5 331q0 129 57.5 248.5t152 205t219 136.5t253.5 51q204 0 343.5 -136t139.5 -331q0 -128 -58 -247.5t-152.5 -205t-219.5 -137t-254 -51.5zM571 227q73 0 143.5 32.5t122 85t83.5 122t32 141.5q0 94 -65 158.5t-160 64.5q-149 0 -264 -116
t-115 -264q0 -94 64.5 -159t158.5 -65z" />
    <glyph glyph-name="divide" unicode="&#xf7;" horiz-adv-x="1234" 
d="M719 905q-67 0 -109.5 43.5t-42.5 108.5q0 77 55 127.5t126 50.5q63 0 104 -44t41 -106q0 -73 -53 -126.5t-121 -53.5zM129 563l51 244h989l-51 -244h-989zM559 133q-68 0 -109.5 43.5t-41.5 108.5q0 77 54 127.5t126 50.5q62 0 103.5 -43t41.5 -105q0 -73 -53 -127.5
t-121 -54.5z" />
    <glyph glyph-name="oslash" unicode="&#xf8;" horiz-adv-x="1298" 
d="M1329 1059l-184 -172q88 -122 88 -271q0 -128 -58 -247.5t-152.5 -205t-219.5 -137t-254 -51.5q-159 0 -287 88l-67 -63h-226l185 172q-86 119 -86 270q0 129 57.5 248.5t152 205t219 136.5t253.5 51q158 0 286 -88l70 64h223zM348 451q0 -38 17 -84l469 438
q-50 26 -107 26q-149 0 -264 -116t-115 -264zM952 608q0 41 -16 84l-471 -438q56 -27 106 -27q73 0 143.5 32.5t122 85t83.5 122t32 141.5z" />
    <glyph glyph-name="ugrave" unicode="&#xf9;" 
d="M946 1178h-194l-248 270l272 49zM942 1059h299l-221 -1059h-299l24 115q-61 -65 -146.5 -102.5t-178.5 -37.5q-153 0 -243.5 90t-90.5 234q0 14 0.5 25.5t3 30t5.5 35.5t9.5 51.5t13 66.5t19 92.5t25 117.5t32.5 152.5t39 188.5h289q-104 -488 -120.5 -571t-16.5 -115
q0 -69 38.5 -107.5t104.5 -38.5q100 0 184 65t101 152v-2z" />
    <glyph glyph-name="uacute" unicode="&#xfa;" 
d="M1102 1448l-359 -270h-211l304 319zM942 1059h299l-221 -1059h-299l24 115q-61 -65 -146.5 -102.5t-178.5 -37.5q-153 0 -243.5 90t-90.5 234q0 14 0.5 25.5t3 30t5.5 35.5t9.5 51.5t13 66.5t19 92.5t25 117.5t32.5 152.5t39 188.5h289q-104 -488 -120.5 -571t-16.5 -115
q0 -69 38.5 -107.5t104.5 -38.5q100 0 184 65t101 152v-2z" />
    <glyph glyph-name="ucircumflex" unicode="&#xfb;" 
d="M799 1329l-189 -151h-192l278 301h248l154 -301h-178zM942 1059h299l-221 -1059h-299l24 115q-61 -65 -146.5 -102.5t-178.5 -37.5q-153 0 -243.5 90t-90.5 234q0 14 0.5 25.5t3 30t5.5 35.5t9.5 51.5t13 66.5t19 92.5t25 117.5t32.5 152.5t39 188.5h289
q-104 -488 -120.5 -571t-16.5 -115q0 -69 38.5 -107.5t104.5 -38.5q100 0 184 65t101 152v-2z" />
    <glyph glyph-name="udieresis" unicode="&#xfc;" 
d="M567 1196q-60 0 -96.5 38t-36.5 95q0 65 46.5 109.5t107.5 44.5q58 0 94.5 -38.5t36.5 -96.5q0 -62 -46 -107t-106 -45zM1001 1196q-60 0 -96.5 38.5t-36.5 96.5q0 63 46.5 107.5t107.5 44.5q58 0 94.5 -38.5t36.5 -94.5q0 -63 -46 -108.5t-106 -45.5zM942 1059h299
l-221 -1059h-299l24 115q-61 -65 -146.5 -102.5t-178.5 -37.5q-153 0 -243.5 90t-90.5 234q0 14 0.5 25.5t3 30t5.5 35.5t9.5 51.5t13 66.5t19 92.5t25 117.5t32.5 152.5t39 188.5h289q-104 -488 -120.5 -571t-16.5 -115q0 -69 38.5 -107.5t104.5 -38.5q100 0 184 65
t101 152v-2z" />
    <glyph glyph-name="yacute" unicode="&#xfd;" horiz-adv-x="1230" 
d="M520 1178l303 319l267 -49l-359 -270h-211zM197 -369q-66 0 -136.5 20t-121.5 52l88 193q65 -41 125 -41q42 0 84 19.5t63 49.5l57 66l-215 1069h303l121 -744l422 744h311l-667 -1122q-180 -306 -434 -306z" />
    <glyph glyph-name="thorn" unicode="&#xfe;" horiz-adv-x="1355" 
d="M885 1083q176 0 288.5 -121t112.5 -307q0 -133 -47 -257t-126 -217.5t-192 -149.5t-237 -56q-108 0 -194 52t-134 143l-108 -522h-299l370 1784h299l-106 -510q161 161 373 161zM631 227q148 0 256 120t108 278q0 89 -58.5 147.5t-148.5 58.5q-122 0 -220 -82.5
t-134 -205.5l-14 -64q-2 -14 -2 -47q0 -89 60.5 -147t152.5 -58z" />
    <glyph glyph-name="ydieresis" unicode="&#xff;" horiz-adv-x="1230" 
d="M555 1196q-60 0 -96.5 38t-36.5 95q0 65 46 109.5t107 44.5q58 0 95 -38.5t37 -96.5q0 -62 -46 -107t-106 -45zM989 1196q-60 0 -96.5 38.5t-36.5 96.5q0 63 46.5 107.5t107.5 44.5q58 0 94.5 -38.5t36.5 -94.5q0 -63 -46 -108.5t-106 -45.5zM197 -369q-66 0 -136.5 20
t-121.5 52l88 193q65 -41 125 -41q42 0 84 19.5t63 49.5l57 66l-215 1069h303l121 -744l422 744h311l-667 -1122q-180 -306 -434 -306z" />
    <glyph glyph-name="Amacron" unicode="&#x100;" horiz-adv-x="1570" 
d="M1411 1714l-37 -176h-706l37 176h706zM1100 0l-49 242h-609l-147 -242h-346l866 1407h342l-4 -4l281 -1403h-334zM588 477h418l-103 514z" />
    <glyph glyph-name="amacron" unicode="&#x101;" horiz-adv-x="1355" 
d="M1178 1366l-37 -176h-707l37 176h707zM1036 1059h299l-221 -1059h-299l29 137q-162 -162 -373 -162q-176 0 -288.5 122t-112.5 309q0 132 47 256t126 216.5t192 148.5t237 56q108 0 193.5 -52t133.5 -144zM569 227q125 0 225 89.5t132 218.5l6 26q6 30 6 66
q0 89 -60.5 146.5t-152.5 57.5q-149 0 -257 -118.5t-108 -278.5q0 -90 58.5 -148.5t150.5 -58.5z" />
    <glyph glyph-name="Abreve" unicode="&#x102;" horiz-adv-x="1570" 
d="M1026 1538q-189 0 -305 137l153 127q70 -86 181 -86t221 88l104 -133q-161 -133 -354 -133zM1100 0l-49 242h-609l-147 -242h-346l866 1407h342l-4 -4l281 -1403h-334zM588 477h418l-103 514z" />
    <glyph glyph-name="abreve" unicode="&#x103;" horiz-adv-x="1355" 
d="M793 1190q-190 0 -306 137l154 127q70 -86 180 -86q111 0 221 88l105 -133q-161 -133 -354 -133zM1036 1059h299l-221 -1059h-299l29 137q-162 -162 -373 -162q-176 0 -288.5 122t-112.5 309q0 132 47 256t126 216.5t192 148.5t237 56q108 0 193.5 -52t133.5 -144z
M569 227q125 0 225 89.5t132 218.5l6 26q6 30 6 66q0 89 -60.5 146.5t-152.5 57.5q-149 0 -257 -118.5t-108 -278.5q0 -90 58.5 -148.5t150.5 -58.5z" />
    <glyph glyph-name="Aogonek" unicode="&#x104;" horiz-adv-x="1570" 
d="M1473 -137l36 -158q-76 -59 -182 -59q-93 0 -147 51t-54 141t56 162h-82l-49 242h-609l-147 -242h-346l866 1407h342l-4 -4l281 -1399l10 -4q-54 0 -91.5 -34t-37.5 -85q0 -55 59 -55q62 0 99 37zM588 477h418l-103 514z" />
    <glyph glyph-name="aogonek" unicode="&#x105;" horiz-adv-x="1355" 
d="M1055 -174q61 0 98 37l37 -158q-76 -59 -182 -59q-93 0 -147 51t-54 141q0 91 55 162h-47l29 137q-162 -162 -373 -162q-176 0 -288.5 122t-112.5 309q0 132 47 256t126 216.5t192 148.5t237 56q108 0 193.5 -52t133.5 -144l37 172h299l-221 -1055l10 -4q-54 0 -91.5 -34
t-37.5 -85q0 -55 60 -55zM569 227q125 0 225 89.5t132 218.5l6 26q6 30 6 66q0 89 -60.5 146.5t-152.5 57.5q-149 0 -257 -118.5t-108 -278.5q0 -90 58.5 -148.5t150.5 -58.5z" />
    <glyph glyph-name="Cacute" unicode="&#x106;" horiz-adv-x="1433" 
d="M750 1526l303 319l266 -49l-358 -270h-211zM733 -25q-166 0 -308.5 82.5t-227 225.5t-84.5 313q0 163 73 317.5t193.5 267.5t283 182t334.5 69q154 0 293 -67.5t223 -174.5l-245 -182q-44 66 -123 107.5t-170 41.5q-108 0 -210 -46t-177.5 -122t-121.5 -178.5t-46 -210.5
q0 -150 102.5 -250t241.5 -100q85 0 188 47.5t178 120.5l189 -215q-116 -100 -279 -164t-307 -64z" />
    <glyph glyph-name="cacute" unicode="&#x107;" horiz-adv-x="1128" 
d="M518 1178l303 319l266 -49l-358 -270h-211zM547 -25q-133 0 -243.5 62.5t-173 170t-62.5 234.5q0 128 57.5 247.5t152 205t219.5 137t255 51.5q123 0 223.5 -51.5t163.5 -136.5l-219 -152q-28 40 -82.5 64t-110.5 24q-147 0 -261 -116.5t-114 -263.5q0 -94 63.5 -159
t155.5 -65q66 0 134 30t120 81l176 -184q-197 -179 -454 -179z" />
    <glyph glyph-name="Ccaron" unicode="&#x10c;" horiz-adv-x="1433" 
d="M858 1526l-151 301h178l116 -154l193 154h192l-280 -301h-248zM733 -25q-166 0 -308.5 82.5t-227 225.5t-84.5 313q0 163 73 317.5t193.5 267.5t283 182t334.5 69q154 0 293 -67.5t223 -174.5l-245 -182q-44 66 -123 107.5t-170 41.5q-108 0 -210 -46t-177.5 -122
t-121.5 -178.5t-46 -210.5q0 -150 102.5 -250t241.5 -100q85 0 188 47.5t178 120.5l189 -215q-116 -100 -279 -164t-307 -64z" />
    <glyph glyph-name="ccaron" unicode="&#x10d;" horiz-adv-x="1128" 
d="M627 1178l-152 301h178l117 -154l193 154h192l-281 -301h-247zM547 -25q-133 0 -243.5 62.5t-173 170t-62.5 234.5q0 128 57.5 247.5t152 205t219.5 137t255 51.5q123 0 223.5 -51.5t163.5 -136.5l-219 -152q-28 40 -82.5 64t-110.5 24q-147 0 -261 -116.5t-114 -263.5
q0 -94 63.5 -159t155.5 -65q66 0 134 30t120 81l176 -184q-197 -179 -454 -179z" />
    <glyph glyph-name="Dcaron" unicode="&#x10e;" horiz-adv-x="1558" 
d="M735 1526l-151 301h178l117 -154l192 154h193l-281 -301h-248zM41 0l293 1407h495q197 0 353 -73.5t243.5 -205t87.5 -297.5q0 -133 -49 -259.5t-139 -229t-208 -180t-263.5 -120t-298.5 -42.5h-514zM399 274h234q114 0 219.5 43.5t182.5 117t123 174t46 208.5
q0 138 -105.5 227t-269.5 89h-249z" />
    <glyph glyph-name="dcaron" unicode="&#x10f;" horiz-adv-x="1353" 
d="M999 889l113 543h299l-297 -1432h-299l29 137q-162 -162 -373 -162q-176 0 -288.5 122t-112.5 309q0 132 47 256t126 216.5t192 148.5t237 56q107 0 193 -52t134 -142zM1667 1432q61 0 96 -43.5t35 -114.5q0 -94 -59.5 -177.5t-165.5 -170.5l-84 78q89 68 141 153
q-55 -1 -83.5 32.5t-28.5 88.5q0 62 44.5 108t104.5 46zM569 227q122 0 220.5 84t134.5 209l10 55q4 32 4 52q0 89 -60.5 146.5t-152.5 57.5q-149 0 -257 -118.5t-108 -278.5q0 -90 58.5 -148.5t150.5 -58.5z" />
    <glyph glyph-name="Dcroat" unicode="&#x110;" horiz-adv-x="1642" 
d="M913 1407q197 0 353 -73.5t243.5 -205t87.5 -297.5q0 -133 -49 -259.5t-139 -229t-208 -180t-263.5 -120t-298.5 -42.5h-514l119 573h-150l56 273h151l117 561h495zM717 274q114 0 219.5 43.5t182.5 117t123 174t46 208.5q0 138 -105.5 227t-269.5 89h-249l-60 -287h322
l-58 -273h-321l-64 -299h234z" />
    <glyph glyph-name="dcroat" unicode="&#x111;" horiz-adv-x="1404" 
d="M1509 1325l-32 -151h-119l-244 -1174h-299l29 137q-162 -162 -373 -162q-176 0 -288.5 122t-112.5 309q0 132 47 256t126 216.5t192 148.5t237 56q107 0 193 -52t134 -142l60 285h-316l33 151h314l22 107h299l-22 -107h120zM569 227q122 0 220.5 84t134.5 209l10 55
q4 32 4 52q0 89 -60.5 146.5t-152.5 57.5q-149 0 -257 -118.5t-108 -278.5q0 -90 58.5 -148.5t150.5 -58.5z" />
    <glyph glyph-name="Emacron" unicode="&#x112;" horiz-adv-x="1312" 
d="M1282 1714l-37 -176h-706l36 176h707zM1348 1135h-781l-55 -281h705l-58 -272h-708l-60 -310h778l-57 -272h-1083l293 1407h1083z" />
    <glyph glyph-name="emacron" unicode="&#x113;" horiz-adv-x="1153" 
d="M1135 1366l-37 -176h-707l37 176h707zM717 1083q175 0 287 -80.5t112 -207.5q0 -177 -136.5 -273t-379.5 -90h-256v-10q0 -182 193 -182q75 0 150.5 27.5t135.5 76.5l164 -213q-85 -73 -205.5 -114.5t-251.5 -41.5q-211 0 -337.5 123t-126.5 322q0 180 89 333
t238.5 241.5t323.5 88.5zM639 647q87 0 135.5 24.5t48.5 67.5q0 36 -33 59t-85 23q-99 0 -178 -46.5t-126 -127.5h238z" />
    <glyph glyph-name="Edotaccent" unicode="&#x116;" horiz-adv-x="1312" 
d="M911 1544q-60 0 -96.5 38t-36.5 95q0 65 46.5 109.5t107.5 44.5q58 0 94.5 -38.5t36.5 -96.5q0 -62 -46 -107t-106 -45zM1348 1135h-781l-55 -281h705l-58 -272h-708l-60 -310h778l-57 -272h-1083l293 1407h1083z" />
    <glyph glyph-name="edotaccent" unicode="&#x117;" horiz-adv-x="1153" 
d="M764 1196q-60 0 -96.5 38t-36.5 95q0 65 46 109.5t107 44.5q58 0 94.5 -38.5t36.5 -96.5q0 -62 -46 -107t-105 -45zM600 432h-256v-10q0 -182 193 -182q75 0 150.5 27.5t135.5 76.5l164 -213q-85 -73 -205.5 -114.5t-251.5 -41.5q-211 0 -337.5 123t-126.5 322
q0 180 89 333t238.5 241.5t323.5 88.5q175 0 287 -80.5t112 -207.5q0 -177 -136.5 -273t-379.5 -90zM705 821q-99 0 -178 -46.5t-126 -127.5h238q87 0 135.5 24.5t48.5 67.5q0 36 -33 59t-85 23z" />
    <glyph glyph-name="Eogonek" unicode="&#x118;" horiz-adv-x="1312" 
d="M1348 1135h-781l-55 -281h705l-58 -272h-708l-60 -310h778l-57 -272h-434q-54 0 -91.5 -34t-37.5 -85q0 -55 59 -55q62 0 99 37l36 -158q-76 -59 -182 -59q-93 0 -147 51t-54 141t56 162h-387l293 1407h1083z" />
    <glyph glyph-name="eogonek" unicode="&#x119;" horiz-adv-x="1153" 
d="M600 432h-256v-10q0 -182 193 -182q75 0 150.5 27.5t135.5 76.5l164 -213q-83 -72 -201 -113.5t-245 -42.5q-54 0 -91.5 -33.5t-37.5 -84.5q0 -56 59 -56q61 0 98 37l37 -157q-78 -60 -182 -60q-93 0 -147 51.5t-54 141.5q0 124 96 200q-120 51 -186.5 157.5t-66.5 248.5
q0 180 89 333t238.5 241.5t323.5 88.5q175 0 287 -80.5t112 -207.5q0 -177 -136.5 -273t-379.5 -90zM705 821q-99 0 -178 -46.5t-126 -127.5h238q87 0 135.5 24.5t48.5 67.5q0 36 -33 59t-85 23z" />
    <glyph glyph-name="Ecaron" unicode="&#x11a;" horiz-adv-x="1312" 
d="M1018 1526h-248l-152 301h179l116 -154l193 154h192zM1348 1135h-781l-55 -281h705l-58 -272h-708l-60 -310h778l-57 -272h-1083l293 1407h1083z" />
    <glyph glyph-name="ecaron" unicode="&#x11b;" horiz-adv-x="1153" 
d="M870 1178h-247l-152 301h178l117 -154l192 154h193zM717 1083q175 0 287 -80.5t112 -207.5q0 -177 -136.5 -273t-379.5 -90h-256v-10q0 -182 193 -182q75 0 150.5 27.5t135.5 76.5l164 -213q-85 -73 -205.5 -114.5t-251.5 -41.5q-211 0 -337.5 123t-126.5 322
q0 180 89 333t238.5 241.5t323.5 88.5zM639 647q87 0 135.5 24.5t48.5 67.5q0 36 -33 59t-85 23q-99 0 -178 -46.5t-126 -127.5h238z" />
    <glyph glyph-name="Gbreve" unicode="&#x11e;" horiz-adv-x="1519" 
d="M1042 1538q-189 0 -305 137l154 127q70 -86 180 -86q111 0 221 88l105 -133q-161 -133 -355 -133zM786 545l52 237h620l-121 -579q-123 -106 -284 -167t-312 -61q-175 0 -319.5 82t-226.5 222t-82 307q0 134 49 263t135.5 233t199 183.5t246.5 123t271 43.5
q157 0 295 -66t223 -176l-246 -182q-45 70 -126 109.5t-171 39.5q-146 0 -279 -80.5t-212.5 -211t-79.5 -271.5q0 -143 101.5 -243.5t248.5 -100.5q153 0 305 104l37 191h-324z" />
    <glyph glyph-name="gbreve" unicode="&#x11f;" horiz-adv-x="1314" 
d="M805 1190q-189 0 -305 137l153 127q70 -86 181 -86t221 88l104 -133q-161 -133 -354 -133zM995 1059h299l-198 -959q-44 -206 -223 -329t-422 -123q-140 0 -259 41t-192 106l133 199q41 -46 118.5 -70t166.5 -24q149 0 256.5 66.5t130.5 170.5l18 90q-76 -73 -170.5 -111
t-193.5 -38q-178 0 -285.5 111.5t-107.5 293.5q0 152 74 290t204 224t281 86q119 0 209.5 -52t128.5 -134zM565 330q135 0 237.5 98t102.5 223q0 86 -50.5 133t-141.5 47q-135 0 -237.5 -96.5t-102.5 -222.5q0 -88 51.5 -135t140.5 -47z" />
    <glyph glyph-name="Gcommaaccent" unicode="&#x122;" horiz-adv-x="1519" 
d="M786 545l52 237h620l-121 -579q-123 -106 -284 -167t-312 -61q-175 0 -319.5 82t-226.5 222t-82 307q0 134 49 263t135.5 233t199 183.5t246.5 123t271 43.5q157 0 295 -66t223 -176l-246 -182q-45 70 -126 109.5t-171 39.5q-146 0 -279 -80.5t-212.5 -211t-79.5 -271.5
q0 -143 101.5 -243.5t248.5 -100.5q153 0 305 104l37 191h-324zM696 -96q61 0 96 -43.5t35 -114.5q0 -94 -59.5 -177.5t-165.5 -170.5l-84 78q89 68 141 153q-55 -1 -83.5 32.5t-28.5 88.5q0 62 44.5 108t104.5 46z" />
    <glyph glyph-name="gcommaaccent" unicode="&#x123;" horiz-adv-x="1228" 
d="M836 1196q-61 0 -96 43.5t-35 114.5q0 94 59.5 177.5t165.5 170.5l84 -78q-90 -69 -142 -154q55 1 84 -32t29 -88q0 -62 -44.5 -108t-104.5 -46zM995 1059h299l-198 -959q-44 -206 -223 -329t-422 -123q-140 0 -259 41t-192 106l133 199q41 -46 118.5 -70t166.5 -24
q149 0 256.5 66.5t130.5 170.5l18 90q-76 -73 -170.5 -111t-193.5 -38q-178 0 -285.5 111.5t-107.5 293.5q0 152 74 290t204 224t281 86q119 0 209.5 -52t128.5 -134zM565 330q135 0 237.5 98t102.5 223q0 86 -50.5 133t-141.5 47q-135 0 -237.5 -96.5t-102.5 -222.5
q0 -88 51.5 -135t140.5 -47z" />
    <glyph glyph-name="Imacron" unicode="&#x12a;" horiz-adv-x="587" 
d="M152 1538l36 176h707l-37 -176h-706zM33 0l293 1407h303l-293 -1407h-303z" />
    <glyph glyph-name="imacron" unicode="&#x12b;" horiz-adv-x="557" 
d="M63 1190l37 176h707l-37 -176h-707zM18 0l222 1059h299l-222 -1059h-299z" />
    <glyph glyph-name="Iogonek" unicode="&#x12e;" horiz-adv-x="587" 
d="M276 -174q62 0 99 37l37 -158q-76 -59 -183 -59q-93 0 -146.5 51t-53.5 141q0 91 55 162h-51l293 1407h303l-293 -1403l10 -4q-54 0 -91.5 -34t-37.5 -85q0 -55 59 -55z" />
    <glyph glyph-name="iogonek" unicode="&#x12f;" horiz-adv-x="557" 
d="M457 1483q58 0 94.5 -38.5t36.5 -96.5q0 -62 -46 -107t-106 -45t-96.5 38t-36.5 95q0 65 46.5 109.5t107.5 44.5zM31 55l209 1004h299l-222 -1059h-139q-54 0 -91.5 -34t-37.5 -85q0 -55 60 -55q61 0 98 37l37 -158q-76 -59 -183 -59q-93 0 -146.5 51t-53.5 141
q0 75 37 135.5t102 94.5z" />
    <glyph glyph-name="Idotaccent" unicode="&#x130;" horiz-adv-x="587" 
d="M524 1544q-60 0 -96.5 38t-36.5 95q0 65 46.5 109.5t107.5 44.5q58 0 94.5 -38.5t36.5 -96.5q0 -62 -46 -107t-106 -45zM33 0l293 1407h303l-293 -1407h-303z" />
    <glyph glyph-name="dotlessi" unicode="&#x131;" horiz-adv-x="557" 
d="M18 0l222 1059h299l-222 -1059h-299z" />
    <glyph glyph-name="Kcommaaccent" unicode="&#x136;" horiz-adv-x="1421" 
d="M39 0l293 1407h301l-129 -610l680 610h389l-686 -616l418 -791h-353l-307 582l-217 -189l-88 -393h-301zM506 -602l-84 78q89 68 141 153q-55 -1 -83.5 32.5t-28.5 88.5q0 62 44.5 108t104.5 46q61 0 96 -43.5t35 -114.5q0 -94 -59.5 -177.5t-165.5 -170.5z" />
    <glyph glyph-name="kcommaaccent" unicode="&#x137;" horiz-adv-x="1169" 
d="M1276 1059l-512 -469l278 -590h-333l-177 397l-163 -141l-54 -256h-299l297 1432h299l-170 -824l484 451h350zM467 -96q61 0 96 -43.5t35 -114.5q0 -94 -59.5 -177.5t-165.5 -170.5l-84 78q89 68 141 153q-55 -1 -84 32.5t-29 88.5q0 62 45 108t105 46z" />
    <glyph glyph-name="Lacute" unicode="&#x139;" horiz-adv-x="1187" 
d="M954 1796l-358 -270h-211l303 319zM383 272h696l-57 -272h-1004l293 1407h303z" />
    <glyph glyph-name="lacute" unicode="&#x13a;" horiz-adv-x="559" 
d="M371 1550l303 320l266 -49l-358 -271h-211zM23 0l296 1432h299l-296 -1432h-299z" />
    <glyph glyph-name="Lcaron" unicode="&#x13d;" horiz-adv-x="1187" 
d="M696 1001q90 69 142 154q-55 -1 -84 32.5t-29 88.5q0 62 44.5 108t104.5 46q61 0 96.5 -43.5t35.5 -114.5q0 -94 -59.5 -177.5t-166.5 -170.5zM383 272h696l-57 -272h-1004l293 1407h303z" />
    <glyph glyph-name="lcaron" unicode="&#x13e;" horiz-adv-x="559" 
d="M23 0l296 1432h299l-296 -1432h-299zM776 926l-84 78q91 70 142 153q-55 -1 -84 32.5t-29 88.5q0 62 44.5 108t104.5 46q61 0 96 -43.5t35 -114.5q0 -94 -59.5 -177.5t-165.5 -170.5z" />
    <glyph glyph-name="Lslash" unicode="&#x141;" horiz-adv-x="1263" 
d="M457 272h696l-57 -272h-1004l101 481l-160 -71l51 268l164 74l137 655h303l-102 -504l266 121l-53 -266l-269 -123z" />
    <glyph glyph-name="lslash" unicode="&#x142;" horiz-adv-x="727" 
d="M766 987l-51 -266l-168 -76l-133 -645h-299l102 494l-184 -84l51 268l188 86l140 668h299l-107 -519z" />
    <glyph glyph-name="Nacute" unicode="&#x143;" horiz-adv-x="1585" 
d="M770 1526l303 319l266 -49l-358 -270h-211zM41 0l293 1407h299l487 -909l193 909h303l-293 -1407h-297l-489 909l-195 -909h-301z" />
    <glyph glyph-name="nacute" unicode="&#x144;" 
d="M1122 1448l-358 -270h-211l303 319zM836 1083q153 0 243 -89.5t90 -233.5q0 -14 -0.5 -25.5t-3 -30t-5.5 -35.5t-9.5 -51.5t-13 -66.5t-19 -92.5t-25 -117.5t-32.5 -152.5t-39 -188.5h-289q104 488 120.5 571t16.5 115q0 68 -38 106.5t-105 38.5q-100 0 -184 -65
t-101 -152v2l-129 -616h-299l222 1059h299l-25 -115q60 65 146.5 102t179.5 37z" />
    <glyph glyph-name="Ncommaaccent" unicode="&#x145;" horiz-adv-x="1585" 
d="M41 0l293 1407h299l487 -909l193 909h303l-293 -1407h-297l-489 909l-195 -909h-301zM549 -602l-84 78q89 68 141 153q-55 -1 -83.5 32.5t-28.5 88.5q0 62 44.5 108t104.5 46q61 0 96 -43.5t35 -114.5q0 -94 -59.5 -177.5t-165.5 -170.5z" />
    <glyph glyph-name="ncommaaccent" unicode="&#x146;" 
d="M836 1083q153 0 243 -89.5t90 -233.5q0 -14 -0.5 -25.5t-3 -30t-5.5 -35.5t-9.5 -51.5t-13 -66.5t-19 -92.5t-25 -117.5t-32.5 -152.5t-39 -188.5h-289q104 488 120.5 571t16.5 115q0 68 -38 106.5t-105 38.5q-100 0 -184 -65t-101 -152v2l-129 -616h-299l222 1059h299
l-25 -115q60 65 146.5 102t179.5 37zM496 -96q61 0 96 -43.5t35 -114.5q0 -94 -59.5 -177.5t-166.5 -170.5l-84 78q91 70 142 153q-55 -1 -84 32.5t-29 88.5q0 62 45 108t105 46z" />
    <glyph glyph-name="Ncaron" unicode="&#x147;" horiz-adv-x="1585" 
d="M879 1526l-152 301h178l117 -154l192 154h193l-281 -301h-247zM41 0l293 1407h299l487 -909l193 909h303l-293 -1407h-297l-489 909l-195 -909h-301z" />
    <glyph glyph-name="ncaron" unicode="&#x148;" 
d="M909 1178h-247l-152 301h178l117 -154l192 154h193zM836 1083q153 0 243 -89.5t90 -233.5q0 -14 -0.5 -25.5t-3 -30t-5.5 -35.5t-9.5 -51.5t-13 -66.5t-19 -92.5t-25 -117.5t-32.5 -152.5t-39 -188.5h-289q104 488 120.5 571t16.5 115q0 68 -38 106.5t-105 38.5
q-100 0 -184 -65t-101 -152v2l-129 -616h-299l222 1059h299l-25 -115q60 65 146.5 102t179.5 37z" />
    <glyph glyph-name="Omacron" unicode="&#x14c;" horiz-adv-x="1662" 
d="M674 1538l37 176h706l-37 -176h-706zM731 -25q-173 0 -315.5 81.5t-223.5 221t-81 304.5q0 168 75.5 326t198.5 272t286.5 183t332.5 69q133 0 249.5 -47.5t198 -128.5t128 -193t46.5 -238q0 -167 -76 -325t-199 -272t-287 -183.5t-333 -69.5zM760 250q108 0 211.5 49.5
t179 128t122 181.5t46.5 206q0 147 -96 244.5t-244 97.5q-144 0 -274.5 -80.5t-208.5 -211t-78 -271.5q0 -144 98.5 -244t243.5 -100z" />
    <glyph glyph-name="omacron" unicode="&#x14d;" horiz-adv-x="1298" 
d="M422 1190l37 176h706l-37 -176h-706zM549 -25q-204 0 -342.5 136t-138.5 331q0 129 57.5 248.5t152 205t219 136.5t253.5 51q204 0 343.5 -136t139.5 -331q0 -128 -58 -247.5t-152.5 -205t-219.5 -137t-254 -51.5zM571 227q73 0 143.5 32.5t122 85t83.5 122t32 141.5
q0 94 -65 158.5t-160 64.5q-149 0 -264 -116t-115 -264q0 -94 64.5 -159t158.5 -65z" />
    <glyph glyph-name="Ohungarumlaut" unicode="&#x150;" horiz-adv-x="1662" 
d="M754 1526l303 319l266 -49l-358 -270h-211zM1235 1526l303 317l266 -49l-360 -268h-209zM731 -25q-173 0 -315.5 81.5t-223.5 221t-81 304.5q0 168 75.5 326t198.5 272t286.5 183t332.5 69q133 0 249.5 -47.5t198 -128.5t128 -193t46.5 -238q0 -167 -76 -325t-199 -272
t-287 -183.5t-333 -69.5zM760 250q108 0 211.5 49.5t179 128t122 181.5t46.5 206q0 147 -96 244.5t-244 97.5q-144 0 -274.5 -80.5t-208.5 -211t-78 -271.5q0 -144 98.5 -244t243.5 -100z" />
    <glyph glyph-name="ohungarumlaut" unicode="&#x151;" horiz-adv-x="1298" 
d="M432 1178l303 319l266 -49l-358 -270h-211zM913 1178l304 317l266 -49l-361 -268h-209zM549 -25q-204 0 -342.5 136t-138.5 331q0 129 57.5 248.5t152 205t219 136.5t253.5 51q204 0 343.5 -136t139.5 -331q0 -128 -58 -247.5t-152.5 -205t-219.5 -137t-254 -51.5z
M571 227q73 0 143.5 32.5t122 85t83.5 122t32 141.5q0 94 -65 158.5t-160 64.5q-149 0 -264 -116t-115 -264q0 -94 64.5 -159t158.5 -65z" />
    <glyph glyph-name="OE" unicode="&#x152;" horiz-adv-x="2123" 
d="M2157 1135h-781l-55 -281h704l-57 -272h-708l-60 -310h778l-57 -272h-1188q-176 0 -318 74.5t-223 207.5t-81 298q0 163 76.5 316.5t200.5 265t287.5 178.5t330.5 67h1208zM770 274h125l178 859h-104q-135 0 -263.5 -78.5t-208 -205.5t-79.5 -261q0 -140 98 -227t254 -87
z" />
    <glyph glyph-name="oe" unicode="&#x153;" horiz-adv-x="2027" 
d="M1485 432h-256v-10q0 -182 192 -182q75 0 151 27.5t136 76.5l164 -213q-85 -73 -205.5 -114.5t-251.5 -41.5t-232 50t-161 139q-96 -89 -220 -139t-253 -50q-204 0 -342.5 136t-138.5 331q0 129 57.5 248.5t152 205t219 136.5t253.5 51q122 0 225 -51.5t170 -142.5
q91 92 209 143t248 51q175 0 287 -80.5t112 -207.5q0 -177 -136.5 -273t-379.5 -90zM571 227q73 0 143.5 32.5t122 85t83.5 122t32 141.5q0 94 -65 158.5t-160 64.5q-149 0 -264 -116t-115 -264q0 -94 64.5 -159t158.5 -65zM1589 821q-99 0 -177.5 -46.5t-125.5 -127.5h238
q87 0 135.5 24.5t48.5 67.5q0 35 -33.5 58.5t-85.5 23.5z" />
    <glyph glyph-name="Racute" unicode="&#x154;" horiz-adv-x="1419" 
d="M1260 1796l-359 -270h-211l303 319zM1391 1008q0 -180 -116 -321.5t-302 -199.5l295 -487h-336l-277 457h-229l-96 -457h-301l293 1407h620q201 0 325 -110t124 -289zM567 1130l-84 -397h301q118 0 209.5 77.5t91.5 176.5q0 65 -55.5 104t-148.5 39h-314z" />
    <glyph glyph-name="racute" unicode="&#x155;" horiz-adv-x="886" 
d="M942 1448l-358 -270h-211l303 319zM504 877q70 98 172 152t221 54l-33 -252q-159 0 -279 -87t-157 -226l-109 -518h-299l222 1059h299z" />
    <glyph glyph-name="Rcommaaccent" unicode="&#x156;" horiz-adv-x="1419" 
d="M1391 1008q0 -180 -116 -321.5t-302 -199.5l295 -487h-336l-277 457h-229l-96 -457h-301l293 1407h620q201 0 325 -110t124 -289zM567 1130l-84 -397h301q118 0 209.5 77.5t91.5 176.5q0 65 -55.5 104t-148.5 39h-314zM553 -96q61 0 96 -43.5t35 -114.5
q0 -94 -59.5 -177.5t-165.5 -170.5l-84 78q89 68 141 153q-55 -1 -84 32.5t-29 88.5q0 62 45 108t105 46z" />
    <glyph glyph-name="rcommaaccent" unicode="&#x157;" horiz-adv-x="886" 
d="M504 877q70 98 172 152t221 54l-33 -252q-159 0 -279 -87t-157 -226l-109 -518h-299l222 1059h299zM281 -96q61 0 96 -43.5t35 -114.5q0 -94 -59.5 -177.5t-166.5 -170.5l-84 78q91 70 142 153q-55 -1 -84 32.5t-29 88.5q0 62 45 108t105 46z" />
    <glyph glyph-name="Rcaron" unicode="&#x158;" horiz-adv-x="1419" 
d="M1047 1526h-248l-152 301h178l117 -154l193 154h192zM1391 1008q0 -180 -116 -321.5t-302 -199.5l295 -487h-336l-277 457h-229l-96 -457h-301l293 1407h620q201 0 325 -110t124 -289zM567 1130l-84 -397h301q118 0 209.5 77.5t91.5 176.5q0 65 -55.5 104t-148.5 39h-314
z" />
    <glyph glyph-name="rcaron" unicode="&#x159;" horiz-adv-x="886" 
d="M729 1178h-248l-151 301h178l117 -154l192 154h193zM504 877q70 98 172 152t221 54l-33 -252q-159 0 -279 -87t-157 -226l-109 -518h-299l222 1059h299z" />
    <glyph glyph-name="Sacute" unicode="&#x15a;" horiz-adv-x="1298" 
d="M598 1526l303 319l266 -49l-358 -270h-211zM567 -25q-170 0 -327 65t-258 175l202 195q80 -84 190.5 -131.5t215.5 -47.5q137 0 219 59.5t82 143.5q0 48 -51 75t-197 64q-91 23 -152.5 42.5t-121.5 49.5t-95 65.5t-56 86.5t-21 117q0 216 169.5 357t438.5 141
q146 0 282.5 -53t231.5 -148l-189 -205q-74 71 -172.5 110.5t-181.5 39.5q-121 0 -195.5 -58.5t-74.5 -140.5q0 -49 53 -77.5t197 -63.5q240 -56 341 -134t101 -225t-82.5 -262t-226 -177.5t-322.5 -62.5z" />
    <glyph glyph-name="sacute" unicode="&#x15b;" horiz-adv-x="1030" 
d="M422 1178l303 319l266 -49l-358 -270h-211zM430 -25q-133 0 -254.5 45t-206.5 121l158 191q64 -54 147.5 -81.5t163.5 -27.5q85 0 139 29t54 74q0 26 -30 48.5t-122 47.5q-56 15 -86 24t-74 24.5t-66.5 28.5t-50.5 34t-41 44t-22.5 55t-9.5 70q0 164 135 272.5t338 108.5
q216 0 406 -137l-152 -205q-123 93 -260 93q-74 0 -126 -27t-52 -68q0 -25 31.5 -44.5t125.5 -47.5q52 -15 81.5 -24.5t71.5 -25t65.5 -29.5t51 -36t41 -46t23 -56.5t9.5 -71.5q0 -166 -137.5 -274.5t-350.5 -108.5z" />
    <glyph glyph-name="Scedilla" unicode="&#x15e;" horiz-adv-x="1298" 
d="M756 836q240 -56 341 -134t101 -225q0 -210 -160.5 -347.5t-412.5 -152.5l-43 -67q55 -4 87.5 -39t32.5 -88q0 -86 -67.5 -136t-169.5 -50q-113 0 -195 67l64 103q39 -39 104 -39q56 0 89.5 19.5t33.5 53.5q0 20 -10.5 31.5t-28.5 11.5q-41 0 -78 -26l-43 51l68 113
q-146 17 -273.5 78t-213.5 155l202 195q80 -84 190.5 -131.5t215.5 -47.5q137 0 219 59.5t82 143.5q0 48 -51 75t-197 64q-91 23 -152.5 42.5t-121.5 49.5t-95 65.5t-56 86.5t-21 117q0 216 169.5 357t438.5 141q146 0 282.5 -53t231.5 -148l-189 -205q-74 71 -172.5 110.5
t-181.5 39.5q-121 0 -195.5 -58.5t-74.5 -140.5q0 -49 53 -77.5t197 -63.5z" />
    <glyph glyph-name="scedilla" unicode="&#x15f;" horiz-adv-x="1030" 
d="M575 647q52 -15 81.5 -24.5t71.5 -25t65.5 -29.5t51 -36t41 -46t23 -56.5t9.5 -71.5q0 -155 -120.5 -260.5t-312.5 -120.5l-43 -67q55 -4 88 -39t33 -88q0 -86 -67.5 -136t-169.5 -50q-113 0 -195 67l64 103q39 -39 104 -39q56 0 89.5 19.5t33.5 53.5q0 20 -10.5 31.5
t-28.5 11.5q-41 0 -78 -26l-43 51l68 113q-106 15 -200 56.5t-161 102.5l158 191q64 -54 147.5 -81.5t163.5 -27.5q85 0 139 29t54 74q0 26 -30 48.5t-122 47.5q-56 15 -86 24t-74 24.5t-66.5 28.5t-50.5 34t-41 44t-22.5 55t-9.5 70q0 164 135 272.5t338 108.5
q216 0 406 -137l-152 -205q-123 93 -260 93q-74 0 -126 -27t-52 -68q0 -25 31.5 -44.5t125.5 -47.5z" />
    <glyph glyph-name="Scaron" unicode="&#x160;" horiz-adv-x="1298" 
d="M707 1526l-152 301h178l117 -154l192 154h193l-281 -301h-247zM567 -25q-170 0 -327 65t-258 175l202 195q80 -84 190.5 -131.5t215.5 -47.5q137 0 219 59.5t82 143.5q0 48 -51 75t-197 64q-91 23 -152.5 42.5t-121.5 49.5t-95 65.5t-56 86.5t-21 117q0 216 169.5 357
t438.5 141q146 0 282.5 -53t231.5 -148l-189 -205q-74 71 -172.5 110.5t-181.5 39.5q-121 0 -195.5 -58.5t-74.5 -140.5q0 -49 53 -77.5t197 -63.5q240 -56 341 -134t101 -225t-82.5 -262t-226 -177.5t-322.5 -62.5z" />
    <glyph glyph-name="scaron" unicode="&#x161;" horiz-adv-x="1030" 
d="M530 1178l-151 301h178l117 -154l192 154h193l-281 -301h-248zM430 -25q-133 0 -254.5 45t-206.5 121l158 191q64 -54 147.5 -81.5t163.5 -27.5q85 0 139 29t54 74q0 26 -30 48.5t-122 47.5q-56 15 -86 24t-74 24.5t-66.5 28.5t-50.5 34t-41 44t-22.5 55t-9.5 70
q0 164 135 272.5t338 108.5q216 0 406 -137l-152 -205q-123 93 -260 93q-74 0 -126 -27t-52 -68q0 -25 31.5 -44.5t125.5 -47.5q52 -15 81.5 -24.5t71.5 -25t65.5 -29.5t51 -36t41 -46t23 -56.5t9.5 -71.5q0 -166 -137.5 -274.5t-350.5 -108.5z" />
    <glyph glyph-name="uni0162" unicode="&#x162;" horiz-adv-x="1308" 
d="M248 1407h1179l-57 -272h-438l-236 -1135h-69l-58 -90q55 -4 88 -39t33 -88q0 -86 -67.5 -136t-169.5 -50q-113 0 -195 67l64 103q39 -39 104 -39q56 0 89.5 19.5t33.5 53.5q0 20 -10.5 31.5t-28.5 11.5q-41 0 -78 -26l-43 51l78 131h-74l236 1135h-439z" />
    <glyph glyph-name="uni0163" unicode="&#x163;" horiz-adv-x="821" 
d="M776 817h-229q-104 -501 -105 -520q0 -70 64 -70q34 0 68.5 13.5t52.5 31.5l43 -213q-58 -43 -131 -65l-54 -84q55 -4 88 -39t33 -88q0 -86 -67.5 -136t-169.5 -50q-113 0 -195 67l64 103q39 -39 104 -39q56 0 89.5 19.5t33.5 53.5q0 20 -10.5 31.5t-28.5 11.5
q-41 0 -78 -26l-43 51l66 108q-103 13 -164.5 85t-61.5 176q0 33 12.5 99t61.5 297q24 113 39 183h-145l51 242h145l62 291h286l-61 -291h229z" />
    <glyph glyph-name="Tcaron" unicode="&#x164;" horiz-adv-x="1308" 
d="M743 1526l-151 301h178l117 -154l192 154h193l-281 -301h-248zM393 0l236 1135h-439l58 272h1179l-57 -272h-438l-236 -1135h-303z" />
    <glyph glyph-name="tcaron" unicode="&#x165;" horiz-adv-x="821" 
d="M1165 1432q61 0 96 -43.5t35 -114.5q0 -94 -59.5 -177.5t-165.5 -170.5l-84 78q89 68 141 153q-55 -1 -83.5 32.5t-28.5 88.5q0 62 44.5 108t104.5 46zM657 1350l-61 -291h229l-49 -242h-229q-104 -501 -105 -520q0 -70 64 -70q34 0 68.5 13.5t52.5 31.5l43 -213
q-114 -84 -254 -84q-121 0 -196 73.5t-75 189.5q0 33 12.5 99t61.5 297q24 113 39 183h-145l51 242h145l62 291h286z" />
    <glyph glyph-name="Umacron" unicode="&#x16a;" horiz-adv-x="1546" 
d="M629 1538l37 176h706l-37 -176h-706zM674 -25q-189 0 -321 83.5t-184.5 230.5t-14.5 332l163 786h304l-166 -799q-34 -160 34.5 -259t210.5 -99q151 0 272.5 109.5t155.5 273.5l162 774h301l-168 -811q-57 -276 -265 -448.5t-484 -172.5z" />
    <glyph glyph-name="umacron" unicode="&#x16b;" 
d="M1153 1366l-37 -176h-706l36 176h707zM942 1059h299l-221 -1059h-299l24 115q-61 -65 -146.5 -102.5t-178.5 -37.5q-153 0 -243.5 90t-90.5 234q0 14 0.5 25.5t3 30t5.5 35.5t9.5 51.5t13 66.5t19 92.5t25 117.5t32.5 152.5t39 188.5h289q-104 -488 -120.5 -571
t-16.5 -115q0 -69 38.5 -107.5t104.5 -38.5q100 0 184 65t101 152v-2z" />
    <glyph glyph-name="Uring" unicode="&#x16e;" horiz-adv-x="1546" 
d="M981 1538q-84 0 -137 52.5t-53 131.5q0 112 88.5 196.5t197.5 84.5q84 0 137.5 -52t53.5 -132q0 -111 -88.5 -196t-198.5 -85zM1008 1661q50 0 90.5 40t40.5 91q0 37 -24 61.5t-62 24.5q-52 0 -93.5 -38.5t-41.5 -88.5q0 -39 25.5 -64.5t64.5 -25.5zM674 -25
q-189 0 -321 83.5t-184.5 230.5t-14.5 332l163 786h304l-166 -799q-34 -160 34.5 -259t210.5 -99q151 0 272.5 109.5t155.5 273.5l162 774h301l-168 -811q-57 -276 -265 -448.5t-484 -172.5z" />
    <glyph glyph-name="uring" unicode="&#x16f;" 
d="M762 1190q-84 0 -137.5 52.5t-53.5 131.5q0 112 89 196.5t198 84.5q84 0 137.5 -52.5t53.5 -132.5q0 -111 -88.5 -195.5t-198.5 -84.5zM834 1530q-52 0 -94 -38.5t-42 -88.5q0 -39 25.5 -64.5t64.5 -25.5q50 0 91 40t41 91q0 37 -24 61.5t-62 24.5zM942 1059h299
l-221 -1059h-299l24 115q-61 -65 -146.5 -102.5t-178.5 -37.5q-153 0 -243.5 90t-90.5 234q0 14 0.5 25.5t3 30t5.5 35.5t9.5 51.5t13 66.5t19 92.5t25 117.5t32.5 152.5t39 188.5h289q-104 -488 -120.5 -571t-16.5 -115q0 -69 38.5 -107.5t104.5 -38.5q100 0 184 65
t101 152v-2z" />
    <glyph glyph-name="Uhungarumlaut" unicode="&#x170;" horiz-adv-x="1546" 
d="M481 1526l303 319l267 -49l-359 -270h-211zM963 1526l303 317l266 -49l-361 -268h-208zM674 -25q-189 0 -321 83.5t-184.5 230.5t-14.5 332l163 786h304l-166 -799q-34 -160 34.5 -259t210.5 -99q151 0 272.5 109.5t155.5 273.5l162 774h301l-168 -811
q-57 -276 -265 -448.5t-484 -172.5z" />
    <glyph glyph-name="uhungarumlaut" unicode="&#x171;" 
d="M831 1448l-358 -270h-211l303 319zM952 1178h-209l304 317l266 -49zM813 442l129 617h299l-221 -1059h-299l24 115q-61 -65 -146.5 -102.5t-178.5 -37.5q-153 0 -243.5 90t-90.5 234q0 14 0.5 25.5t3 30t5.5 35.5t9.5 51.5t13 66.5t19 92.5t25 117.5t32.5 152.5t39 188.5
h289q-104 -488 -120.5 -571t-16.5 -115q0 -69 38.5 -107.5t104.5 -38.5q100 0 184 65t101 152v-2z" />
    <glyph glyph-name="Uogonek" unicode="&#x172;" horiz-adv-x="1546" 
d="M1290 1407h301l-168 -811q-57 -276 -265 -448.5t-484 -172.5q-29 0 -43 2q-51 -38 -51 -96q0 -55 59 -55q61 0 98 37l37 -158q-76 -59 -182 -59q-93 0 -147 51t-54 141q0 103 66 172q-184 63 -265.5 227t-37.5 384l163 786h304l-166 -799q-34 -160 34.5 -259t210.5 -99
q151 0 272.5 109.5t155.5 273.5z" />
    <glyph glyph-name="uogonek" unicode="&#x173;" 
d="M948 -174q62 0 99 37l36 -158q-76 -59 -182 -59q-93 0 -147 51t-54 141t56 162h-35l24 115q-61 -65 -146.5 -102.5t-178.5 -37.5q-153 0 -243.5 90t-90.5 234q0 14 0.5 25.5t3 30t5.5 35.5t9.5 51.5t13 66.5t19 92.5t25 117.5t32.5 152.5t39 188.5h289
q-104 -488 -120.5 -571t-16.5 -115q0 -69 38.5 -107.5t104.5 -38.5q100 0 184 65t101 152v-2l129 617h299l-221 -1059h-2q-54 0 -91.5 -34t-37.5 -85q0 -55 59 -55z" />
    <glyph glyph-name="Wcircumflex" unicode="&#x174;" horiz-adv-x="2207" 
d="M967 1526l278 301h248l154 -301h-179l-120 151l-189 -151h-192zM356 0l-133 1407h324l59 -944l512 944h328l113 -944l458 944h332l-719 -1407h-303l-127 967l-538 -967h-306z" />
    <glyph glyph-name="wcircumflex" unicode="&#x175;" horiz-adv-x="1722" 
d="M651 1178l279 301h248l153 -301h-178l-121 151l-188 -151h-193zM287 0l-140 1059h287l62 -660l348 660h248l69 -660l338 660h301l-581 -1059h-269l-55 666l-340 -666h-268z" />
    <glyph glyph-name="Ycircumflex" unicode="&#x176;" horiz-adv-x="1421" 
d="M545 1526l278 301h248l154 -301h-178l-121 151l-189 -151h-192zM444 0l111 508l-365 899h285l262 -639l512 639h346l-735 -899l-110 -508h-306z" />
    <glyph glyph-name="ycircumflex" unicode="&#x177;" horiz-adv-x="1230" 
d="M406 1178l278 301h248l153 -301h-178l-121 151l-188 -151h-192zM197 -369q-66 0 -136.5 20t-121.5 52l88 193q65 -41 125 -41q42 0 84 19.5t63 49.5l57 66l-215 1069h303l121 -744l422 744h311l-667 -1122q-180 -306 -434 -306z" />
    <glyph glyph-name="Ydieresis" unicode="&#x178;" horiz-adv-x="1421" 
d="M694 1544q-60 0 -96.5 38t-36.5 95q0 65 46.5 109.5t107.5 44.5q58 0 94.5 -38.5t36.5 -96.5q0 -62 -46 -107t-106 -45zM1128 1544q-60 0 -96.5 38.5t-36.5 96.5q0 63 46.5 107.5t107.5 44.5q58 0 94.5 -38.5t36.5 -94.5q0 -63 -46 -108.5t-106 -45.5zM444 0l111 508
l-365 899h285l262 -639l512 639h346l-735 -899l-110 -508h-306z" />
    <glyph glyph-name="Zacute" unicode="&#x179;" horiz-adv-x="1343" 
d="M664 1526l303 319l266 -49l-359 -270h-210zM-8 0l41 229l930 906h-721l55 272h1139l-43 -229l-926 -906h743l-57 -272h-1161z" />
    <glyph glyph-name="zacute" unicode="&#x17a;" horiz-adv-x="1093" 
d="M471 1178l303 319l266 -49l-358 -270h-211zM-20 0l38 211l656 594h-514l53 254h907l-43 -211l-655 -594h534l-53 -254h-923z" />
    <glyph glyph-name="Zdotaccent" unicode="&#x17b;" horiz-adv-x="1343" 
d="M913 1544q-60 0 -96.5 38t-36.5 95q0 65 46.5 109.5t107.5 44.5q58 0 94.5 -38.5t36.5 -96.5q0 -62 -46 -107t-106 -45zM-8 0l41 229l930 906h-721l55 272h1139l-43 -229l-926 -906h743l-57 -272h-1161z" />
    <glyph glyph-name="zdotaccent" unicode="&#x17c;" horiz-adv-x="1093" 
d="M721 1196q-60 0 -96.5 38t-36.5 95q0 65 46 109.5t107 44.5q58 0 94.5 -38.5t36.5 -96.5q0 -62 -46 -107t-105 -45zM-20 0l38 211l656 594h-514l53 254h907l-43 -211l-655 -594h534l-53 -254h-923z" />
    <glyph glyph-name="Zcaron" unicode="&#x17d;" horiz-adv-x="1343" 
d="M772 1526l-151 301h178l116 -154l193 154h192l-280 -301h-248zM-8 0l41 229l930 906h-721l55 272h1139l-43 -229l-926 -906h743l-57 -272h-1161z" />
    <glyph glyph-name="zcaron" unicode="&#x17e;" horiz-adv-x="1093" 
d="M580 1178l-152 301h178l117 -154l192 154h193l-281 -301h-247zM-20 0l38 211l656 594h-514l53 254h907l-43 -211l-655 -594h534l-53 -254h-923z" />
    <glyph glyph-name="uni0237" unicode="&#x237;" horiz-adv-x="557" 
d="M-68 -365q-58 0 -116.5 14t-96.5 34l60 213q31 -15 96 -15q51 0 94 39t54 92l217 1047h299l-230 -1102q-31 -146 -134.5 -234t-242.5 -88z" />
    <glyph glyph-name="circumflex" unicode="&#x2c6;" horiz-adv-x="937" 
d="M264 1178l279 301h248l153 -301h-178l-121 151l-188 -151h-193z" />
    <glyph glyph-name="caron" unicode="&#x2c7;" horiz-adv-x="937" 
d="M479 1178l-151 301h178l117 -154l192 154h193l-281 -301h-248z" />
    <glyph glyph-name="breve" unicode="&#x2d8;" horiz-adv-x="917" 
d="M600 1190q-189 0 -305 137l154 127q70 -86 180 -86q111 0 221 88l104 -133q-161 -133 -354 -133z" />
    <glyph glyph-name="dotaccent" unicode="&#x2d9;" horiz-adv-x="546" 
d="M432 1196q-60 0 -96.5 38t-36.5 95q0 65 46.5 109.5t107.5 44.5q58 0 94.5 -38.5t36.5 -96.5q0 -62 -46 -107t-106 -45z" />
    <glyph glyph-name="ring" unicode="&#x2da;" horiz-adv-x="724" 
d="M500 1190q-84 0 -137.5 52.5t-53.5 131.5q0 112 89 196.5t198 84.5q84 0 137 -52.5t53 -132.5q0 -111 -88 -195.5t-198 -84.5zM526 1313q50 0 90.5 40t40.5 91q0 37 -24 61.5t-62 24.5q-52 0 -93.5 -38.5t-41.5 -88.5q0 -39 25.5 -64.5t64.5 -25.5z" />
    <glyph glyph-name="ogonek" unicode="&#x2db;" horiz-adv-x="675" 
d="M193 -354q-93 0 -147 51t-54 141q0 75 37 135.5t102 94.5l178 -68q-54 0 -91.5 -34t-37.5 -85q0 -55 60 -55q61 0 98 37l37 -158q-76 -59 -182 -59z" />
    <glyph glyph-name="tilde" unicode="&#x2dc;" horiz-adv-x="851" 
d="M719 1174q-43 0 -84.5 16t-67 36t-53 36t-45.5 16q-80 0 -127 -119l-143 43q44 136 106.5 198t155.5 62q42 0 83.5 -16t67 -36t52.5 -36t45 -16q82 0 129 119l143 -45q-44 -135 -107 -196.5t-155 -61.5z" />
    <glyph glyph-name="hungarumlaut" unicode="&#x2dd;" horiz-adv-x="1251" 
d="M264 1178l303 319l267 -49l-359 -270h-211zM745 1178l304 317l266 -49l-361 -268h-209z" />
    <glyph glyph-name="uni0326" unicode="&#x326;" horiz-adv-x="0" 
d="M-543 -602l-84 78q91 70 142 153q-55 -1 -84 32.5t-29 88.5q0 62 44.5 108t104.5 46q61 0 96.5 -43.5t35.5 -114.5q0 -94 -59.5 -177.5t-166.5 -170.5z" />
    <glyph glyph-name="Wgrave" unicode="&#x1e80;" horiz-adv-x="2207" 
d="M1200 1526l-248 270l273 49l170 -319h-195zM356 0l-133 1407h324l59 -944l512 944h328l113 -944l458 944h332l-719 -1407h-303l-127 967l-538 -967h-306z" />
    <glyph glyph-name="wgrave" unicode="&#x1e81;" horiz-adv-x="1722" 
d="M883 1178l-248 270l272 49l170 -319h-194zM287 0l-140 1059h287l62 -660l348 660h248l69 -660l338 660h301l-581 -1059h-269l-55 666l-340 -666h-268z" />
    <glyph glyph-name="Wacute" unicode="&#x1e82;" horiz-adv-x="2207" 
d="M1210 1526l303 319l267 -49l-359 -270h-211zM356 0l-133 1407h324l59 -944l512 944h328l113 -944l458 944h332l-719 -1407h-303l-127 967l-538 -967h-306z" />
    <glyph glyph-name="wacute" unicode="&#x1e83;" horiz-adv-x="1722" 
d="M889 1178l303 319l266 -49l-358 -270h-211zM287 0l-140 1059h287l62 -660l348 660h248l69 -660l338 660h301l-581 -1059h-269l-55 666l-340 -666h-268z" />
    <glyph glyph-name="Wdieresis" unicode="&#x1e84;" horiz-adv-x="2207" 
d="M1116 1544q-60 0 -96.5 38t-36.5 95q0 65 46.5 109.5t107.5 44.5q58 0 94.5 -38.5t36.5 -96.5q0 -62 -46 -107t-106 -45zM1550 1544q-60 0 -96.5 38.5t-36.5 96.5q0 63 46.5 107.5t107.5 44.5q58 0 94.5 -38.5t36.5 -94.5q0 -63 -46 -108.5t-106 -45.5zM356 0l-133 1407
h324l59 -944l512 944h328l113 -944l458 944h332l-719 -1407h-303l-127 967l-538 -967h-306z" />
    <glyph glyph-name="wdieresis" unicode="&#x1e85;" horiz-adv-x="1722" 
d="M801 1196q-60 0 -96.5 38t-36.5 95q0 65 46 109.5t107 44.5q58 0 94.5 -38.5t36.5 -96.5q0 -62 -46 -107t-105 -45zM1235 1196q-60 0 -96.5 38.5t-36.5 96.5q0 63 46 107.5t107 44.5q58 0 94.5 -38.5t36.5 -94.5q0 -63 -45.5 -108.5t-105.5 -45.5zM287 0l-140 1059h287
l62 -660l348 660h248l69 -660l338 660h301l-581 -1059h-269l-55 666l-340 -666h-268z" />
    <glyph glyph-name="uni1EB8" unicode="&#x1eb8;" horiz-adv-x="1312" 
d="M1348 1135h-781l-55 -281h705l-58 -272h-708l-60 -310h778l-57 -272h-1083l293 1407h1083zM530 -92q58 0 95 -38.5t37 -96.5q0 -62 -46 -107t-106 -45t-96.5 38t-36.5 95q0 65 46 109.5t107 44.5z" />
    <glyph glyph-name="uni1EB9" unicode="&#x1eb9;" horiz-adv-x="1228" 
d="M600 432h-256v-10q0 -182 193 -182q75 0 150.5 27.5t135.5 76.5l164 -213q-85 -73 -205.5 -114.5t-251.5 -41.5q-211 0 -337.5 123t-126.5 322q0 180 89 333t238.5 241.5t323.5 88.5q175 0 287 -80.5t112 -207.5q0 -177 -136.5 -273t-379.5 -90zM705 821
q-99 0 -178 -46.5t-126 -127.5h238q87 0 135.5 24.5t48.5 67.5q0 36 -33 59t-85 23zM422 -145q58 0 94.5 -39t36.5 -97q0 -62 -46 -106.5t-106 -44.5t-96.5 38t-36.5 95q0 65 46.5 109.5t107.5 44.5z" />
    <glyph glyph-name="uni1EBC" unicode="&#x1ebc;" horiz-adv-x="1312" 
d="M797 1626q-80 0 -127 -119l-144 43q44 136 106.5 198t155.5 62q42 0 83.5 -16t67 -36t52.5 -36t45 -16q82 0 129 119l144 -45q-44 -135 -107 -196.5t-155 -61.5q-43 0 -84.5 16t-67 36t-53 36t-45.5 16zM1348 1135h-781l-55 -281h705l-58 -272h-708l-60 -310h778
l-57 -272h-1083l293 1407h1083z" />
    <glyph glyph-name="uni1EBD" unicode="&#x1ebd;" horiz-adv-x="1153" 
d="M649 1278q-80 0 -127 -119l-143 43q44 136 106.5 198t155.5 62q42 0 83.5 -16t67 -36t52.5 -36t45 -16q82 0 129 119l143 -45q-44 -135 -107 -196.5t-155 -61.5q-43 0 -84.5 16t-67 36t-53 36t-45.5 16zM717 1083q175 0 287 -80.5t112 -207.5q0 -177 -136.5 -273
t-379.5 -90h-256v-10q0 -182 193 -182q75 0 150.5 27.5t135.5 76.5l164 -213q-85 -73 -205.5 -114.5t-251.5 -41.5q-211 0 -337.5 123t-126.5 322q0 180 89 333t238.5 241.5t323.5 88.5zM639 647q87 0 135.5 24.5t48.5 67.5q0 36 -33 59t-85 23q-99 0 -178 -46.5
t-126 -127.5h238z" />
    <glyph glyph-name="Ygrave" unicode="&#x1ef2;" horiz-adv-x="1421" 
d="M879 1526l-248 270l272 49l170 -319h-194zM444 0l111 508l-365 899h285l262 -639l512 639h346l-735 -899l-110 -508h-306z" />
    <glyph glyph-name="ygrave" unicode="&#x1ef3;" horiz-adv-x="1230" 
d="M739 1178l-247 270l272 49l170 -319h-195zM197 -369q-66 0 -136.5 20t-121.5 52l88 193q65 -41 125 -41q42 0 84 19.5t63 49.5l57 66l-215 1069h303l121 -744l422 744h311l-667 -1122q-180 -306 -434 -306z" />
    <glyph glyph-name="endash" unicode="&#x2013;" horiz-adv-x="1171" 
d="M74 438l53 250h983l-51 -250h-985z" />
    <glyph glyph-name="emdash" unicode="&#x2014;" horiz-adv-x="1796" 
d="M74 438l53 250h1608l-52 -250h-1609z" />
    <glyph glyph-name="quoteleft" unicode="&#x2018;" horiz-adv-x="600" 
d="M500 1423l106 -98q-108 -79 -180 -195q64 0 106.5 -42.5t42.5 -110.5q0 -86 -62.5 -147.5t-139.5 -61.5t-121.5 55t-44.5 144q0 124 78.5 235t214.5 221z" />
    <glyph glyph-name="quoteright" unicode="&#x2019;" horiz-adv-x="600" 
d="M336 764l-107 98q110 80 181 195q-64 0 -107 42.5t-43 110.5q0 85 63 147t140 62t121.5 -54.5t44.5 -143.5q0 -124 -78.5 -235.5t-214.5 -221.5z" />
    <glyph glyph-name="quotedblleft" unicode="&#x201c;" horiz-adv-x="1132" 
d="M496 1413l106 -98q-108 -79 -180 -195q64 0 106.5 -42.5t42.5 -110.5q0 -86 -62.5 -147.5t-139.5 -61.5t-121.5 54.5t-44.5 143.5q0 124 78.5 235.5t214.5 221.5zM1028 1413l107 -98q-110 -80 -181 -195q64 0 107 -42.5t43 -110.5q0 -85 -63 -147t-140 -62t-121.5 54.5
t-44.5 143.5q0 124 78.5 235.5t214.5 221.5z" />
    <glyph glyph-name="quotedblright" unicode="&#x201d;" horiz-adv-x="1132" 
d="M336 764l-107 98q110 80 181 195q-64 0 -107 42.5t-43 110.5q0 85 63 147t140 62t121.5 -54.5t44.5 -143.5q0 -124 -78.5 -235.5t-214.5 -221.5zM868 764l-106 98q108 79 180 195q-64 0 -106.5 42.5t-42.5 110.5q0 86 62.5 147.5t139.5 61.5t121.5 -54.5t44.5 -143.5
q0 -124 -78.5 -235.5t-214.5 -221.5z" />
    <glyph glyph-name="ellipsis" unicode="&#x2026;" horiz-adv-x="1660" 
d="M203 -25q-74 0 -121 48t-47 120q0 87 62.5 146t146.5 59q69 0 115.5 -48.5t46.5 -117.5q0 -84 -62 -145.5t-141 -61.5zM735 -25q-74 0 -121 48t-47 120q0 87 62.5 146t146.5 59q69 0 115.5 -48.5t46.5 -117.5q0 -84 -62 -145.5t-141 -61.5zM1268 -25q-74 0 -121 48
t-47 120q0 87 62.5 146t146.5 59q69 0 115 -48.5t46 -117.5q0 -84 -61.5 -145.5t-140.5 -61.5z" />
    <glyph glyph-name="perthousand" unicode="&#x2030;" horiz-adv-x="2508" 
d="M481 700q-137 0 -218 82.5t-81 212.5q0 172 120 299t290 127q141 0 222 -83.5t81 -213.5q0 -173 -121 -298.5t-293 -125.5zM145 0l1272 1407h225l-1271 -1407h-226zM481 877q89 0 153 79.5t64 173.5q0 52 -28 82.5t-74 30.5q-60 0 -111 -39t-78.5 -97t-27.5 -116
q0 -54 27 -84t75 -30zM1190 -23q-138 0 -220.5 83.5t-82.5 213.5q0 110 55 208t150.5 157t207.5 59q139 0 220.5 -83t81.5 -214q0 -111 -54.5 -208.5t-150 -156.5t-207.5 -59zM1987 -23q-140 0 -222 83.5t-82 213.5q0 110 54.5 207.5t150.5 157t209 59.5q139 0 219 -83
t80 -214q0 -111 -54.5 -208.5t-149 -156.5t-205.5 -59zM1188 156q91 0 154 81t63 173q0 52 -28 82t-74 30q-90 0 -154 -79.5t-64 -174.5q0 -53 27.5 -82.5t75.5 -29.5zM1982 156q91 0 155.5 81t64.5 173q0 52 -28.5 82t-76.5 30q-89 0 -153 -79.5t-64 -174.5q0 -53 27 -82.5
t75 -29.5z" />
    <glyph glyph-name="Euro" unicode="&#x20ac;" horiz-adv-x="1433" 
d="M764 250q85 0 188 47.5t178 120.5l189 -215q-116 -100 -279 -164t-307 -64q-227 0 -402 149.5t-210 373.5h-160l31 149h123q6 72 24 139h-119l31 150h146q109 219 328 357.5t472 138.5q154 0 293 -67.5t223 -174.5l-245 -182q-44 66 -123 107.5t-170 41.5
q-125 0 -239.5 -60t-194.5 -161h489l-31 -150h-544q-28 -78 -33 -139h549l-31 -149h-506q32 -111 125 -179.5t205 -68.5z" />
    <glyph glyph-name="minus" unicode="&#x2212;" horiz-adv-x="1234" 
d="M129 561l51 244h989l-51 -244h-989z" />
    <glyph glyph-name="a.alt" horiz-adv-x="1189" 
d="M698 1083q184 0 293 -96t109 -256q0 -15 -1 -28.5t-3 -29.5t-7.5 -45t-11.5 -59.5t-18.5 -88t-24.5 -116.5t-33.5 -160t-42.5 -204h-288l18 92q-64 -57 -148 -87t-167 -30q-157 0 -253.5 79.5t-96.5 209.5q0 118 71 211.5t183.5 142t240.5 48.5q135 0 279 -62
q14 74 14 98q0 66 -46.5 104t-143.5 38q-133 0 -297 -80l-78 209q244 110 452 110zM737 346l4 -6q3 21 11 55.5t10 44.5q-95 31 -203 31q-96 0 -174 -60t-78 -137q0 -44 37 -68t100 -24q96 0 181 46t112 118z" />
    <glyph glyph-name="aacute.alt" horiz-adv-x="1189" 
d="M1092 1448l-359 -270h-211l303 319zM698 1083q184 0 293 -96t109 -256q0 -15 -1 -28.5t-3 -29.5t-7.5 -45t-11.5 -59.5t-18.5 -88t-24.5 -116.5t-33.5 -160t-42.5 -204h-288l18 92q-64 -57 -148 -87t-167 -30q-157 0 -253.5 79.5t-96.5 209.5q0 118 71 211.5t183.5 142
t240.5 48.5q135 0 279 -62q14 74 14 98q0 66 -46.5 104t-143.5 38q-133 0 -297 -80l-78 209q244 110 452 110zM737 346l4 -6q3 21 11 55.5t10 44.5q-95 31 -203 31q-96 0 -174 -60t-78 -137q0 -44 37 -68t100 -24q96 0 181 46t112 118z" />
    <glyph glyph-name="abreve.alt" horiz-adv-x="1189" 
d="M758 1190q-189 0 -305 137l153 127q70 -86 180 -86q112 0 222 88l104 -133q-161 -133 -354 -133zM698 1083q184 0 293 -96t109 -256q0 -15 -1 -28.5t-3 -29.5t-7.5 -45t-11.5 -59.5t-18.5 -88t-24.5 -116.5t-33.5 -160t-42.5 -204h-288l18 92q-64 -57 -148 -87t-167 -30
q-157 0 -253.5 79.5t-96.5 209.5q0 118 71 211.5t183.5 142t240.5 48.5q135 0 279 -62q14 74 14 98q0 66 -46.5 104t-143.5 38q-133 0 -297 -80l-78 209q244 110 452 110zM737 346l4 -6q3 21 11 55.5t10 44.5q-95 31 -203 31q-96 0 -174 -60t-78 -137q0 -44 37 -68t100 -24
q96 0 181 46t112 118z" />
    <glyph glyph-name="acircumflex.alt" horiz-adv-x="1189" 
d="M788 1329l-188 -151h-192l278 301h248l153 -301h-178zM698 1083q184 0 293 -96t109 -256q0 -15 -1 -28.5t-3 -29.5t-7.5 -45t-11.5 -59.5t-18.5 -88t-24.5 -116.5t-33.5 -160t-42.5 -204h-288l18 92q-64 -57 -148 -87t-167 -30q-157 0 -253.5 79.5t-96.5 209.5
q0 118 71 211.5t183.5 142t240.5 48.5q135 0 279 -62q14 74 14 98q0 66 -46.5 104t-143.5 38q-133 0 -297 -80l-78 209q244 110 452 110zM737 346l4 -6q3 21 11 55.5t10 44.5q-95 31 -203 31q-96 0 -174 -60t-78 -137q0 -44 37 -68t100 -24q96 0 181 46t112 118z" />
    <glyph glyph-name="adieresis.alt" horiz-adv-x="1189" 
d="M557 1196q-60 0 -96.5 38t-36.5 95q0 65 46.5 109.5t107.5 44.5q58 0 94.5 -38.5t36.5 -96.5q0 -62 -46 -107t-106 -45zM991 1196q-60 0 -96.5 38.5t-36.5 96.5q0 63 46.5 107.5t107.5 44.5q58 0 94.5 -38.5t36.5 -94.5q0 -63 -46 -108.5t-106 -45.5zM698 1083
q184 0 293 -96t109 -256q0 -15 -1 -28.5t-3 -29.5t-7.5 -45t-11.5 -59.5t-18.5 -88t-24.5 -116.5t-33.5 -160t-42.5 -204h-288l18 92q-64 -57 -148 -87t-167 -30q-157 0 -253.5 79.5t-96.5 209.5q0 118 71 211.5t183.5 142t240.5 48.5q135 0 279 -62q14 74 14 98
q0 66 -46.5 104t-143.5 38q-133 0 -297 -80l-78 209q244 110 452 110zM737 346l4 -6q3 21 11 55.5t10 44.5q-95 31 -203 31q-96 0 -174 -60t-78 -137q0 -44 37 -68t100 -24q96 0 181 46t112 118z" />
    <glyph glyph-name="agrave.alt" horiz-adv-x="1189" 
d="M936 1178h-195l-247 270l272 49zM698 1083q184 0 293 -96t109 -256q0 -15 -1 -28.5t-3 -29.5t-7.5 -45t-11.5 -59.5t-18.5 -88t-24.5 -116.5t-33.5 -160t-42.5 -204h-288l18 92q-64 -57 -148 -87t-167 -30q-157 0 -253.5 79.5t-96.5 209.5q0 118 71 211.5t183.5 142
t240.5 48.5q135 0 279 -62q14 74 14 98q0 66 -46.5 104t-143.5 38q-133 0 -297 -80l-78 209q244 110 452 110zM737 346l4 -6q3 21 11 55.5t10 44.5q-95 31 -203 31q-96 0 -174 -60t-78 -137q0 -44 37 -68t100 -24q96 0 181 46t112 118z" />
    <glyph glyph-name="amacron.alt" horiz-adv-x="1189" 
d="M436 1366h707l-37 -176h-707zM698 1083q184 0 293 -96t109 -256q0 -15 -1 -28.5t-3 -29.5t-7.5 -45t-11.5 -59.5t-18.5 -88t-24.5 -116.5t-33.5 -160t-42.5 -204h-288l18 92q-64 -57 -148 -87t-167 -30q-157 0 -253.5 79.5t-96.5 209.5q0 118 71 211.5t183.5 142
t240.5 48.5q135 0 279 -62q14 74 14 98q0 66 -46.5 104t-143.5 38q-133 0 -297 -80l-78 209q244 110 452 110zM737 346l4 -6q3 21 11 55.5t10 44.5q-95 31 -203 31q-96 0 -174 -60t-78 -137q0 -44 37 -68t100 -24q96 0 181 46t112 118z" />
    <glyph glyph-name="aogonek.alt" horiz-adv-x="1189" 
d="M899 -174q61 0 98 37l37 -158q-76 -59 -182 -59q-93 0 -147 51t-54 141t56 162h-37l18 92q-64 -57 -148 -87t-167 -30q-157 0 -253.5 79.5t-96.5 209.5q0 118 71 211.5t183.5 142t240.5 48.5q135 0 279 -62q14 74 14 98q0 66 -46.5 104t-143.5 38q-133 0 -297 -80
l-78 209q244 110 452 110q184 0 293 -96t109 -256q0 -15 -1 -28.5t-3 -29.5t-7.5 -44.5t-11.5 -59t-18.5 -88t-24.5 -116t-33.5 -159t-42.5 -202.5l11 -4q-54 0 -91.5 -34t-37.5 -85q0 -55 59 -55zM737 346l4 -6q3 21 11 55.5t10 44.5q-95 31 -203 31q-96 0 -174 -60
t-78 -137q0 -44 37 -68t100 -24q96 0 181 46t112 118z" />
    <glyph glyph-name="aring.alt" horiz-adv-x="1189" 
d="M752 1190q-84 0 -137.5 52.5t-53.5 131.5q0 112 89 196.5t198 84.5q84 0 137 -52.5t53 -132.5q0 -111 -88 -195.5t-198 -84.5zM823 1530q-52 0 -93.5 -38.5t-41.5 -88.5q0 -39 25.5 -64.5t64.5 -25.5q50 0 90.5 40t40.5 91q0 37 -24 61.5t-62 24.5zM698 1083
q184 0 293 -96t109 -256q0 -15 -1 -28.5t-3 -29.5t-7.5 -45t-11.5 -59.5t-18.5 -88t-24.5 -116.5t-33.5 -160t-42.5 -204h-288l18 92q-64 -57 -148 -87t-167 -30q-157 0 -253.5 79.5t-96.5 209.5q0 118 71 211.5t183.5 142t240.5 48.5q135 0 279 -62q14 74 14 98
q0 66 -46.5 104t-143.5 38q-133 0 -297 -80l-78 209q244 110 452 110zM737 346l4 -6q3 21 11 55.5t10 44.5q-95 31 -203 31q-96 0 -174 -60t-78 -137q0 -44 37 -68t100 -24q96 0 181 46t112 118z" />
    <glyph glyph-name="atilde.alt" horiz-adv-x="1189" 
d="M657 1278q-80 0 -127 -119l-143 43q44 136 106.5 198t155.5 62q42 0 83.5 -16t67 -36t52.5 -36t45 -16q82 0 129 119l143 -45q-44 -135 -107 -196.5t-155 -61.5q-43 0 -84.5 16t-67 36t-53 36t-45.5 16zM698 1083q184 0 293 -96t109 -256q0 -15 -1 -28.5t-3 -29.5
t-7.5 -45t-11.5 -59.5t-18.5 -88t-24.5 -116.5t-33.5 -160t-42.5 -204h-288l18 92q-64 -57 -148 -87t-167 -30q-157 0 -253.5 79.5t-96.5 209.5q0 118 71 211.5t183.5 142t240.5 48.5q135 0 279 -62q14 74 14 98q0 66 -46.5 104t-143.5 38q-133 0 -297 -80l-78 209
q244 110 452 110zM737 346l4 -6q3 21 11 55.5t10 44.5q-95 31 -203 31q-96 0 -174 -60t-78 -137q0 -44 37 -68t100 -24q96 0 181 46t112 118z" />
    <glyph glyph-name="ascender" horiz-adv-x="1355" 
d="M23 0l296 1432h299l-296 -1432h-299z" />
    <glyph glyph-name="descender" horiz-adv-x="1355" 
d="M-51 -352l293 1411h299l-293 -1411h-299z" />
    </font>
</defs>
</svg>
