<?xml version="1.0" standalone="no"?>
<!DOCTYPE svg PUBLIC "-//W3C//DTD SVG 1.1//EN" "http://www.w3.org/Graphics/SVG/1.1/DTD/svg11.dtd" >
<svg xmlns="http://www.w3.org/2000/svg" xmlns:xlink="http://www.w3.org/1999/xlink" version="1.1">
<metadata>
Created by FontForge 20170731 at Tue Jan 26 16:34:58 2021
 By Aleksey,,,
Copyright (c) 2016 by Chris Simpson.
</metadata>
<defs>
<font id="Metropolis-BlackItalic" horiz-adv-x="1384" >
  <font-face 
    font-family="Metropolis Black"
    font-weight="900"
    font-style="italic"
    font-stretch="normal"
    units-per-em="2048"
    panose-1="0 0 10 0 0 0 0 0 0 0"
    ascent="1628"
    descent="-420"
    x-height="1059"
    cap-height="1407"
    bbox="-662 -627 2478 2021"
    underline-thickness="40"
    underline-position="-312"
    slope="-11.75"
    unicode-range="U+0020-2212"
  />
<missing-glyph horiz-adv-x="1024" 
d="M840 1628v-2048h-650v2048h650zM682 1491h-338v-68h133v-75h-135v-68h340v68h-135v75h135v68zM547 1227h-205v-213h340v69h-135v144zM477 1157v-74h-67v74h67zM682 958h-340v-67h135v-76h-135v-67h205v143h135v67zM682 836h-68v-136h-272v-69h340v205zM682 586h-205v-115
h70v47h67v-96h-204v164h-68v-232h340v232zM682 231h-340v-231h340v231zM614 164v-96h-204v96h204zM682 -47h-340v-68h143l-143 -96v-68h340v68h-209l143 96h66v68z" />
    <glyph glyph-name=".notdef" horiz-adv-x="1024" 
d="M840 1628v-2048h-650v2048h650zM682 1491h-338v-68h133v-75h-135v-68h340v68h-135v75h135v68zM547 1227h-205v-213h340v69h-135v144zM477 1157v-74h-67v74h67zM682 958h-340v-67h135v-76h-135v-67h205v143h135v67zM682 836h-68v-136h-272v-69h340v205zM682 586h-205v-115
h70v47h67v-96h-204v164h-68v-232h340v232zM682 231h-340v-231h340v231zM614 164v-96h-204v96h204zM682 -47h-340v-68h143l-143 -96v-68h340v68h-209l143 96h66v68z" />
    <glyph glyph-name=".null" horiz-adv-x="0" 
 />
    <glyph glyph-name="nonmarkingreturn" horiz-adv-x="682" 
 />
    <glyph glyph-name="space" unicode=" " horiz-adv-x="557" 
 />
    <glyph glyph-name="exclam" unicode="!" horiz-adv-x="671" 
d="M201 561l88 846h440l-262 -846h-266zM250 -25q-95 0 -155 61.5t-60 153.5q0 108 79.5 183.5t184.5 75.5q89 0 148 -61.5t59 -149.5q0 -106 -78 -184.5t-178 -78.5z" />
    <glyph glyph-name="quotedbl" unicode="&#x22;" horiz-adv-x="1196" 
d="M285 758q-37 249 -37 356q0 145 67 237.5t183 92.5q70 0 114.5 -46t44.5 -116q0 -122 -233 -524h-139zM862 758q-37 249 -37 356q0 145 67 237.5t183 92.5q70 0 115 -46t45 -116q0 -120 -234 -524h-139z" />
    <glyph glyph-name="numbersign" unicode="#" horiz-adv-x="1390" 
d="M1331 827h-170l-117 -252h170l-124 -274h-170l-140 -301h-282l139 301h-182l-140 -301h-282l139 301h-166l125 274h166l117 252h-174l125 275h174l141 305h283l-142 -305h183l141 305h282l-141 -305h170zM762 575l117 252h-183l-116 -252h182z" />
    <glyph glyph-name="dollar" unicode="$" horiz-adv-x="1325" 
d="M776 868q104 -24 176 -47t132 -53.5t95 -68.5t53.5 -89t18.5 -118q0 -144 -79.5 -258.5t-214.5 -179.5t-306 -77l-26 -129h-226l29 140q-143 23 -266 84t-209 151l258 244q85 -81 191.5 -121.5t209.5 -40.5q111 0 173.5 42.5t62.5 94.5q0 28 -25.5 40t-125.5 37
q-32 8 -50 13q-86 22 -130.5 35t-111 36.5t-100.5 49t-70.5 63t-51.5 88t-15 114.5q0 202 153.5 344t405.5 165l27 127h225l-27 -133q249 -36 414 -190l-238 -262q-80 69 -175.5 101t-174.5 32q-95 0 -150 -43.5t-55 -93.5q0 -36 37.5 -52t165.5 -45z" />
    <glyph glyph-name="percent" unicode="%" horiz-adv-x="1771" 
d="M489 692q-147 0 -233 85t-86 220q0 175 121.5 299.5t298.5 124.5q151 0 237 -86t86 -221q0 -114 -55.5 -211t-153 -154t-215.5 -57zM141 0l1282 1407h281l-1282 -1407h-281zM485 911q76 0 130.5 68t54.5 145q0 37 -19.5 56.5t-54.5 19.5q-76 0 -129 -68t-53 -145
q0 -37 19 -56.5t52 -19.5zM1251 -23q-150 0 -236.5 87t-86.5 221q0 173 123.5 298.5t300.5 125.5q148 0 233.5 -87t85.5 -223q0 -172 -122.5 -297t-297.5 -125zM1245 199q76 0 130.5 68t54.5 143q0 38 -20 57.5t-54 19.5q-78 0 -131.5 -67.5t-53.5 -145.5q0 -75 74 -75z" />
    <glyph glyph-name="ampersand" unicode="&#x26;" horiz-adv-x="1396" 
d="M1376 614q-142 -191 -266 -315q1 -1 160 -217l-322 -117q-79 114 -90 131q-198 -121 -412 -121q-199 0 -317.5 93t-118.5 256q0 94 26.5 168t80.5 130t121.5 97.5t164.5 81.5q-53 100 -53 174q0 127 69.5 231.5t180.5 161.5t236 57q177 0 283 -89.5t106 -235.5
q0 -62 -18.5 -114t-49 -92t-83.5 -78t-108.5 -67.5t-136.5 -66.5q13 -20 107 -150q102 110 186 244zM840 1161q-61 0 -114.5 -54t-53.5 -118q0 -43 22 -88q106 38 158.5 82.5t52.5 118.5q0 28 -17 43.5t-48 15.5zM512 264q78 0 186 64q-42 60 -153 231q-144 -84 -144 -201
q0 -44 31 -69t80 -25z" />
    <glyph glyph-name="quotesingle" unicode="'" horiz-adv-x="618" 
d="M285 758q-37 249 -37 356q0 145 67 237.5t183 92.5q70 0 114.5 -46t44.5 -116q0 -122 -233 -524h-139z" />
    <glyph glyph-name="parenleft" unicode="(" horiz-adv-x="829" 
d="M397 -340q-155 118 -239 294t-84 390q0 329 181.5 624t485.5 474l177 -228q-469 -401 -469 -903q0 -124 41 -234.5t131 -223.5z" />
    <glyph glyph-name="parenright" unicode=")" horiz-adv-x="829" 
d="M94 -356l-176 229q469 397 469 903q0 123 -41.5 234t-130.5 225l223 190q155 -118 239.5 -293t84.5 -387q0 -333 -182 -627t-486 -474z" />
    <glyph glyph-name="asterisk" unicode="*" horiz-adv-x="796" 
d="M428 666q-40 0 -63 26.5t-15 61.5q8 37 46.5 116.5t47.5 104.5q-26 -17 -93.5 -76.5t-100.5 -77.5q-35 -19 -70 -7.5t-47 46.5t4 72.5t51 54.5q34 18 118 37t110 29q-22 9 -97.5 28.5t-103.5 38.5q-27 18 -28 54.5t26 72.5q28 35 67.5 46.5t65.5 -7.5q27 -18 70.5 -79
t60.5 -77q1 24 -6 111t2 111q8 35 42 61.5t73 26.5q40 0 63 -26.5t15 -61.5q-8 -37 -50 -118t-51 -104q25 17 95 76.5t104 77.5q34 19 69.5 7.5t47.5 -46.5t-5 -72.5t-51 -54.5q-34 -18 -119.5 -36.5t-111.5 -28.5q22 -9 99.5 -29t105.5 -39q26 -17 27 -54.5t-25 -72.5
q-28 -35 -67.5 -46.5t-65.5 7.5q-27 18 -71.5 79t-61.5 77q-1 -22 8.5 -110.5t-0.5 -110.5q-8 -35 -42 -61.5t-73 -26.5z" />
    <glyph glyph-name="plus" unicode="+" horiz-adv-x="1247" 
d="M1198 836l-63 -306h-347l-73 -358h-328l74 358h-348l63 306h350l74 358h328l-74 -358h344z" />
    <glyph glyph-name="comma" unicode="," horiz-adv-x="636" 
d="M137 -328l-129 119q117 79 197 199q-80 0 -133.5 54t-53.5 140q0 105 79 185t177 80q94 0 149.5 -68.5t55.5 -179.5q0 -149 -94.5 -283.5t-247.5 -245.5z" />
    <glyph glyph-name="hyphen" unicode="-" horiz-adv-x="739" 
d="M53 408l68 323h581l-67 -323h-582z" />
    <glyph glyph-name="period" unicode="." horiz-adv-x="641" 
d="M236 -25q-95 0 -155.5 61.5t-60.5 153.5q0 108 80 183.5t185 75.5q89 0 148 -61.5t59 -149.5q0 -106 -78 -184.5t-178 -78.5z" />
    <glyph glyph-name="slash" unicode="/" horiz-adv-x="1017" 
d="M-201 -152l1045 1674h418l-1045 -1674h-418z" />
    <glyph glyph-name="zero" unicode="0" horiz-adv-x="1472" 
d="M645 -25q-253 0 -402 155.5t-149 412.5q0 174 61.5 336.5t167 284t256 195t318.5 73.5q255 0 404 -155.5t149 -412.5q0 -139 -39 -271.5t-112 -243.5t-171 -195.5t-223 -131.5t-260 -47zM670 336q101 0 189 79.5t136.5 197.5t48.5 235q0 104 -44.5 163.5t-125.5 59.5
q-102 0 -190 -79t-136 -196.5t-48 -236.5q0 -104 44.5 -163.5t125.5 -59.5z" />
    <glyph glyph-name="one" unicode="1" horiz-adv-x="931" 
d="M291 0l203 961l-261 -144l-104 275l533 315h319l-293 -1407h-397z" />
    <glyph glyph-name="two" unicode="2" horiz-adv-x="1288" 
d="M-18 0l61 322l596 385q115 73 182.5 142.5t67.5 143.5q0 38 -31 58t-84 20q-96 0 -183 -43.5t-190 -132.5l-211 270q280 267 617 267q226 0 358.5 -112t132.5 -292q0 -96 -29 -178t-86.5 -150.5t-129.5 -124t-172 -112.5l-215 -109h514l-74 -354h-1124z" />
    <glyph glyph-name="three" unicode="3" horiz-adv-x="1263" 
d="M539 -27q-200 0 -343.5 66t-228.5 178l260 244q59 -69 142 -101t170 -32q101 0 174 44.5t73 112.5q0 32 -39.5 44.5t-148.5 11.5l-184 -2l69 331h156q97 0 157 34.5t72 94.5q7 40 -30 59t-115 19q-166 0 -350 -149l-185 266q257 238 600 238q236 0 366 -94t130 -248
q0 -138 -88.5 -234t-239.5 -139q98 -23 162 -95.5t64 -179.5q0 -141 -92 -250t-237 -164t-314 -55z" />
    <glyph glyph-name="four" unicode="4" horiz-adv-x="1363" 
d="M633 0l53 250h-676l25 299l796 856h492l-172 -827h170l-68 -328h-170l-53 -250h-397zM457 578h297l92 421z" />
    <glyph glyph-name="five" unicode="5" horiz-adv-x="1288" 
d="M528 -27q-346 0 -551 222l267 258q65 -66 144 -102t161 -36q107 0 188.5 60.5t81.5 142.5q0 88 -151 88q-146 0 -281 -92l-248 109l183 784h1001l-74 -354h-637l-57 -193q113 70 256 70q176 0 289.5 -98.5t113.5 -270.5q0 -177 -91.5 -312t-246.5 -205.5t-348 -70.5z" />
    <glyph glyph-name="six" unicode="6" horiz-adv-x="1349" 
d="M856 930q184 0 300 -102t116 -273q0 -164 -89.5 -298t-239 -208t-325.5 -74q-266 0 -402 138t-136 379q0 191 62.5 363.5t172 299.5t269 202t344.5 75q253 0 442 -150l-223 -283q-102 86 -236 86q-205 0 -333 -221q132 66 278 66zM612 311q97 0 172.5 62t75.5 143
q0 47 -40.5 71.5t-104.5 24.5q-69 0 -134 -37t-110 -98v-39q0 -69 32 -98t109 -29z" />
    <glyph glyph-name="seven" unicode="7" horiz-adv-x="1245" 
d="M86 0l752 1053h-650l74 354h1110l-57 -299l-772 -1108h-457z" />
    <glyph glyph-name="eight" unicode="8" horiz-adv-x="1302" 
d="M561 -25q-236 0 -388.5 96.5t-152.5 264.5q0 142 89.5 242.5t240.5 160.5q-155 81 -155 256q0 86 35 158.5t95 123t139.5 86t168 52.5t180.5 17q144 0 258.5 -40.5t183 -119.5t68.5 -185q0 -247 -287 -372q88 -42 137.5 -116t49.5 -169q0 -89 -36.5 -164.5t-99.5 -128.5
t-147.5 -90t-180.5 -54.5t-198 -17.5zM694 860q87 5 160.5 58t73.5 116q0 33 -34.5 52.5t-96.5 19.5q-88 0 -158 -50t-70 -116q0 -34 34.5 -55.5t90.5 -24.5zM580 303q98 0 178 51t80 121q0 35 -45 57t-111 25q-96 -5 -176 -57t-80 -121q0 -36 40.5 -56t113.5 -20z" />
    <glyph glyph-name="nine" unicode="9" horiz-adv-x="1351" 
d="M805 1432q266 0 402 -138t136 -379q0 -191 -62 -363.5t-171.5 -299.5t-269 -202t-344.5 -75q-254 0 -443 150l223 283q102 -86 236 -86q206 0 334 221q-132 -66 -279 -66q-184 0 -299.5 102t-115.5 273q0 123 52.5 232t141 184.5t208.5 119.5t251 44zM709 795
q69 0 133.5 36.5t109.5 98.5v39q0 69 -32 98t-109 29q-97 0 -172.5 -62t-75.5 -143q0 -47 41 -71.5t105 -24.5z" />
    <glyph glyph-name="colon" unicode=":" horiz-adv-x="645" 
d="M377 641q-97 0 -157 61.5t-60 155.5q0 106 80 181t184 75q91 0 150 -62t59 -151q0 -104 -78 -182t-178 -78zM238 -25q-95 0 -155 61.5t-60 153.5q0 108 79.5 183.5t184.5 75.5q89 0 148 -61.5t59 -149.5q0 -106 -78 -184.5t-178 -78.5z" />
    <glyph glyph-name="semicolon" unicode=";" horiz-adv-x="643" 
d="M414 825q-95 0 -155 61.5t-60 153.5q0 108 79.5 183t184.5 75q89 0 148 -61.5t59 -149.5q0 -106 -78 -184t-178 -78zM143 -328l-129 119q117 79 197 199q-79 0 -132.5 54t-53.5 140q0 105 79 185t177 80q94 0 149 -68t55 -180q0 -149 -94.5 -283.5t-247.5 -245.5z" />
    <glyph glyph-name="less" unicode="&#x3c;" horiz-adv-x="1226" 
d="M1012 160l-891 387l61 313l1053 387l-59 -307l-730 -238l627 -233z" />
    <glyph glyph-name="equal" unicode="=" horiz-adv-x="1247" 
d="M166 782l63 305h1022l-63 -305h-1022zM66 303l63 305h1022l-64 -305h-1021z" />
    <glyph glyph-name="greater" unicode="&#x3e;" horiz-adv-x="1226" 
d="M66 160l61 309l727 233l-627 238l60 307l893 -387l-62 -313z" />
    <glyph glyph-name="question" unicode="?" horiz-adv-x="1038" 
d="M326 541l61 307q111 0 211 46t100 105q0 78 -118 78q-56 0 -120.5 -26.5t-109.5 -63.5l-188 244q114 96 247.5 148.5t270.5 52.5q193 0 308.5 -98.5t115.5 -258.5q0 -168 -116.5 -296.5t-287.5 -168.5l-14 -69h-360zM451 -25q-95 0 -155 61.5t-60 153.5q0 108 79.5 183.5
t184.5 75.5q89 0 148 -61.5t59 -149.5q0 -106 -78 -184.5t-178 -78.5z" />
    <glyph glyph-name="at" unicode="@" horiz-adv-x="1802" 
d="M709 -238q-144 0 -264 45.5t-201.5 126t-126.5 192t-45 241.5q0 128 41 256.5t113 239.5t172.5 208t216 165.5t248 108t263.5 39.5q145 0 265 -44.5t200 -121t124 -179.5t44 -220q0 -124 -46 -246.5t-122.5 -216.5t-183.5 -152.5t-221 -58.5q-200 0 -234 154
q-146 -149 -313 -149q-132 0 -205.5 75.5t-73.5 204.5q0 146 82 289t214 233t268 90q89 0 148 -36t87 -97l45 107l314 -25q-35 -88 -76 -186.5t-64 -152.5t-44 -108t-29.5 -85.5t-8.5 -52.5q0 -34 20 -53t58 -19q82 0 151 79t104.5 188t35.5 212q0 215 -151 350t-410 135
q-144 0 -285.5 -49.5t-258 -138t-207 -202.5t-141 -251.5t-50.5 -275.5q0 -236 155 -385.5t416 -149.5q224 0 461 125l31 -67q-256 -142 -516 -142zM813 414q90 0 164 87t74 177q0 46 -27 73t-74 27q-97 0 -173.5 -82t-76.5 -176q0 -51 30 -78.5t83 -27.5z" />
    <glyph glyph-name="A" unicode="A" horiz-adv-x="1587" 
d="M1034 0l-33 188h-489l-111 -188h-456l833 1407h455l-4 -8l246 -1399h-441zM686 481h262l-59 342z" />
    <glyph glyph-name="B" unicode="B" horiz-adv-x="1456" 
d="M12 0l293 1407h746q177 0 286 -87.5t109 -225.5q0 -120 -71.5 -218t-192.5 -151q88 -40 139 -119t51 -178t-45.5 -181t-123.5 -135.5t-178.5 -82.5t-211.5 -29h-801zM588 860h254q82 0 133 42t51 108q-1 34 -28 48.5t-87 14.5h-280zM477 334h314q85 0 138.5 43t53.5 112
q0 37 -28.5 53.5t-92.5 16.5h-338z" />
    <glyph glyph-name="C" unicode="C" horiz-adv-x="1456" 
d="M741 -25q-172 0 -319 83t-234.5 230t-87.5 322q0 158 74 309.5t194.5 263.5t282.5 180.5t330 68.5q175 0 321.5 -71.5t235.5 -186.5l-328 -234q-35 60 -99 95.5t-148 35.5q-115 0 -222 -65t-172 -170.5t-65 -217.5q0 -127 80.5 -204.5t187.5 -77.5q79 0 171.5 44
t156.5 112l252 -279q-118 -105 -287.5 -171.5t-323.5 -66.5z" />
    <glyph glyph-name="D" unicode="D" horiz-adv-x="1556" 
d="M12 0l293 1407h512q207 0 371 -75t255 -209t91 -304q0 -163 -79 -314.5t-211 -262t-314 -176.5t-379 -66h-539zM485 360h181q124 0 230.5 60.5t169 163t62.5 221.5q0 106 -82.5 174t-211.5 68h-205z" />
    <glyph glyph-name="E" unicode="E" horiz-adv-x="1333" 
d="M1364 1053h-735l-31 -158h668l-74 -354h-670l-37 -187h734l-74 -354h-1133l293 1407h1133z" />
    <glyph glyph-name="F" unicode="F" horiz-adv-x="1333" 
d="M1364 1053h-735l-39 -199h667l-73 -354h-672l-102 -500h-398l293 1407h1133z" />
    <glyph glyph-name="G" unicode="G" horiz-adv-x="1525" 
d="M774 518l62 293h659l-125 -598q-131 -116 -292 -177t-322 -61q-188 0 -339 82.5t-235 223.5t-84 313q0 165 79.5 321t207 268.5t292.5 180.5t331 68q173 0 315.5 -69t232.5 -189l-327 -234q-37 65 -102 98t-142 33q-118 0 -231.5 -69.5t-182.5 -177.5t-69 -218
q0 -116 78 -193t200 -77q121 0 244 78l20 104h-270z" />
    <glyph glyph-name="H" unicode="H" horiz-adv-x="1554" 
d="M1217 1407h397l-293 -1407h-395l108 541h-514l-110 -541h-398l293 1407h397l-102 -512h514z" />
    <glyph glyph-name="I" unicode="I" horiz-adv-x="657" 
d="M20 0l293 1407h398l-293 -1407h-398z" />
    <glyph glyph-name="J" unicode="J" horiz-adv-x="1118" 
d="M410 -25q-149 0 -279 70.5t-188 175.5l293 223q16 -52 57 -80t88 -28q81 0 147.5 53.5t81.5 126.5l185 891h397l-201 -965q-42 -211 -203 -339t-378 -128z" />
    <glyph glyph-name="K" unicode="K" horiz-adv-x="1468" 
d="M12 0l293 1407h397l-106 -498l549 498h506l-658 -598l383 -809h-452l-248 532l-182 -159l-84 -373h-398z" />
    <glyph glyph-name="L" unicode="L" horiz-adv-x="1222" 
d="M487 354h652l-74 -354h-1053l293 1407h397z" />
    <glyph glyph-name="M" unicode="M" horiz-adv-x="1794" 
d="M12 0l293 1407h393l234 -672l520 672h401l-292 -1407h-398l162 754l-512 -672l-242 672l-161 -754h-398z" />
    <glyph glyph-name="N" unicode="N" horiz-adv-x="1589" 
d="M12 0l293 1407h393l392 -754l161 754h398l-293 -1407h-391l-394 754l-161 -754h-398z" />
    <glyph glyph-name="O" unicode="O" horiz-adv-x="1667" 
d="M743 -25q-139 0 -260 48.5t-205.5 131t-133 196t-48.5 241.5q0 165 78.5 321.5t204 269t289 181t327.5 68.5q139 0 261 -48t207 -130.5t133.5 -195.5t48.5 -241q0 -132 -50.5 -260.5t-139 -232t-202 -183t-246 -123t-264.5 -43.5zM768 336q116 0 227 70.5t178.5 179
t67.5 217.5q0 116 -75.5 192t-192.5 76q-116 0 -227 -70.5t-178.5 -179t-67.5 -217.5q0 -116 75 -192t193 -76z" />
    <glyph glyph-name="P" unicode="P" horiz-adv-x="1372" 
d="M12 0l293 1407h662q205 0 329.5 -113t124.5 -297q0 -164 -84.5 -295.5t-229 -204.5t-319.5 -73h-288l-90 -424h-398zM573 784h232q77 0 144 58t67 123q0 39 -34 60.5t-97 21.5h-256z" />
    <glyph glyph-name="Q" unicode="Q" horiz-adv-x="1667" 
d="M1645 817q0 -276 -203 -508l90 -92l-223 -217l-105 109q-225 -134 -461 -134q-139 0 -260 48.5t-205.5 131t-133 196t-48.5 241.5q0 165 78.5 321.5t204 269t289 181t327.5 68.5q139 0 261 -48t207 -130.5t133.5 -195.5t48.5 -241zM768 336q88 0 176 43l-96 100l223 217
l105 -108q65 108 65 215q0 116 -75.5 192t-192.5 76q-116 0 -227 -70.5t-178.5 -179t-67.5 -217.5q0 -116 75 -192t193 -76z" />
    <glyph glyph-name="R" unicode="R" horiz-adv-x="1476" 
d="M1421 997q0 -181 -102.5 -321.5t-271.5 -204.5l284 -471h-442l-256 424h-133l-90 -424h-398l293 1407h662q205 0 329.5 -113t124.5 -297zM629 1047l-56 -263h232q77 0 144 58t67 123q0 39 -34 60.5t-97 21.5h-256z" />
    <glyph glyph-name="S" unicode="S" horiz-adv-x="1325" 
d="M584 -25q-189 0 -355 66t-276 182l258 244q85 -81 191.5 -121.5t209.5 -40.5q111 0 173.5 42.5t62.5 94.5q0 28 -25.5 40t-125.5 37q-32 8 -50 13q-86 22 -130.5 35t-111 36.5t-100.5 49t-70.5 63t-51.5 88t-15 114.5q0 220 180 367t467 147q162 0 304 -51t247 -150
l-238 -262q-80 69 -175.5 101t-174.5 32q-95 0 -150 -43.5t-55 -93.5q0 -36 37.5 -52t165.5 -45q104 -24 176 -47t132 -53.5t95 -68.5t53.5 -89t18.5 -118q0 -153 -89 -272t-240.5 -182t-337.5 -63z" />
    <glyph glyph-name="T" unicode="T" horiz-adv-x="1320" 
d="M352 0l219 1053h-415l73 354h1229l-74 -354h-415l-219 -1053h-398z" />
    <glyph glyph-name="U" unicode="U" horiz-adv-x="1558" 
d="M688 -25q-120 0 -221.5 32.5t-172.5 92t-117.5 142.5t-56.5 183.5t11 215.5l160 766h397l-162 -778q-28 -134 24 -213.5t163 -79.5q127 0 231.5 94.5t134.5 231.5l154 745h397l-166 -799q-58 -284 -273.5 -458.5t-502.5 -174.5z" />
    <glyph glyph-name="V" unicode="V" horiz-adv-x="1533" 
d="M1257 1407h457l-833 -1407h-455l4 8l-246 1399h441l145 -823z" />
    <glyph glyph-name="W" unicode="W" horiz-adv-x="2203" 
d="M297 0l-98 1407h422v-813l444 813h428l98 -813l344 813h435l-682 -1407h-402l-119 813l-469 -813h-401z" />
    <glyph glyph-name="X" unicode="X" horiz-adv-x="1511" 
d="M1686 1407l-664 -719l344 -688h-446l-187 373l-344 -373h-491l663 719l-344 688h447l186 -373l344 373h492z" />
    <glyph glyph-name="Y" unicode="Y" horiz-adv-x="1452" 
d="M412 0l102 463l-344 944h369l217 -600l444 600h447l-736 -944l-102 -463h-397z" />
    <glyph glyph-name="Z" unicode="Z" horiz-adv-x="1366" 
d="M-20 0l53 297l825 756h-647l74 354h1196l-58 -297l-819 -756h668l-74 -354h-1218z" />
    <glyph glyph-name="bracketleft" unicode="[" horiz-adv-x="817" 
d="M-47 -328l362 1739h605l-52 -248h-303l-260 -1243h303l-51 -248h-604z" />
    <glyph glyph-name="backslash" unicode="\" horiz-adv-x="1001" 
d="M518 -152l-348 1674h401l349 -1674h-402z" />
    <glyph glyph-name="bracketright" unicode="]" horiz-adv-x="815" 
d="M-98 -328l51 248h303l260 1243h-303l51 248h604l-362 -1739h-604z" />
    <glyph glyph-name="asciicircum" unicode="^" horiz-adv-x="995" 
d="M139 846l410 561h264l174 -561h-256l-88 328l-229 -328h-275z" />
    <glyph glyph-name="underscore" unicode="_" horiz-adv-x="1212" 
d="M-182 -326l43 201h1220l-43 -201h-1220z" />
    <glyph glyph-name="grave" unicode="`" horiz-adv-x="817" 
d="M575 1176l-253 278l342 57l159 -335h-248z" />
    <glyph glyph-name="a" unicode="a" 
d="M995 1059h396l-222 -1059h-395l23 106q-150 -131 -342 -131q-186 0 -296 120t-110 315q0 129 44.5 251t120.5 215.5t186.5 150t234.5 56.5q109 0 193.5 -44.5t136.5 -127.5zM426 453q0 -70 45.5 -110t126.5 -40q119 0 208 96.5t89 210.5q0 68 -41 107t-111 39
q-128 0 -222.5 -91.5t-94.5 -211.5z" />
    <glyph glyph-name="b" unicode="b" 
d="M930 1083q186 0 295.5 -118.5t109.5 -313.5q0 -130 -44 -253t-120.5 -216.5t-186.5 -150t-234 -56.5q-108 0 -193 44.5t-135 123.5l-31 -143h-395l297 1432h395l-100 -482q152 133 342 133zM643 303q126 0 220.5 93t94.5 210q0 69 -45.5 109.5t-124.5 40.5
q-101 0 -182.5 -71.5t-107.5 -170.5l-4 -22q-5 -35 -5 -43q0 -68 41 -107t113 -39z" />
    <glyph glyph-name="c" unicode="c" horiz-adv-x="1138" 
d="M559 -25q-219 0 -363.5 138.5t-144.5 341.5q0 126 60.5 243.5t158 201t223 133.5t252.5 50q274 0 418 -209l-286 -188q-22 33 -65.5 51.5t-86.5 18.5q-114 0 -208.5 -94.5t-94.5 -200.5q0 -68 45 -113t115 -45q57 0 119.5 28.5t101.5 67.5l231 -233q-203 -191 -475 -191z
" />
    <glyph glyph-name="d" unicode="d" 
d="M1071 1432h395l-297 -1432h-395l23 106q-150 -131 -342 -131q-186 0 -296 120t-110 315q0 129 44.5 251t120.5 215.5t186.5 150t234.5 56.5q109 0 193.5 -44.5t136.5 -125.5zM426 453q0 -70 45.5 -110t126.5 -40q119 0 208 96.5t89 210.5q0 68 -41 107t-111 39
q-128 0 -222.5 -91.5t-94.5 -211.5z" />
    <glyph glyph-name="e" unicode="e" horiz-adv-x="1146" 
d="M1116 795q0 -179 -138.5 -273.5t-385.5 -85.5h-213q0 -77 40.5 -121.5t112.5 -44.5q129 0 269 99l190 -240q-84 -70 -210 -112t-242 -42q-225 0 -358.5 125.5t-133.5 329.5q0 134 51 254.5t138 208t208.5 139t257.5 51.5q182 0 298 -80.5t116 -207.5zM692 788
q-72 0 -136.5 -39.5t-109.5 -105.5h189q75 0 118.5 24.5t45.5 67.5q0 23 -30.5 38t-76.5 15z" />
    <glyph glyph-name="f" unicode="f" horiz-adv-x="808" 
d="M807 1167q-58 0 -96 -32t-54 -76h209l-65 -311h-209l-156 -748h-377l156 748h-133l65 311h134l14 74q33 156 143.5 249t251.5 93q86 0 159 -34t118 -85l-95 -209q-26 20 -65 20z" />
    <glyph glyph-name="g" unicode="g" horiz-adv-x="1345" 
d="M954 1059h398l-201 -963q-42 -204 -228 -326t-442 -122q-149 0 -275 41.5t-206 107.5l166 254q36 -36 111 -56t153 -20q128 0 224.5 52t111.5 123l10 47q-146 -119 -330 -119q-173 0 -279 113.5t-106 295.5q0 150 71 287t196.5 223t271.5 86q110 0 200 -46.5t126 -116.5z
M600 406q86 0 160 53t96 129l6 30q2 6 2 21q0 56 -35.5 86.5t-99.5 30.5q-102 0 -183 -70t-81 -162q0 -59 36.5 -88.5t98.5 -29.5z" />
    <glyph glyph-name="h" unicode="h" horiz-adv-x="1284" 
d="M885 1083q153 0 244.5 -91t91.5 -236q0 -15 -1 -30t-3.5 -32t-8 -47.5t-12 -62t-19.5 -92t-25.5 -120.5t-34.5 -164l-44 -208h-377q98 466 114.5 546.5t16.5 102.5q0 52 -28 79.5t-78 27.5q-75 0 -137 -53t-74 -125v4l-121 -582h-395l297 1432h395l-96 -459
q119 110 295 110z" />
    <glyph glyph-name="i" unicode="i" horiz-adv-x="622" 
d="M473 1174q-82 0 -135 54t-53 132q0 90 67 154.5t154 64.5q78 0 130 -54t52 -132q0 -87 -65 -153t-150 -66zM2 0l221 1059h395l-221 -1059h-395z" />
    <glyph glyph-name="j" unicode="j" horiz-adv-x="622" 
d="M473 1171q-82 0 -134 55.5t-52 135.5q0 84 65.5 149.5t153.5 65.5q80 0 131 -55t51 -133q0 -86 -65 -152t-150 -66zM-29 -365q-68 0 -135 16.5t-110 39.5l71 272q23 -10 80 -10q48 0 90 38t51 87l205 981h395l-221 -1063q-33 -165 -150.5 -263t-275.5 -98z" />
    <glyph glyph-name="k" unicode="k" horiz-adv-x="1204" 
d="M1329 1059l-469 -457l248 -602h-432l-117 350l-119 -110l-49 -240h-395l297 1432h395l-153 -738l344 365h450z" />
    <glyph glyph-name="l" unicode="l" horiz-adv-x="620" 
d="M4 0l297 1432h395l-297 -1432h-395z" />
    <glyph glyph-name="m" unicode="m" horiz-adv-x="1949" 
d="M1534 1083q159 0 256.5 -94t97.5 -241q0 -46 -73 -393q-43 -209 -74 -357h-377q24 115 50.5 242t39 188t24.5 119.5t16 81.5t3 30q-3 97 -100 97q-70 0 -129 -42t-74 -100q-56 -264 -129 -616h-377q24 115 50.5 242t39 188t24.5 119.5t16 81.5t3 30q-2 43 -22.5 70
t-75.5 27q-74 0 -134.5 -46.5t-72.5 -105.5l-2 -6l-125 -598h-395l221 1059h395l-22 -109q48 63 120 98t158 35q104 0 185.5 -47t122.5 -129q58 83 154.5 129.5t205.5 46.5z" />
    <glyph glyph-name="n" unicode="n" horiz-adv-x="1284" 
d="M885 1083q153 0 244.5 -91t91.5 -236q0 -15 -1 -30t-3.5 -32t-8 -47.5t-12 -62t-19.5 -92t-25.5 -120.5t-34.5 -164l-44 -208h-377q98 466 114.5 546.5t16.5 102.5q0 52 -28 79.5t-78 27.5q-75 0 -137 -53t-74 -125l-121 -578h-395l221 1059h395l-18 -84q117 108 293 108
z" />
    <glyph glyph-name="o" unicode="o" horiz-adv-x="1302" 
d="M563 -25q-222 0 -367 138.5t-145 341.5q0 127 60.5 244.5t157.5 200.5t222.5 133t251.5 50q146 0 263 -63.5t182 -172.5t65 -241q0 -167 -101.5 -314.5t-260.5 -232t-328 -84.5zM582 303q114 0 211.5 95.5t97.5 201.5q0 68 -46 112t-118 44q-117 0 -215 -94t-98 -201
q0 -68 47.5 -113t120.5 -45z" />
    <glyph glyph-name="p" unicode="p" 
d="M930 1083q186 0 295.5 -118.5t109.5 -313.5q0 -130 -44 -253t-120.5 -216.5t-186.5 -150t-234 -56.5q-109 0 -193.5 44.5t-136.5 125.5l-103 -497h-395l293 1411h395l-22 -109q152 133 342 133zM643 303q126 0 220.5 93t94.5 210q0 69 -45.5 109.5t-124.5 40.5
q-120 0 -209.5 -95.5t-89.5 -211.5q0 -68 41 -107t113 -39z" />
    <glyph glyph-name="q" unicode="q" 
d="M995 1059h396l-293 -1411h-396l97 461q-154 -134 -344 -134q-186 0 -296 120t-110 315q0 129 44.5 251t120.5 215.5t186.5 150t234.5 56.5q109 0 193.5 -44.5t136.5 -127.5zM598 303q119 0 208 96.5t89 210.5q0 68 -41 107t-111 39q-128 0 -222.5 -91.5t-94.5 -211.5
q0 -70 45.5 -110t126.5 -40z" />
    <glyph glyph-name="r" unicode="r" horiz-adv-x="948" 
d="M575 891q70 92 162 142t197 50l-43 -327q-152 0 -264 -86.5t-146 -227.5l-92 -442h-395l221 1059h395z" />
    <glyph glyph-name="s" unicode="s" horiz-adv-x="1032" 
d="M430 -25q-144 0 -271.5 46t-215.5 124l178 222q62 -52 155.5 -84.5t169.5 -32.5q66 0 105 23.5t39 58.5q0 9 -5.5 15t-34 16.5t-83.5 23.5q-77 18 -115.5 28t-95.5 34t-84.5 51t-48.5 73t-21 107q0 117 67.5 210t180 143t248.5 50q226 0 430 -147l-164 -225
q-59 44 -134 74t-132 30q-58 0 -100.5 -27.5t-42.5 -58.5q0 -14 22 -24.5t98 -28.5q41 -10 62 -15t58 -15.5t57.5 -19t50.5 -23t47 -29.5t37 -36t30.5 -45t17.5 -55t7 -67q0 -180 -145.5 -288t-366.5 -108z" />
    <glyph glyph-name="t" unicode="t" horiz-adv-x="860" 
d="M801 748h-209q-76 -358 -76 -390q0 -55 51 -55q31 0 65.5 14t51.5 29l31 -272q-56 -45 -133 -72t-152 -27q-136 0 -220.5 82.5t-84.5 212.5q0 37 14 110t76 368h-133l65 311h134l61 291h377l-62 -291h209z" />
    <glyph glyph-name="u" unicode="u" horiz-adv-x="1284" 
d="M895 1059h395l-221 -1059h-395l18 84q-118 -109 -293 -109q-153 0 -244.5 91.5t-91.5 236.5q0 15 1 30t3.5 32t8 47.5t12 62t19.5 92t25.5 120.5t34.5 164l44 208h377q-98 -466 -114.5 -546.5t-16.5 -102.5q0 -52 28 -79.5t78 -27.5q75 0 137 53t74 125z" />
    <glyph glyph-name="v" unicode="v" horiz-adv-x="1300" 
d="M362 0l-243 1059h397l111 -606l362 606h414l-676 -1059h-365z" />
    <glyph glyph-name="w" unicode="w" horiz-adv-x="1734" 
d="M268 0l-143 1059h371l45 -529l270 529h324l43 -529l268 529h387l-582 -1059h-350l-27 545l-256 -545h-350z" />
    <glyph glyph-name="x" unicode="x" horiz-adv-x="1179" 
d="M1272 1059l-469 -518l260 -541h-408l-118 246l-224 -246h-417l495 547l-248 512h410l104 -219l199 219h416z" />
    <glyph glyph-name="y" unicode="y" horiz-adv-x="1243" 
d="M238 -369q-77 0 -167.5 27.5t-152.5 67.5l111 237q79 -51 135 -51q31 0 73 16.5t50 30.5l35 27l-201 1073h395l78 -653l344 653h405l-624 -1082q-99 -170 -223 -258t-258 -88z" />
    <glyph glyph-name="z" unicode="z" horiz-adv-x="1118" 
d="M-37 0l51 272l566 459h-451l68 328h966l-55 -273l-563 -458h471l-70 -328h-983z" />
    <glyph glyph-name="braceleft" unicode="{" horiz-adv-x="876" 
d="M606 -340q-235 15 -347 91.5t-112 217.5q0 55 33 194t33 177q0 52 -35 72t-119 20l21 225q205 0 244 183l41 217q38 186 169.5 270t411.5 103l10 -236q-158 -19 -220.5 -61t-84.5 -140l-45 -235q-19 -89 -66.5 -141t-142.5 -82q56 -19 87.5 -65.5t31.5 -111.5
q0 -47 -32.5 -186.5t-32.5 -173.5q0 -53 42 -73t169 -36z" />
    <glyph glyph-name="bar" unicode="|" horiz-adv-x="641" 
d="M47 -152l348 1674h264l-348 -1674h-264z" />
    <glyph glyph-name="braceright" unicode="}" horiz-adv-x="876" 
d="M-66 -340l-10 234q157 19 221 61.5t84 140.5l47 234q19 91 66.5 143t142.5 82q-56 19 -87 64.5t-31 111.5q0 41 32.5 185t32.5 176q0 52 -41.5 71t-169.5 35l53 229q236 -15 348.5 -91.5t112.5 -217.5q0 -49 -33.5 -196t-33.5 -174q0 -52 34.5 -71.5t120.5 -19.5
l-20 -225q-101 0 -163 -47t-81 -135l-41 -219q-38 -185 -170 -268.5t-414 -102.5z" />
    <glyph glyph-name="asciitilde" unicode="~" horiz-adv-x="940" 
d="M651 594q-55 0 -109.5 21t-92.5 42t-54 21q-77 0 -119 -100l-176 55q46 146 112 210t169 64q54 0 108 -21t92.5 -42t53.5 -21q38 0 69.5 28t49.5 73l178 -58q-45 -145 -112 -208.5t-169 -63.5z" />
    <glyph glyph-name="exclamdown" unicode="&#xa1;" horiz-adv-x="671" 
d="M422 1083q95 0 155 -61.5t60 -153.5q0 -108 -79.5 -183t-184.5 -75q-89 0 -148 61.5t-59 149.5q0 106 78 184t178 78zM471 498l-88 -846h-440l262 846h266z" />
    <glyph glyph-name="cent" unicode="&#xa2;" horiz-adv-x="1138" 
d="M803 399l231 -233q-180 -166 -405 -186l-27 -132h-225l31 148q-160 43 -258.5 169t-98.5 290q0 149 82.5 283t215 221t284.5 114l26 133h226l-27 -133q194 -38 305 -199l-286 -188q-22 33 -65.5 51.5t-86.5 18.5q-114 0 -208.5 -94.5t-94.5 -200.5q0 -68 45 -113t115 -45
q57 0 119.5 28.5t101.5 67.5z" />
    <glyph glyph-name="sterling" unicode="&#xa3;" horiz-adv-x="1388" 
d="M686 512l-45 -219h651l-61 -293h-1256l29 156l234 137l47 219h-152l39 178h150l57 275q44 211 205.5 339t376.5 128q150 0 280.5 -70.5t188.5 -175.5l-293 -223q-18 51 -59 79.5t-87 28.5q-82 0 -148 -53.5t-81 -126.5l-41 -201h280l-38 -178h-277z" />
    <glyph glyph-name="yen" unicode="&#xa5;" horiz-adv-x="1452" 
d="M1647 1407l-590 -758h203l-37 -178h-305l-7 -8l-22 -101h311l-37 -178h-313l-41 -184h-397l41 184h-306l37 178h308l22 101l-2 8h-305l37 178h202l-276 758h369l217 -600l444 600h447z" />
    <glyph glyph-name="dieresis" unicode="&#xa8;" horiz-adv-x="1073" 
d="M469 1178q-75 0 -120.5 47t-45.5 118q0 81 56.5 135t132.5 54q69 0 115 -49t46 -119q0 -78 -56 -132t-128 -54zM930 1178q-74 0 -120 48t-46 120q0 79 56.5 132.5t131.5 53.5q71 0 116.5 -48.5t45.5 -117.5q0 -80 -55.5 -134t-128.5 -54z" />
    <glyph glyph-name="macron" unicode="&#xaf;" horiz-adv-x="1013" 
d="M262 1174l45 217h756l-45 -217h-756z" />
    <glyph glyph-name="acute" unicode="&#xb4;" horiz-adv-x="837" 
d="M264 1176l299 335l338 -57l-369 -278h-268z" />
    <glyph glyph-name="cedilla" unicode="&#xb8;" horiz-adv-x="690" 
d="M287 -90q53 -11 83.5 -46.5t30.5 -86.5q0 -89 -68.5 -138t-176.5 -49q-117 0 -207 70l71 121q40 -37 97 -37q51 0 83.5 18.5t32.5 47.5q0 30 -28 30q-37 0 -74 -26l-53 59l90 150h190z" />
    <glyph glyph-name="questiondown" unicode="&#xbf;" horiz-adv-x="1038" 
d="M588 1083q95 0 155 -61.5t60 -153.5q0 -108 -79.5 -183t-184.5 -75q-89 0 -148 61.5t-59 149.5q0 106 78 184t178 78zM713 518l-62 -307q-110 0 -210.5 -46.5t-100.5 -105.5q0 -77 119 -77q56 0 120 26.5t109 63.5l189 -244q-113 -96 -247.5 -148.5t-271.5 -52.5
q-193 0 -308.5 98.5t-115.5 258.5q0 168 116.5 296.5t287.5 168.5l14 69h361z" />
    <glyph glyph-name="Agrave" unicode="&#xc0;" horiz-adv-x="1587" 
d="M1108 1524h-248l-254 278l342 58zM1034 0l-33 188h-489l-111 -188h-456l833 1407h455l-4 -8l246 -1399h-441zM686 481h262l-59 342z" />
    <glyph glyph-name="Aacute" unicode="&#xc1;" horiz-adv-x="1587" 
d="M1518 1802l-369 -278h-268l299 336zM1233 1407l-4 -8l246 -1399h-441l-33 188h-489l-111 -188h-456l833 1407h455zM948 481l-59 342l-203 -342h262z" />
    <glyph glyph-name="Acircumflex" unicode="&#xc2;" horiz-adv-x="1587" 
d="M1079 1661l-182 -137h-240l287 315h318l157 -315h-221zM1034 0l-33 188h-489l-111 -188h-456l833 1407h455l-4 -8l246 -1399h-441zM686 481h262l-59 342z" />
    <glyph glyph-name="Atilde" unicode="&#xc3;" horiz-adv-x="1587" 
d="M952 1602q-75 0 -118 -101l-177 55q46 146 112 210.5t169 64.5q54 0 108 -21t92.5 -42t53.5 -21q38 0 69.5 27.5t49.5 72.5l178 -57q-45 -145 -112 -208.5t-169 -63.5q-55 0 -109.5 21t-92.5 42t-54 21zM1233 1407l-4 -8l246 -1399h-441l-33 188h-489l-111 -188h-456
l833 1407h455zM948 481l-59 342l-203 -342h262z" />
    <glyph glyph-name="Adieresis" unicode="&#xc4;" horiz-adv-x="1587" 
d="M840 1526q-75 0 -120.5 47.5t-45.5 118.5q0 81 56 134.5t132 53.5q70 0 116 -49t46 -119q0 -78 -56 -132t-128 -54zM1300 1526q-74 0 -119.5 48t-45.5 120q0 79 56.5 132.5t131.5 53.5q71 0 116.5 -48.5t45.5 -117.5q0 -79 -56 -133.5t-129 -54.5zM1233 1407l-4 -8
l246 -1399h-441l-33 188h-489l-111 -188h-456l833 1407h455zM948 481l-59 342l-203 -342h262z" />
    <glyph glyph-name="Aring" unicode="&#xc5;" horiz-adv-x="1587" 
d="M1042 1526q-89 0 -145.5 55.5t-56.5 140.5q0 119 94.5 209t210.5 90q89 0 146 -55.5t57 -140.5q0 -118 -94.5 -208.5t-211.5 -90.5zM1114 1874q-46 0 -84.5 -36t-38.5 -83q0 -36 23 -59t59 -23q46 0 84.5 37t38.5 84q0 34 -23.5 57t-58.5 23zM1034 0l-33 188h-489
l-111 -188h-456l833 1407h455l-4 -8l246 -1399h-441zM686 481h262l-59 342z" />
    <glyph glyph-name="AE" unicode="&#xc6;" horiz-adv-x="2279" 
d="M2310 1053h-735l-31 -158h668l-74 -354h-670l-36 -187h733l-74 -354h-1133l39 188h-491l-148 -188h-467l1106 1407h1387zM737 481h322l117 557z" />
    <glyph glyph-name="Ccedilla" unicode="&#xc7;" horiz-adv-x="1456" 
d="M1352 213q-100 -90 -244 -153t-285 -80l-45 -70q53 -11 84 -46.5t31 -86.5q0 -89 -69 -138t-177 -49q-117 0 -207 70l72 121q40 -37 96 -37q51 0 84 18.5t33 47.5q0 30 -29 30q-36 0 -73 -26l-54 59l68 111q-229 37 -383 212.5t-154 413.5q0 158 74 309.5t194.5 263.5
t282.5 180.5t330 68.5q175 0 321.5 -71.5t235.5 -186.5l-328 -234q-35 60 -99 95.5t-148 35.5q-115 0 -222 -65t-172 -170.5t-65 -217.5q0 -127 80.5 -204.5t187.5 -77.5q79 0 171.5 44t156.5 112z" />
    <glyph glyph-name="Egrave" unicode="&#xc8;" horiz-adv-x="1333" 
d="M1114 1524h-248l-254 278l342 58zM1364 1053h-735l-31 -158h668l-74 -354h-670l-37 -187h734l-74 -354h-1133l293 1407h1133z" />
    <glyph glyph-name="Eacute" unicode="&#xc9;" horiz-adv-x="1333" 
d="M1284 1802l-369 -278h-268l299 336zM1364 1053h-735l-31 -158h668l-74 -354h-670l-37 -187h734l-74 -354h-1133l293 1407h1133z" />
    <glyph glyph-name="Ecircumflex" unicode="&#xca;" horiz-adv-x="1333" 
d="M934 1661l-182 -137h-240l287 315h317l158 -315h-221zM1364 1053h-735l-31 -158h668l-74 -354h-670l-37 -187h734l-74 -354h-1133l293 1407h1133z" />
    <glyph glyph-name="Edieresis" unicode="&#xcb;" horiz-adv-x="1333" 
d="M694 1526q-75 0 -120.5 47.5t-45.5 118.5q0 81 56.5 134.5t132.5 53.5q70 0 116 -49t46 -119q0 -78 -56.5 -132t-128.5 -54zM1155 1526q-74 0 -120 48t-46 120q0 79 57 132.5t132 53.5q71 0 116 -48.5t45 -117.5q0 -80 -55.5 -134t-128.5 -54zM1364 1053h-735l-31 -158
h668l-74 -354h-670l-37 -187h734l-74 -354h-1133l293 1407h1133z" />
    <glyph glyph-name="Igrave" unicode="&#xcc;" horiz-adv-x="657" 
d="M418 1524l-254 278l342 58l160 -336h-248zM20 0l293 1407h398l-293 -1407h-398z" />
    <glyph glyph-name="Iacute" unicode="&#xcd;" horiz-adv-x="657" 
d="M383 1524l299 336l338 -58l-369 -278h-268zM20 0l293 1407h398l-293 -1407h-398z" />
    <glyph glyph-name="Icircumflex" unicode="&#xce;" horiz-adv-x="657" 
d="M152 1524l286 315h318l157 -315h-221l-119 137l-182 -137h-239zM20 0l293 1407h398l-293 -1407h-398z" />
    <glyph glyph-name="Idieresis" unicode="&#xcf;" horiz-adv-x="657" 
d="M334 1526q-75 0 -120.5 47.5t-45.5 118.5q0 81 56 134.5t132 53.5q70 0 116 -49t46 -119q0 -78 -56 -132t-128 -54zM795 1526q-74 0 -120 48t-46 120q0 79 56.5 132.5t131.5 53.5q71 0 116.5 -48.5t45.5 -117.5q0 -80 -55.5 -134t-128.5 -54zM20 0l293 1407h398
l-293 -1407h-398z" />
    <glyph glyph-name="Eth" unicode="&#xd0;" horiz-adv-x="1675" 
d="M936 1407q207 0 371 -75t255 -209t91 -304q0 -163 -79 -314.5t-211 -262t-314 -176.5t-379 -66h-539l111 528h-160l74 355h159l109 524h512zM784 360q124 0 231 60.5t169.5 163t62.5 221.5q0 106 -83 174t-212 68h-204l-35 -164h260l-76 -355h-258l-35 -168h180z" />
    <glyph glyph-name="Ntilde" unicode="&#xd1;" horiz-adv-x="1589" 
d="M1165 1518q-55 0 -109.5 21t-92.5 42t-54 21q-75 0 -118 -101l-177 55q46 146 112 210.5t169 64.5q54 0 108 -21t92.5 -42t53.5 -21q38 0 69.5 27.5t49.5 72.5l178 -57q-45 -145 -112 -208.5t-169 -63.5zM12 0l293 1407h393l392 -754l161 754h398l-293 -1407h-391
l-394 754l-161 -754h-398z" />
    <glyph glyph-name="Ograve" unicode="&#xd2;" horiz-adv-x="1667" 
d="M903 1524l-254 278l342 58l160 -336h-248zM743 -25q-139 0 -260 48.5t-205.5 131t-133 196t-48.5 241.5q0 165 78.5 321.5t204 269t289 181t327.5 68.5q139 0 261 -48t207 -130.5t133.5 -195.5t48.5 -241q0 -132 -50.5 -260.5t-139 -232t-202 -183t-246 -123
t-264.5 -43.5zM768 336q116 0 227 70.5t178.5 179t67.5 217.5q0 116 -75.5 192t-192.5 76q-116 0 -227 -70.5t-178.5 -179t-67.5 -217.5q0 -116 75 -192t193 -76z" />
    <glyph glyph-name="Oacute" unicode="&#xd3;" horiz-adv-x="1667" 
d="M872 1524l299 336l338 -58l-368 -278h-269zM743 -25q-139 0 -260 48.5t-205.5 131t-133 196t-48.5 241.5q0 165 78.5 321.5t204 269t289 181t327.5 68.5q139 0 261 -48t207 -130.5t133.5 -195.5t48.5 -241q0 -132 -50.5 -260.5t-139 -232t-202 -183t-246 -123
t-264.5 -43.5zM768 336q116 0 227 70.5t178.5 179t67.5 217.5q0 116 -75.5 192t-192.5 76q-116 0 -227 -70.5t-178.5 -179t-67.5 -217.5q0 -116 75 -192t193 -76z" />
    <glyph glyph-name="Ocircumflex" unicode="&#xd4;" horiz-adv-x="1667" 
d="M631 1524l287 315h317l158 -315h-222l-118 137l-183 -137h-239zM743 -25q-139 0 -260 48.5t-205.5 131t-133 196t-48.5 241.5q0 165 78.5 321.5t204 269t289 181t327.5 68.5q139 0 261 -48t207 -130.5t133.5 -195.5t48.5 -241q0 -132 -50.5 -260.5t-139 -232t-202 -183
t-246 -123t-264.5 -43.5zM768 336q116 0 227 70.5t178.5 179t67.5 217.5q0 116 -75.5 192t-192.5 76q-116 0 -227 -70.5t-178.5 -179t-67.5 -217.5q0 -116 75 -192t193 -76z" />
    <glyph glyph-name="Otilde" unicode="&#xd5;" horiz-adv-x="1667" 
d="M1182 1518q-55 0 -109.5 21t-92.5 42t-54 21q-76 0 -119 -101l-176 55q46 146 111.5 210.5t168.5 64.5q54 0 108 -21t92.5 -42t53.5 -21q38 0 69.5 27.5t49.5 72.5l178 -57q-45 -145 -111.5 -208.5t-168.5 -63.5zM743 -25q-139 0 -260 48.5t-205.5 131t-133 196
t-48.5 241.5q0 165 78.5 321.5t204 269t289 181t327.5 68.5q139 0 261 -48t207 -130.5t133.5 -195.5t48.5 -241q0 -132 -50.5 -260.5t-139 -232t-202 -183t-246 -123t-264.5 -43.5zM768 336q116 0 227 70.5t178.5 179t67.5 217.5q0 116 -75.5 192t-192.5 76
q-116 0 -227 -70.5t-178.5 -179t-67.5 -217.5q0 -116 75 -192t193 -76z" />
    <glyph glyph-name="Odieresis" unicode="&#xd6;" horiz-adv-x="1667" 
d="M813 1526q-75 0 -120.5 47.5t-45.5 118.5q0 81 56.5 134.5t132.5 53.5q69 0 115 -49t46 -119q0 -78 -56 -132t-128 -54zM1274 1526q-74 0 -120 48t-46 120q0 79 56.5 132.5t131.5 53.5q71 0 116.5 -48.5t45.5 -117.5q0 -80 -55.5 -134t-128.5 -54zM743 -25
q-139 0 -260 48.5t-205.5 131t-133 196t-48.5 241.5q0 165 78.5 321.5t204 269t289 181t327.5 68.5q139 0 261 -48t207 -130.5t133.5 -195.5t48.5 -241q0 -132 -50.5 -260.5t-139 -232t-202 -183t-246 -123t-264.5 -43.5zM768 336q116 0 227 70.5t178.5 179t67.5 217.5
q0 116 -75.5 192t-192.5 76q-116 0 -227 -70.5t-178.5 -179t-67.5 -217.5q0 -116 75 -192t193 -76z" />
    <glyph glyph-name="multiply" unicode="&#xd7;" horiz-adv-x="1175" 
d="M1143 936l-297 -248l201 -250l-271 -231l-203 252l-294 -246l-183 217l299 250l-200 250l270 231l203 -252l293 244z" />
    <glyph glyph-name="Oslash" unicode="&#xd8;" horiz-adv-x="1667" 
d="M1776 1407l-244 -236q113 -154 113 -354q0 -132 -50.5 -260.5t-139 -232t-202 -183t-246 -123t-264.5 -43.5q-196 0 -354 95l-74 -70h-338l238 227q-119 160 -119 365q0 165 78.5 321.5t204 269t289 181t327.5 68.5q199 0 365 -99l78 74h338zM500 604q0 -48 12 -88
l559 539q-50 16 -98 16q-116 0 -227 -70.5t-178.5 -179t-67.5 -217.5zM1241 803q0 35 -10 80l-553 -533q41 -14 90 -14q116 0 227 70.5t178.5 179t67.5 217.5z" />
    <glyph glyph-name="Ugrave" unicode="&#xd9;" horiz-adv-x="1558" 
d="M954 1524l-254 278l342 58l160 -336h-248zM688 -25q-120 0 -221.5 32.5t-172.5 92t-117.5 142.5t-56.5 183.5t11 215.5l160 766h397l-162 -778q-28 -134 24 -213.5t163 -79.5q127 0 231.5 94.5t134.5 231.5l154 745h397l-166 -799q-58 -284 -273.5 -458.5t-502.5 -174.5z
" />
    <glyph glyph-name="Uacute" unicode="&#xda;" horiz-adv-x="1558" 
d="M735 1524l299 336l338 -58l-368 -278h-269zM688 -25q-120 0 -221.5 32.5t-172.5 92t-117.5 142.5t-56.5 183.5t11 215.5l160 766h397l-162 -778q-28 -134 24 -213.5t163 -79.5q127 0 231.5 94.5t134.5 231.5l154 745h397l-166 -799q-58 -284 -273.5 -458.5t-502.5 -174.5
z" />
    <glyph glyph-name="Ucircumflex" unicode="&#xdb;" horiz-adv-x="1558" 
d="M600 1524l287 315h317l158 -315h-221l-119 137l-182 -137h-240zM688 -25q-120 0 -221.5 32.5t-172.5 92t-117.5 142.5t-56.5 183.5t11 215.5l160 766h397l-162 -778q-28 -134 24 -213.5t163 -79.5q127 0 231.5 94.5t134.5 231.5l154 745h397l-166 -799
q-58 -284 -273.5 -458.5t-502.5 -174.5z" />
    <glyph glyph-name="Udieresis" unicode="&#xdc;" horiz-adv-x="1558" 
d="M782 1526q-75 0 -120.5 47.5t-45.5 118.5q0 81 56.5 134.5t132.5 53.5q70 0 116 -49t46 -119q0 -78 -56.5 -132t-128.5 -54zM1243 1526q-74 0 -120 48t-46 120q0 79 57 132.5t132 53.5q71 0 116 -48.5t45 -117.5q0 -80 -55.5 -134t-128.5 -54zM688 -25
q-120 0 -221.5 32.5t-172.5 92t-117.5 142.5t-56.5 183.5t11 215.5l160 766h397l-162 -778q-28 -134 24 -213.5t163 -79.5q127 0 231.5 94.5t134.5 231.5l154 745h397l-166 -799q-58 -284 -273.5 -458.5t-502.5 -174.5z" />
    <glyph glyph-name="Yacute" unicode="&#xdd;" horiz-adv-x="1452" 
d="M645 1524l299 336l338 -58l-369 -278h-268zM412 0l102 463l-344 944h369l217 -600l444 600h447l-736 -944l-102 -463h-397z" />
    <glyph glyph-name="Thorn" unicode="&#xde;" horiz-adv-x="1374" 
d="M12 0l293 1407h387l-43 -209h275q205 0 329.5 -113t124.5 -297q0 -164 -84.5 -295.5t-229 -204.5t-319.5 -73h-290l-45 -215h-398zM530 575h232q78 0 143.5 58t65.5 123q0 39 -33.5 60.5t-95.5 21.5h-256z" />
    <glyph glyph-name="germandbls" unicode="&#xdf;" horiz-adv-x="1306" 
d="M-6 0l223 1069q26 124 111.5 218.5t213.5 145t281 50.5q219 0 351.5 -103.5t132.5 -269.5q0 -127 -70.5 -228t-196.5 -157q88 -40 139.5 -119t51.5 -178t-45.5 -181t-123.5 -135.5t-178.5 -82.5t-211.5 -29h-142l70 334h49q65 0 122 42t69 101q8 38 -23.5 60t-95.5 22
h-74l64 301h-11q68 0 126.5 49t58.5 101q0 63 -103 63q-71 0 -128.5 -40.5t-69.5 -100.5l-195 -932h-395z" />
    <glyph glyph-name="agrave" unicode="&#xe0;" 
d="M1026 1176h-248l-254 278l342 57zM995 1059h396l-222 -1059h-395l23 106q-150 -131 -342 -131q-186 0 -296 120t-110 315q0 129 44.5 251t120.5 215.5t186.5 150t234.5 56.5q109 0 193.5 -44.5t136.5 -127.5zM426 453q0 -70 45.5 -110t126.5 -40q119 0 208 96.5t89 210.5
q0 68 -41 107t-111 39q-128 0 -222.5 -91.5t-94.5 -211.5z" />
    <glyph glyph-name="aacute" unicode="&#xe1;" 
d="M1196 1454l-369 -278h-268l299 335zM995 1059h396l-222 -1059h-395l23 106q-150 -131 -342 -131q-186 0 -296 120t-110 315q0 129 44.5 251t120.5 215.5t186.5 150t234.5 56.5q109 0 193.5 -44.5t136.5 -127.5zM426 453q0 -70 45.5 -110t126.5 -40q119 0 208 96.5
t89 210.5q0 68 -41 107t-111 39q-128 0 -222.5 -91.5t-94.5 -211.5z" />
    <glyph glyph-name="acircumflex" unicode="&#xe2;" 
d="M846 1313l-182 -137h-240l287 315h317l158 -315h-221zM995 1059h396l-222 -1059h-395l23 106q-150 -131 -342 -131q-186 0 -296 120t-110 315q0 129 44.5 251t120.5 215.5t186.5 150t234.5 56.5q109 0 193.5 -44.5t136.5 -127.5zM426 453q0 -70 45.5 -110t126.5 -40
q119 0 208 96.5t89 210.5q0 68 -41 107t-111 39q-128 0 -222.5 -91.5t-94.5 -211.5z" />
    <glyph glyph-name="atilde" unicode="&#xe3;" 
d="M719 1253q-77 0 -119 -100l-176 55q46 146 112 210.5t169 64.5q54 0 108 -21t92 -42t53 -21q38 0 69.5 27.5t49.5 72.5l178 -57q-45 -145 -111.5 -209t-168.5 -64q-55 0 -109.5 21t-92.5 42t-54 21zM995 1059h396l-222 -1059h-395l23 106q-150 -131 -342 -131
q-186 0 -296 120t-110 315q0 129 44.5 251t120.5 215.5t186.5 150t234.5 56.5q109 0 193.5 -44.5t136.5 -127.5zM426 453q0 -70 45.5 -110t126.5 -40q119 0 208 96.5t89 210.5q0 68 -41 107t-111 39q-128 0 -222.5 -91.5t-94.5 -211.5z" />
    <glyph glyph-name="adieresis" unicode="&#xe4;" 
d="M606 1178q-75 0 -120.5 47t-45.5 118q0 81 56.5 135t132.5 54q70 0 116 -49t46 -119q0 -78 -56.5 -132t-128.5 -54zM1067 1178q-74 0 -120 48t-46 120q0 79 57 132.5t132 53.5q71 0 116 -48.5t45 -117.5q0 -80 -55.5 -134t-128.5 -54zM995 1059h396l-222 -1059h-395
l23 106q-150 -131 -342 -131q-186 0 -296 120t-110 315q0 129 44.5 251t120.5 215.5t186.5 150t234.5 56.5q109 0 193.5 -44.5t136.5 -127.5zM426 453q0 -70 45.5 -110t126.5 -40q119 0 208 96.5t89 210.5q0 68 -41 107t-111 39q-128 0 -222.5 -91.5t-94.5 -211.5z" />
    <glyph glyph-name="aring" unicode="&#xe5;" 
d="M809 1178q-89 0 -146 55.5t-57 140.5q0 119 94.5 209t210.5 90q89 0 146 -55.5t57 -140.5q0 -118 -94 -208.5t-211 -90.5zM881 1526q-46 0 -84.5 -36t-38.5 -83q0 -36 23 -59t59 -23q46 0 84.5 37t38.5 84q0 34 -23.5 57t-58.5 23zM995 1059h396l-222 -1059h-395l23 106
q-150 -131 -342 -131q-186 0 -296 120t-110 315q0 129 44.5 251t120.5 215.5t186.5 150t234.5 56.5q109 0 193.5 -44.5t136.5 -127.5zM426 453q0 -70 45.5 -110t126.5 -40q119 0 208 96.5t89 210.5q0 68 -41 107t-111 39q-128 0 -222.5 -91.5t-94.5 -211.5z" />
    <glyph glyph-name="ae" unicode="&#xe6;" horiz-adv-x="1802" 
d="M1790 795q0 -179 -138.5 -273.5t-385.5 -85.5h-213q0 -77 40.5 -121.5t112.5 -44.5q129 0 269 99l190 -240q-84 -70 -210.5 -112t-242.5 -42q-238 0 -374 142q-148 -142 -412 -142q-215 0 -332.5 104.5t-85.5 264.5q20 95 92.5 168.5t179.5 113.5t228 40q119 0 235 -58
l7 33q15 68 -26.5 98.5t-137.5 30.5q-136 0 -275 -68l-98 263q134 61 235 89.5t218 28.5q104 0 185.5 -34t129.5 -95q171 129 395 129q182 0 298 -80.5t116 -207.5zM1366 788q-72 0 -136.5 -39.5t-109.5 -105.5h189q75 0 118.5 24.5t45.5 67.5q0 23 -30.5 38t-76.5 15z
M463 229q92 0 154 34.5t73 86.5l10 49q-48 27 -137 27q-66 0 -118 -38.5t-64 -94.5q-6 -29 16.5 -46.5t65.5 -17.5z" />
    <glyph glyph-name="ccedilla" unicode="&#xe7;" horiz-adv-x="1138" 
d="M1034 166q-178 -168 -411 -189l-43 -67q53 -11 83.5 -46.5t30.5 -86.5q0 -89 -68.5 -138t-176.5 -49q-117 0 -207 70l71 121q40 -37 97 -37q51 0 83.5 18.5t32.5 47.5q0 30 -28 30q-37 0 -74 -26l-53 59l69 115q-174 37 -281.5 165.5t-107.5 301.5q0 126 60.5 243.5
t158 201t223 133.5t252.5 50q274 0 418 -209l-286 -188q-22 33 -65.5 51.5t-86.5 18.5q-114 0 -208.5 -94.5t-94.5 -200.5q0 -68 45 -113t115 -45q57 0 119.5 28.5t101.5 67.5z" />
    <glyph glyph-name="egrave" unicode="&#xe8;" horiz-adv-x="1146" 
d="M948 1176h-248l-254 278l342 57zM1116 795q0 -179 -138.5 -273.5t-385.5 -85.5h-213q0 -77 40.5 -121.5t112.5 -44.5q129 0 269 99l190 -240q-84 -70 -210 -112t-242 -42q-225 0 -358.5 125.5t-133.5 329.5q0 134 51 254.5t138 208t208.5 139t257.5 51.5q182 0 298 -80.5
t116 -207.5zM692 788q-72 0 -136.5 -39.5t-109.5 -105.5h189q75 0 118.5 24.5t45.5 67.5q0 23 -30.5 38t-76.5 15z" />
    <glyph glyph-name="eacute" unicode="&#xe9;" horiz-adv-x="1146" 
d="M1118 1454l-368 -278h-269l299 335zM702 1083q182 0 298 -80.5t116 -207.5q0 -179 -138.5 -273.5t-385.5 -85.5h-213q0 -77 40.5 -121.5t112.5 -44.5q129 0 269 99l190 -240q-84 -70 -210 -112t-242 -42q-225 0 -358.5 125.5t-133.5 329.5q0 134 51 254.5t138 208
t208.5 139t257.5 51.5zM635 643q75 0 118.5 24.5t45.5 67.5q0 23 -30.5 38t-76.5 15q-72 0 -136.5 -39.5t-109.5 -105.5h189z" />
    <glyph glyph-name="ecircumflex" unicode="&#xea;" horiz-adv-x="1146" 
d="M768 1313l-182 -137h-240l287 315h317l158 -315h-221zM1116 795q0 -179 -138.5 -273.5t-385.5 -85.5h-213q0 -77 40.5 -121.5t112.5 -44.5q129 0 269 99l190 -240q-84 -70 -210 -112t-242 -42q-225 0 -358.5 125.5t-133.5 329.5q0 134 51 254.5t138 208t208.5 139
t257.5 51.5q182 0 298 -80.5t116 -207.5zM692 788q-72 0 -136.5 -39.5t-109.5 -105.5h189q75 0 118.5 24.5t45.5 67.5q0 23 -30.5 38t-76.5 15z" />
    <glyph glyph-name="edieresis" unicode="&#xeb;" horiz-adv-x="1146" 
d="M528 1178q-75 0 -120.5 47t-45.5 118q0 81 56.5 135t132.5 54q70 0 116 -49t46 -119q0 -78 -56.5 -132t-128.5 -54zM1012 1532q71 0 116.5 -48.5t45.5 -117.5q0 -79 -56 -133.5t-129 -54.5q-74 0 -120 48t-46 120q0 79 57 132.5t132 53.5zM702 1083q182 0 298 -80.5
t116 -207.5q0 -179 -138.5 -273.5t-385.5 -85.5h-213q0 -77 40.5 -121.5t112.5 -44.5q129 0 269 99l190 -240q-84 -70 -210 -112t-242 -42q-225 0 -358.5 125.5t-133.5 329.5q0 134 51 254.5t138 208t208.5 139t257.5 51.5zM635 643q75 0 118.5 24.5t45.5 67.5
q0 23 -30.5 38t-76.5 15q-72 0 -136.5 -39.5t-109.5 -105.5h189z" />
    <glyph glyph-name="igrave" unicode="&#xec;" horiz-adv-x="622" 
d="M324 1176l-254 278l342 57l159 -335h-247zM2 0l221 1059h395l-221 -1059h-395z" />
    <glyph glyph-name="iacute" unicode="&#xed;" horiz-adv-x="622" 
d="M305 1176l299 335l338 -57l-369 -278h-268zM2 0l221 1059h395l-221 -1059h-395z" />
    <glyph glyph-name="icircumflex" unicode="&#xee;" horiz-adv-x="622" 
d="M61 1176l287 315h318l157 -315h-221l-119 137l-182 -137h-240zM2 0l221 1059h395l-221 -1059h-395z" />
    <glyph glyph-name="idieresis" unicode="&#xef;" horiz-adv-x="622" 
d="M244 1178q-75 0 -120.5 47t-45.5 118q0 81 56 135t132 54q70 0 116 -49t46 -119q0 -78 -56 -132t-128 -54zM705 1178q-74 0 -120 48t-46 120q0 79 56.5 132.5t131.5 53.5q71 0 116.5 -48.5t45.5 -117.5q0 -80 -55.5 -134t-128.5 -54zM2 0l221 1059h395l-221 -1059h-395z
" />
    <glyph glyph-name="eth" unicode="&#xf0;" horiz-adv-x="1300" 
d="M1032 1262q117 -135 173.5 -261t56.5 -268q0 -205 -90 -378.5t-251.5 -276.5t-357.5 -103q-227 0 -364.5 123t-137.5 322q0 153 69 287.5t193.5 217.5t272.5 83q98 0 164.5 -36t122.5 -98q-27 133 -154 263l-217 -90l-47 180l108 45l-118 88l352 129q62 -58 88 -84
l199 82l47 -180zM584 305q113 0 196.5 80t83.5 182q0 57 -40 91t-111 34q-111 0 -196 -80t-85 -180q0 -60 40.5 -93.5t111.5 -33.5z" />
    <glyph glyph-name="ntilde" unicode="&#xf1;" horiz-adv-x="1284" 
d="M713 1253q-77 0 -119 -100l-176 55q46 146 111.5 210.5t168.5 64.5q54 0 108 -21t92.5 -42t53.5 -21q38 0 69.5 27.5t49.5 72.5l178 -57q-45 -145 -111.5 -209t-168.5 -64q-55 0 -109.5 21t-92.5 42t-54 21zM885 1083q153 0 244.5 -91t91.5 -236q0 -15 -1 -30t-3.5 -32
t-8 -47.5t-12 -62t-19.5 -92t-25.5 -120.5t-34.5 -164l-44 -208h-377q98 466 114.5 546.5t16.5 102.5q0 52 -28 79.5t-78 27.5q-75 0 -137 -53t-74 -125l-121 -578h-395l221 1059h395l-18 -84q117 108 293 108z" />
    <glyph glyph-name="ograve" unicode="&#xf2;" horiz-adv-x="1302" 
d="M739 1176l-254 278l342 57l160 -335h-248zM563 -25q-222 0 -367 138.5t-145 341.5q0 127 60.5 244.5t157.5 200.5t222.5 133t251.5 50q146 0 263 -63.5t182 -172.5t65 -241q0 -167 -101.5 -314.5t-260.5 -232t-328 -84.5zM582 303q114 0 211.5 95.5t97.5 201.5
q0 68 -46 112t-118 44q-117 0 -215 -94t-98 -201q0 -68 47.5 -113t120.5 -45z" />
    <glyph glyph-name="oacute" unicode="&#xf3;" horiz-adv-x="1302" 
d="M520 1176l299 335l338 -57l-369 -278h-268zM563 -25q-222 0 -367 138.5t-145 341.5q0 127 60.5 244.5t157.5 200.5t222.5 133t251.5 50q146 0 263 -63.5t182 -172.5t65 -241q0 -167 -101.5 -314.5t-260.5 -232t-328 -84.5zM582 303q114 0 211.5 95.5t97.5 201.5
q0 68 -46 112t-118 44q-117 0 -215 -94t-98 -201q0 -68 47.5 -113t120.5 -45z" />
    <glyph glyph-name="ocircumflex" unicode="&#xf4;" horiz-adv-x="1302" 
d="M385 1176l287 315h317l158 -315h-221l-119 137l-182 -137h-240zM563 -25q-222 0 -367 138.5t-145 341.5q0 127 60.5 244.5t157.5 200.5t222.5 133t251.5 50q146 0 263 -63.5t182 -172.5t65 -241q0 -167 -101.5 -314.5t-260.5 -232t-328 -84.5zM582 303q114 0 211.5 95.5
t97.5 201.5q0 68 -46 112t-118 44q-117 0 -215 -94t-98 -201q0 -68 47.5 -113t120.5 -45z" />
    <glyph glyph-name="otilde" unicode="&#xf5;" horiz-adv-x="1302" 
d="M936 1169q-55 0 -109.5 21t-92.5 42t-54 21q-77 0 -119 -100l-176 55q46 146 112 210.5t169 64.5q54 0 108 -21t92.5 -42t53.5 -21q38 0 69 27.5t49 72.5l179 -57q-45 -145 -112 -209t-169 -64zM563 -25q-222 0 -367 138.5t-145 341.5q0 127 60.5 244.5t157.5 200.5
t222.5 133t251.5 50q146 0 263 -63.5t182 -172.5t65 -241q0 -167 -101.5 -314.5t-260.5 -232t-328 -84.5zM582 303q114 0 211.5 95.5t97.5 201.5q0 68 -46 112t-118 44q-117 0 -215 -94t-98 -201q0 -68 47.5 -113t120.5 -45z" />
    <glyph glyph-name="odieresis" unicode="&#xf6;" horiz-adv-x="1302" 
d="M567 1178q-75 0 -120.5 47t-45.5 118q0 81 56.5 135t132.5 54q70 0 116 -49t46 -119q0 -78 -56.5 -132t-128.5 -54zM1028 1178q-74 0 -120 48t-46 120q0 79 57 132.5t132 53.5q71 0 116 -48.5t45 -117.5q0 -80 -55.5 -134t-128.5 -54zM563 -25q-222 0 -367 138.5
t-145 341.5q0 127 60.5 244.5t157.5 200.5t222.5 133t251.5 50q146 0 263 -63.5t182 -172.5t65 -241q0 -167 -101.5 -314.5t-260.5 -232t-328 -84.5zM582 303q114 0 211.5 95.5t97.5 201.5q0 68 -46 112t-118 44q-117 0 -215 -94t-98 -201q0 -68 47.5 -113t120.5 -45z" />
    <glyph glyph-name="divide" unicode="&#xf7;" horiz-adv-x="1247" 
d="M731 905q-82 0 -134 54t-52 135q0 92 66 152.5t153 60.5q78 0 128 -54t50 -131q0 -88 -63.5 -152.5t-147.5 -64.5zM113 532l63 306h1022l-63 -306h-1022zM555 61q-82 0 -133 53.5t-51 133.5q0 94 64.5 154.5t152.5 60.5q77 0 128.5 -53t51.5 -129q0 -89 -64.5 -154.5
t-148.5 -65.5z" />
    <glyph glyph-name="oslash" unicode="&#xf8;" horiz-adv-x="1302" 
d="M1350 1059l-187 -174q90 -123 90 -279q0 -167 -101.5 -314.5t-260.5 -232t-328 -84.5q-164 0 -293 82l-61 -57h-256l188 174q-90 126 -90 281q0 127 60.5 244.5t157.5 200.5t222.5 133t251.5 50q167 0 291 -79l62 55h254zM414 461q0 -21 2 -31l348 322q-20 4 -37 4
q-117 0 -215 -94t-98 -201zM891 600q0 21 -2 31l-348 -324q24 -4 41 -4q114 0 211.5 95.5t97.5 201.5z" />
    <glyph glyph-name="ugrave" unicode="&#xf9;" horiz-adv-x="1284" 
d="M985 1176h-248l-254 278l342 57zM895 1059h395l-221 -1059h-395l18 84q-118 -109 -293 -109q-153 0 -244.5 91.5t-91.5 236.5q0 15 1 30t3.5 32t8 47.5t12 62t19.5 92t25.5 120.5t34.5 164l44 208h377q-98 -466 -114.5 -546.5t-16.5 -102.5q0 -52 28 -79.5t78 -27.5
q75 0 137 53t74 125z" />
    <glyph glyph-name="uacute" unicode="&#xfa;" horiz-adv-x="1284" 
d="M1155 1454l-369 -278h-268l299 335zM895 1059h395l-221 -1059h-395l18 84q-118 -109 -293 -109q-153 0 -244.5 91.5t-91.5 236.5q0 15 1 30t3.5 32t8 47.5t12 62t19.5 92t25.5 120.5t34.5 164l44 208h377q-98 -466 -114.5 -546.5t-16.5 -102.5q0 -52 28 -79.5t78 -27.5
q75 0 137 53t74 125z" />
    <glyph glyph-name="ucircumflex" unicode="&#xfb;" horiz-adv-x="1284" 
d="M805 1313l-182 -137h-240l287 315h317l158 -315h-221zM895 1059h395l-221 -1059h-395l18 84q-118 -109 -293 -109q-153 0 -244.5 91.5t-91.5 236.5q0 15 1 30t3.5 32t8 47.5t12 62t19.5 92t25.5 120.5t34.5 164l44 208h377q-98 -466 -114.5 -546.5t-16.5 -102.5
q0 -52 28 -79.5t78 -27.5q75 0 137 53t74 125z" />
    <glyph glyph-name="udieresis" unicode="&#xfc;" horiz-adv-x="1284" 
d="M565 1178q-75 0 -120.5 47t-45.5 118q0 81 56.5 135t132.5 54q70 0 116 -49t46 -119q0 -78 -56.5 -132t-128.5 -54zM1026 1178q-74 0 -120 48t-46 120q0 79 57 132.5t132 53.5q71 0 116 -48.5t45 -117.5q0 -80 -55.5 -134t-128.5 -54zM895 1059h395l-221 -1059h-395
l18 84q-118 -109 -293 -109q-153 0 -244.5 91.5t-91.5 236.5q0 15 1 30t3.5 32t8 47.5t12 62t19.5 92t25.5 120.5t34.5 164l44 208h377q-98 -466 -114.5 -546.5t-16.5 -102.5q0 -52 28 -79.5t78 -27.5q75 0 137 53t74 125z" />
    <glyph glyph-name="yacute" unicode="&#xfd;" horiz-adv-x="1243" 
d="M508 1176l299 335l338 -57l-369 -278h-268zM238 -369q-77 0 -167.5 27.5t-152.5 67.5l111 237q79 -51 135 -51q31 0 73 16.5t50 30.5l35 27l-201 1073h395l78 -653l344 653h405l-624 -1082q-99 -170 -223 -258t-258 -88z" />
    <glyph glyph-name="thorn" unicode="&#xfe;" 
d="M930 1083q186 0 295.5 -118.5t109.5 -313.5q0 -130 -44 -253t-120.5 -216.5t-186.5 -150t-234 -56.5q-109 0 -193.5 44.5t-136.5 125.5l-103 -497h-395l371 1784h395l-100 -482q152 133 342 133zM643 303q126 0 220.5 93t94.5 210q0 69 -45.5 109.5t-124.5 40.5
q-120 0 -209.5 -95.5t-89.5 -211.5q0 -68 41 -107t113 -39z" />
    <glyph glyph-name="ydieresis" unicode="&#xff;" horiz-adv-x="1243" 
d="M555 1178q-75 0 -120.5 47t-45.5 118q0 81 56.5 135t132.5 54q69 0 115 -49t46 -119q0 -78 -56 -132t-128 -54zM1016 1178q-74 0 -120 48t-46 120q0 79 56.5 132.5t131.5 53.5q71 0 116.5 -48.5t45.5 -117.5q0 -80 -55.5 -134t-128.5 -54zM238 -369q-77 0 -167.5 27.5
t-152.5 67.5l111 237q79 -51 135 -51q31 0 73 16.5t50 30.5l35 27l-201 1073h395l78 -653l344 653h405l-624 -1082q-99 -170 -223 -258t-258 -88z" />
    <glyph glyph-name="Amacron" unicode="&#x100;" horiz-adv-x="1587" 
d="M1464 1739l-45 -217h-755l45 217h755zM1034 0l-33 188h-489l-111 -188h-456l833 1407h455l-4 -8l246 -1399h-441zM686 481h262l-59 342z" />
    <glyph glyph-name="amacron" unicode="&#x101;" 
d="M1231 1391l-45 -217h-756l45 217h756zM995 1059h396l-222 -1059h-395l23 106q-150 -131 -342 -131q-186 0 -296 120t-110 315q0 129 44.5 251t120.5 215.5t186.5 150t234.5 56.5q109 0 193.5 -44.5t136.5 -127.5zM426 453q0 -70 45.5 -110t126.5 -40q119 0 208 96.5
t89 210.5q0 68 -41 107t-111 39q-128 0 -222.5 -91.5t-94.5 -211.5z" />
    <glyph glyph-name="Abreve" unicode="&#x102;" horiz-adv-x="1587" 
d="M1044 1526q-201 0 -319 145l182 152q72 -88 180 -88q112 0 218 88l120 -152q-177 -145 -381 -145zM1034 0l-33 188h-489l-111 -188h-456l833 1407h455l-4 -8l246 -1399h-441zM686 481h262l-59 342z" />
    <glyph glyph-name="abreve" unicode="&#x103;" 
d="M811 1178q-201 0 -319 145l182 152q73 -89 180 -89q110 0 217 89l121 -152q-177 -145 -381 -145zM995 1059h396l-222 -1059h-395l23 106q-150 -131 -342 -131q-186 0 -296 120t-110 315q0 129 44.5 251t120.5 215.5t186.5 150t234.5 56.5q109 0 193.5 -44.5t136.5 -127.5
zM426 453q0 -70 45.5 -110t126.5 -40q119 0 208 96.5t89 210.5q0 68 -41 107t-111 39q-128 0 -222.5 -91.5t-94.5 -211.5z" />
    <glyph glyph-name="Aogonek" unicode="&#x104;" horiz-adv-x="1587" 
d="M1505 -102l27 -191q-79 -61 -186 -61q-96 0 -151.5 54t-55.5 150q0 88 45 150h-150l-33 188h-489l-111 -188h-456l833 1407h455l-4 -8l244 -1393l16 -6q-46 0 -80.5 -27.5t-34.5 -64.5q0 -43 41 -43q57 0 90 33zM686 481h262l-59 342z" />
    <glyph glyph-name="aogonek" unicode="&#x105;" 
d="M1110 -135q57 0 90 33l27 -191q-79 -61 -187 -61q-96 0 -151 54t-55 150q0 88 45 150h-105l23 106q-150 -131 -342 -131q-186 0 -296 120t-110 315q0 129 44.5 251t120.5 215.5t186.5 150t234.5 56.5q109 0 193.5 -44.5t136.5 -127.5l30 148h396l-220 -1053l13 -6
q-46 0 -80.5 -27.5t-34.5 -64.5q0 -43 41 -43zM426 453q0 -70 45.5 -110t126.5 -40q119 0 208 96.5t89 210.5q0 68 -41 107t-111 39q-128 0 -222.5 -91.5t-94.5 -211.5z" />
    <glyph glyph-name="Cacute" unicode="&#x106;" horiz-adv-x="1456" 
d="M702 1524l299 336l338 -58l-368 -278h-269zM741 -25q-172 0 -319 83t-234.5 230t-87.5 322q0 158 74 309.5t194.5 263.5t282.5 180.5t330 68.5q175 0 321.5 -71.5t235.5 -186.5l-328 -234q-35 60 -99 95.5t-148 35.5q-115 0 -222 -65t-172 -170.5t-65 -217.5
q0 -127 80.5 -204.5t187.5 -77.5q79 0 171.5 44t156.5 112l252 -279q-118 -105 -287.5 -171.5t-323.5 -66.5z" />
    <glyph glyph-name="cacute" unicode="&#x107;" horiz-adv-x="1138" 
d="M489 1176l299 335l338 -57l-368 -278h-269zM559 -25q-219 0 -363.5 138.5t-144.5 341.5q0 126 60.5 243.5t158 201t223 133.5t252.5 50q274 0 418 -209l-286 -188q-22 33 -65.5 51.5t-86.5 18.5q-114 0 -208.5 -94.5t-94.5 -200.5q0 -68 45 -113t115 -45q57 0 119.5 28.5
t101.5 67.5l231 -233q-203 -191 -475 -191z" />
    <glyph glyph-name="Ccaron" unicode="&#x10c;" horiz-adv-x="1456" 
d="M799 1524l-156 315h221l117 -137l184 137h240l-289 -315h-317zM741 -25q-172 0 -319 83t-234.5 230t-87.5 322q0 158 74 309.5t194.5 263.5t282.5 180.5t330 68.5q175 0 321.5 -71.5t235.5 -186.5l-328 -234q-35 60 -99 95.5t-148 35.5q-115 0 -222 -65t-172 -170.5
t-65 -217.5q0 -127 80.5 -204.5t187.5 -77.5q79 0 171.5 44t156.5 112l252 -279q-118 -105 -287.5 -171.5t-323.5 -66.5z" />
    <glyph glyph-name="ccaron" unicode="&#x10d;" horiz-adv-x="1138" 
d="M586 1176l-156 315h221l117 -137l184 137h240l-289 -315h-317zM559 -25q-219 0 -363.5 138.5t-144.5 341.5q0 126 60.5 243.5t158 201t223 133.5t252.5 50q274 0 418 -209l-286 -188q-22 33 -65.5 51.5t-86.5 18.5q-114 0 -208.5 -94.5t-94.5 -200.5q0 -68 45 -113
t115 -45q57 0 119.5 28.5t101.5 67.5l231 -233q-203 -191 -475 -191z" />
    <glyph glyph-name="Dcaron" unicode="&#x10e;" horiz-adv-x="1556" 
d="M688 1524l-156 315h222l116 -137l185 137h239l-288 -315h-318zM12 0l293 1407h512q207 0 371 -75t255 -209t91 -304q0 -163 -79 -314.5t-211 -262t-314 -176.5t-379 -66h-539zM485 360h181q124 0 230.5 60.5t169 163t62.5 221.5q0 106 -82.5 174t-211.5 68h-205z" />
    <glyph glyph-name="dcaron" unicode="&#x10f;" horiz-adv-x="1382" 
d="M965 913l106 519h395l-297 -1432h-395l23 106q-150 -131 -342 -131q-186 0 -296 120t-110 315q0 129 44.5 251t120.5 215.5t186.5 150t234.5 56.5q109 0 193.5 -44.5t136.5 -125.5zM1735 1432q71 0 114 -53.5t43 -139.5q0 -109 -70 -208t-182 -179l-98 94q85 57 150 148
q-70 0 -104 41t-34 108q0 76 55 132.5t126 56.5zM426 453q0 -70 45.5 -110t126.5 -40q119 0 208 96.5t89 210.5q0 68 -41 107t-111 39q-128 0 -222.5 -91.5t-94.5 -211.5z" />
    <glyph glyph-name="Dcroat" unicode="&#x110;" horiz-adv-x="1675" 
d="M936 1407q207 0 371 -75t255 -209t91 -304q0 -163 -79 -314.5t-211 -262t-314 -176.5t-379 -66h-539l111 528h-160l74 355h159l109 524h512zM784 360q124 0 231 60.5t169.5 163t62.5 221.5q0 106 -83 174t-212 68h-204l-35 -164h260l-76 -355h-258l-35 -168h180z" />
    <glyph glyph-name="dcroat" unicode="&#x111;" horiz-adv-x="1445" 
d="M1563 1341l-39 -184h-115l-240 -1157h-395l23 106q-150 -131 -342 -131q-186 0 -296 120t-110 315q0 129 44.5 251t120.5 215.5t186.5 150t234.5 56.5q109 0 193.5 -44.5t136.5 -125.5l49 244h-289l39 184h289l18 91h395l-18 -91h115zM426 453q0 -70 45.5 -110t126.5 -40
q119 0 208 96.5t89 210.5q0 68 -41 107t-111 39q-128 0 -222.5 -91.5t-94.5 -211.5z" />
    <glyph glyph-name="Emacron" unicode="&#x112;" horiz-adv-x="1333" 
d="M1319 1739l-45 -217h-756l45 217h756zM1364 1053h-735l-31 -158h668l-74 -354h-670l-37 -187h734l-74 -354h-1133l293 1407h1133z" />
    <glyph glyph-name="emacron" unicode="&#x113;" horiz-adv-x="1146" 
d="M1153 1391l-45 -217h-756l45 217h756zM702 1083q182 0 298 -80.5t116 -207.5q0 -179 -138.5 -273.5t-385.5 -85.5h-213q0 -77 40.5 -121.5t112.5 -44.5q129 0 269 99l190 -240q-84 -70 -210 -112t-242 -42q-225 0 -358.5 125.5t-133.5 329.5q0 134 51 254.5t138 208
t208.5 139t257.5 51.5zM635 643q75 0 118.5 24.5t45.5 67.5q0 23 -30.5 38t-76.5 15q-72 0 -136.5 -39.5t-109.5 -105.5h189z" />
    <glyph glyph-name="Edotaccent" unicode="&#x116;" horiz-adv-x="1333" 
d="M924 1526q-75 0 -120.5 47.5t-45.5 118.5q0 81 56 134.5t132 53.5q70 0 116 -49t46 -119q0 -78 -56 -132t-128 -54zM1364 1053h-735l-31 -158h668l-74 -354h-670l-37 -187h734l-74 -354h-1133l293 1407h1133z" />
    <glyph glyph-name="edotaccent" unicode="&#x117;" horiz-adv-x="1146" 
d="M758 1178q-75 0 -120.5 47t-45.5 118q0 81 56 135t132 54q70 0 116 -49t46 -119q0 -78 -56 -132t-128 -54zM1116 795q0 -179 -138.5 -273.5t-385.5 -85.5h-213q0 -77 40.5 -121.5t112.5 -44.5q129 0 269 99l190 -240q-84 -70 -210 -112t-242 -42q-225 0 -358.5 125.5
t-133.5 329.5q0 134 51 254.5t138 208t208.5 139t257.5 51.5q182 0 298 -80.5t116 -207.5zM692 788q-72 0 -136.5 -39.5t-109.5 -105.5h189q75 0 118.5 24.5t45.5 67.5q0 23 -30.5 38t-76.5 15z" />
    <glyph glyph-name="Eogonek" unicode="&#x118;" horiz-adv-x="1333" 
d="M1364 1053h-735l-31 -158h668l-74 -354h-670l-37 -187h734l-74 -354h-447q-46 0 -80 -27.5t-34 -64.5q0 -43 41 -43q57 0 90 33l26 -191q-79 -61 -186 -61q-96 0 -151.5 54t-55.5 150q0 88 45 150h-381l293 1407h1133z" />
    <glyph glyph-name="eogonek" unicode="&#x119;" horiz-adv-x="1146" 
d="M1116 795q0 -179 -138.5 -273.5t-385.5 -85.5h-213q0 -77 40.5 -121.5t112.5 -44.5q129 0 269 99l190 -240q-81 -68 -202.5 -109.5t-235.5 -44.5q-46 0 -80.5 -27.5t-34.5 -64.5q0 -43 41 -43q57 0 90 33l27 -190q-80 -62 -186 -62q-96 0 -151.5 54.5t-55.5 150.5
q0 119 88 201q-116 54 -180 159t-64 244q0 134 51 254.5t138 208t208.5 139t257.5 51.5q182 0 298 -80.5t116 -207.5zM692 788q-72 0 -136.5 -39.5t-109.5 -105.5h189q75 0 118.5 24.5t45.5 67.5q0 23 -30.5 38t-76.5 15z" />
    <glyph glyph-name="Ecaron" unicode="&#x11a;" horiz-adv-x="1333" 
d="M1061 1524h-318l-155 315h221l117 -137l184 137h240zM1364 1053h-735l-31 -158h668l-74 -354h-670l-37 -187h734l-74 -354h-1133l293 1407h1133z" />
    <glyph glyph-name="ecaron" unicode="&#x11b;" horiz-adv-x="1146" 
d="M895 1176h-317l-156 315h221l117 -137l184 137h240zM702 1083q182 0 298 -80.5t116 -207.5q0 -179 -138.5 -273.5t-385.5 -85.5h-213q0 -77 40.5 -121.5t112.5 -44.5q129 0 269 99l190 -240q-84 -70 -210 -112t-242 -42q-225 0 -358.5 125.5t-133.5 329.5q0 134 51 254.5
t138 208t208.5 139t257.5 51.5zM635 643q75 0 118.5 24.5t45.5 67.5q0 23 -30.5 38t-76.5 15q-72 0 -136.5 -39.5t-109.5 -105.5h189z" />
    <glyph glyph-name="Gbreve" unicode="&#x11e;" horiz-adv-x="1525" 
d="M1038 1526q-201 0 -319 145l182 152q72 -88 180 -88q111 0 217 88l121 -152q-177 -145 -381 -145zM774 518l62 293h659l-125 -598q-131 -116 -292 -177t-322 -61q-188 0 -339 82.5t-235 223.5t-84 313q0 165 79.5 321t207 268.5t292.5 180.5t331 68q173 0 315.5 -69
t232.5 -189l-327 -234q-37 65 -102 98t-142 33q-118 0 -231.5 -69.5t-182.5 -177.5t-69 -218q0 -116 78 -193t200 -77q121 0 244 78l20 104h-270z" />
    <glyph glyph-name="gbreve" unicode="&#x11f;" horiz-adv-x="1345" 
d="M829 1178q-201 0 -319 145l182 152q73 -89 180 -89q111 0 218 89l120 -152q-177 -145 -381 -145zM954 1059h398l-201 -963q-42 -204 -228 -326t-442 -122q-149 0 -275 41.5t-206 107.5l166 254q36 -36 111 -56t153 -20q128 0 224.5 52t111.5 123l10 47
q-146 -119 -330 -119q-173 0 -279 113.5t-106 295.5q0 150 71 287t196.5 223t271.5 86q110 0 200 -46.5t126 -116.5zM600 406q86 0 160 53t96 129l6 30q2 6 2 21q0 56 -35.5 86.5t-99.5 30.5q-102 0 -183 -70t-81 -162q0 -59 36.5 -88.5t98.5 -29.5z" />
    <glyph glyph-name="Gcommaaccent" unicode="&#x122;" horiz-adv-x="1525" 
d="M774 518l62 293h659l-125 -598q-131 -116 -292 -177t-322 -61q-188 0 -339 82.5t-235 223.5t-84 313q0 165 79.5 321t207 268.5t292.5 180.5t331 68q173 0 315.5 -69t232.5 -189l-327 -234q-37 65 -102 98t-142 33q-118 0 -231.5 -69.5t-182.5 -177.5t-69 -218
q0 -116 78 -193t200 -77q121 0 244 78l20 104h-270zM711 -47q71 0 114 -53.5t43 -139.5q0 -109 -70 -208t-182 -179l-98 95q87 58 150 147q-70 0 -104 41t-34 108q0 76 55 132.5t126 56.5z" />
    <glyph glyph-name="gcommaaccent" unicode="&#x123;" horiz-adv-x="1228" 
d="M864 1176q-71 0 -114 53t-43 139q0 110 69.5 209t181.5 178l99 -94q-85 -57 -150 -148q70 0 103.5 -41t33.5 -108q0 -76 -54.5 -132t-125.5 -56zM954 1059h398l-201 -963q-42 -204 -228 -326t-442 -122q-149 0 -275 41.5t-206 107.5l166 254q36 -36 111 -56t153 -20
q128 0 224.5 52t111.5 123l10 47q-146 -119 -330 -119q-173 0 -279 113.5t-106 295.5q0 150 71 287t196.5 223t271.5 86q110 0 200 -46.5t126 -116.5zM600 406q86 0 160 53t96 129l6 30q2 6 2 21q0 56 -35.5 86.5t-99.5 30.5q-102 0 -183 -70t-81 -162q0 -59 36.5 -88.5
t98.5 -29.5z" />
    <glyph glyph-name="Imacron" unicode="&#x12a;" horiz-adv-x="657" 
d="M158 1522l45 217h755l-45 -217h-755zM20 0l293 1407h398l-293 -1407h-398z" />
    <glyph glyph-name="imacron" unicode="&#x12b;" horiz-adv-x="622" 
d="M68 1174l45 217h755l-45 -217h-755zM2 0l221 1059h395l-221 -1059h-395z" />
    <glyph glyph-name="Iogonek" unicode="&#x12e;" horiz-adv-x="657" 
d="M358 -135q58 0 91 33l26 -191q-79 -61 -186 -61q-96 0 -151.5 54t-55.5 150q0 88 45 150h-107l293 1407h398l-291 -1401l12 -6q-46 0 -80.5 -27.5t-34.5 -64.5q0 -43 41 -43z" />
    <glyph glyph-name="iogonek" unicode="&#x12f;" horiz-adv-x="622" 
d="M473 1178q-75 0 -120.5 47t-45.5 118q0 81 56.5 135t132.5 54q69 0 115 -49t46 -119q0 -78 -56 -132t-128 -54zM18 80l205 979h395l-221 -1059h-182q-46 0 -80.5 -27.5t-34.5 -64.5q0 -43 41 -43q57 0 90 33l27 -191q-79 -61 -186 -61q-96 0 -151.5 54t-55.5 150
q0 152 137 236z" />
    <glyph glyph-name="Idotaccent" unicode="&#x130;" horiz-adv-x="657" 
d="M563 1526q-75 0 -120.5 47.5t-45.5 118.5q0 81 56.5 134.5t132.5 53.5q70 0 116 -49t46 -119q0 -78 -56.5 -132t-128.5 -54zM20 0l293 1407h398l-293 -1407h-398z" />
    <glyph glyph-name="dotlessi" unicode="&#x131;" horiz-adv-x="622" 
d="M2 0l221 1059h395l-221 -1059h-395z" />
    <glyph glyph-name="Kcommaaccent" unicode="&#x136;" horiz-adv-x="1468" 
d="M12 0l293 1407h397l-106 -498l549 498h506l-658 -598l383 -809h-452l-248 532l-182 -159l-84 -373h-398zM535 -627l-99 95q87 58 150 147q-70 0 -103.5 41t-33.5 108q0 76 54.5 132.5t125.5 56.5t114 -53.5t43 -139.5q0 -110 -69.5 -209t-181.5 -178z" />
    <glyph glyph-name="kcommaaccent" unicode="&#x137;" horiz-adv-x="1204" 
d="M1329 1059l-469 -457l248 -602h-432l-117 350l-119 -110l-49 -240h-395l297 1432h395l-153 -738l344 365h450zM489 -47q71 0 114.5 -53.5t43.5 -139.5q0 -109 -70 -208t-182 -179l-98 95q85 57 149 147q-70 0 -103.5 41t-33.5 108q0 76 54.5 132.5t125.5 56.5z" />
    <glyph glyph-name="Lacute" unicode="&#x139;" horiz-adv-x="1222" 
d="M1032 1802l-368 -278h-269l299 336zM487 354h652l-74 -354h-1053l293 1407h397z" />
    <glyph glyph-name="lacute" unicode="&#x13a;" horiz-adv-x="620" 
d="M381 1548l299 336l338 -57l-369 -279h-268zM4 0l297 1432h395l-297 -1432h-395z" />
    <glyph glyph-name="Lcaron" unicode="&#x13d;" horiz-adv-x="1222" 
d="M782 944q85 57 150 148q-70 0 -103.5 41t-33.5 108q0 76 54.5 132.5t125.5 56.5t114.5 -53.5t43.5 -139.5q0 -109 -70 -208t-182 -179zM487 354h652l-74 -354h-1053l293 1407h397z" />
    <glyph glyph-name="lcaron" unicode="&#x13e;" horiz-adv-x="620" 
d="M4 0l297 1432h395l-297 -1432h-395zM868 852l-98 94q85 57 150 148q-70 0 -104 41t-34 108q0 76 55 132.5t126 56.5t114 -53.5t43 -139.5q0 -109 -70 -208t-182 -179z" />
    <glyph glyph-name="Lslash" unicode="&#x141;" horiz-adv-x="1275" 
d="M541 354h651l-74 -354h-1052l90 430l-148 -65l66 342l153 67l131 633h398l-88 -436l233 104l-67 -342l-236 -106z" />
    <glyph glyph-name="lslash" unicode="&#x142;" horiz-adv-x="790" 
d="M860 1059l-67 -342l-164 -74l-133 -643h-396l93 449l-185 -84l66 342l190 86l133 639h396l-93 -445z" />
    <glyph glyph-name="Nacute" unicode="&#x143;" horiz-adv-x="1589" 
d="M750 1524l299 336l337 -58l-368 -278h-268zM12 0l293 1407h393l392 -754l161 754h398l-293 -1407h-391l-394 754l-161 -754h-398z" />
    <glyph glyph-name="nacute" unicode="&#x144;" horiz-adv-x="1284" 
d="M1190 1454l-369 -278h-268l299 335zM885 1083q153 0 244.5 -91t91.5 -236q0 -15 -1 -30t-3.5 -32t-8 -47.5t-12 -62t-19.5 -92t-25.5 -120.5t-34.5 -164l-44 -208h-377q98 466 114.5 546.5t16.5 102.5q0 52 -28 79.5t-78 27.5q-75 0 -137 -53t-74 -125l-121 -578h-395
l221 1059h395l-18 -84q117 108 293 108z" />
    <glyph glyph-name="Ncommaaccent" unicode="&#x145;" horiz-adv-x="1589" 
d="M12 0l293 1407h393l392 -754l161 754h398l-293 -1407h-391l-394 754l-161 -754h-398zM557 -627l-98 95q85 57 149 147q-70 0 -103.5 41t-33.5 108q0 76 54.5 132.5t125.5 56.5t114.5 -53.5t43.5 -139.5q0 -109 -70 -208t-182 -179z" />
    <glyph glyph-name="ncommaaccent" unicode="&#x146;" horiz-adv-x="1284" 
d="M885 1083q153 0 244.5 -91t91.5 -236q0 -15 -1 -30t-3.5 -32t-8 -47.5t-12 -62t-19.5 -92t-25.5 -120.5t-34.5 -164l-44 -208h-377q98 466 114.5 546.5t16.5 102.5q0 52 -28 79.5t-78 27.5q-75 0 -137 -53t-74 -125l-121 -578h-395l221 1059h395l-18 -84q117 108 293 108
zM522 -47q71 0 114.5 -53.5t43.5 -139.5q0 -109 -70 -208t-182 -179l-98 95q85 57 149 147q-70 0 -103.5 41t-33.5 108q0 76 54.5 132.5t125.5 56.5z" />
    <glyph glyph-name="Ncaron" unicode="&#x147;" horiz-adv-x="1589" 
d="M846 1524l-156 315h221l117 -137l184 137h240l-289 -315h-317zM12 0l293 1407h393l392 -754l161 754h398l-293 -1407h-391l-394 754l-161 -754h-398z" />
    <glyph glyph-name="ncaron" unicode="&#x148;" horiz-adv-x="1284" 
d="M967 1176h-318l-155 315h221l116 -137l185 137h239zM885 1083q153 0 244.5 -91t91.5 -236q0 -15 -1 -30t-3.5 -32t-8 -47.5t-12 -62t-19.5 -92t-25.5 -120.5t-34.5 -164l-44 -208h-377q98 466 114.5 546.5t16.5 102.5q0 52 -28 79.5t-78 27.5q-75 0 -137 -53t-74 -125
l-121 -578h-395l221 1059h395l-18 -84q117 108 293 108z" />
    <glyph glyph-name="Omacron" unicode="&#x14c;" horiz-adv-x="1667" 
d="M637 1522l45 217h756l-45 -217h-756zM743 -25q-139 0 -260 48.5t-205.5 131t-133 196t-48.5 241.5q0 165 78.5 321.5t204 269t289 181t327.5 68.5q139 0 261 -48t207 -130.5t133.5 -195.5t48.5 -241q0 -132 -50.5 -260.5t-139 -232t-202 -183t-246 -123t-264.5 -43.5z
M768 336q116 0 227 70.5t178.5 179t67.5 217.5q0 116 -75.5 192t-192.5 76q-116 0 -227 -70.5t-178.5 -179t-67.5 -217.5q0 -116 75 -192t193 -76z" />
    <glyph glyph-name="omacron" unicode="&#x14d;" horiz-adv-x="1302" 
d="M391 1174l45 217h756l-45 -217h-756zM563 -25q-222 0 -367 138.5t-145 341.5q0 127 60.5 244.5t157.5 200.5t222.5 133t251.5 50q146 0 263 -63.5t182 -172.5t65 -241q0 -167 -101.5 -314.5t-260.5 -232t-328 -84.5zM582 303q114 0 211.5 95.5t97.5 201.5q0 68 -46 112
t-118 44q-117 0 -215 -94t-98 -201q0 -68 47.5 -113t120.5 -45z" />
    <glyph glyph-name="Ohungarumlaut" unicode="&#x150;" horiz-adv-x="1667" 
d="M702 1524l299 336l338 -58l-368 -278h-269zM1231 1524l299 336l338 -58l-369 -278h-268zM743 -25q-139 0 -260 48.5t-205.5 131t-133 196t-48.5 241.5q0 165 78.5 321.5t204 269t289 181t327.5 68.5q139 0 261 -48t207 -130.5t133.5 -195.5t48.5 -241
q0 -132 -50.5 -260.5t-139 -232t-202 -183t-246 -123t-264.5 -43.5zM768 336q116 0 227 70.5t178.5 179t67.5 217.5q0 116 -75.5 192t-192.5 76q-116 0 -227 -70.5t-178.5 -179t-67.5 -217.5q0 -116 75 -192t193 -76z" />
    <glyph glyph-name="ohungarumlaut" unicode="&#x151;" horiz-adv-x="1302" 
d="M379 1176l299 335l338 -57l-369 -278h-268zM907 1176l299 335l338 -57l-368 -278h-269zM563 -25q-222 0 -367 138.5t-145 341.5q0 127 60.5 244.5t157.5 200.5t222.5 133t251.5 50q146 0 263 -63.5t182 -172.5t65 -241q0 -167 -101.5 -314.5t-260.5 -232t-328 -84.5z
M582 303q114 0 211.5 95.5t97.5 201.5q0 68 -46 112t-118 44q-117 0 -215 -94t-98 -201q0 -68 47.5 -113t120.5 -45z" />
    <glyph glyph-name="OE" unicode="&#x152;" horiz-adv-x="2129" 
d="M2161 1053h-736l-30 -158h667l-73 -354h-670l-37 -187h733l-73 -354h-1203q-136 0 -255 45.5t-203.5 124t-133.5 189.5t-49 237q0 164 77 315.5t203 259t291.5 172t336.5 64.5h1228zM788 360h97l141 687h-70q-110 0 -215.5 -62.5t-171 -165t-65.5 -211.5
q0 -112 78.5 -180t205.5 -68z" />
    <glyph glyph-name="oe" unicode="&#x153;" horiz-adv-x="1974" 
d="M1438 436h-213q0 -77 40.5 -121.5t112.5 -44.5q129 0 269 99l190 -240q-84 -70 -210.5 -112t-242.5 -42q-249 0 -387 154q-201 -154 -434 -154q-222 0 -367 138.5t-145 341.5q0 127 60.5 244.5t157.5 200.5t222.5 133t251.5 50q231 0 381 -153q180 153 424 153
q182 0 298 -80.5t116 -207.5q0 -179 -138.5 -273.5t-385.5 -85.5zM1538 788q-72 0 -136.5 -39.5t-109.5 -105.5h189q75 0 118.5 24.5t45.5 67.5q0 23 -30.5 38t-76.5 15zM582 303q114 0 211.5 95.5t97.5 201.5q0 68 -46 112t-118 44q-117 0 -215 -94t-98 -201
q0 -68 47.5 -113t120.5 -45z" />
    <glyph glyph-name="Racute" unicode="&#x154;" horiz-adv-x="1476" 
d="M1329 1802l-368 -278h-269l299 336zM1421 997q0 -181 -102.5 -321.5t-271.5 -204.5l284 -471h-442l-256 424h-133l-90 -424h-398l293 1407h662q205 0 329.5 -113t124.5 -297zM629 1047l-56 -263h232q77 0 144 58t67 123q0 39 -34 60.5t-97 21.5h-256z" />
    <glyph glyph-name="racute" unicode="&#x155;" horiz-adv-x="948" 
d="M989 1454l-368 -278h-269l299 335zM575 891q70 92 162 142t197 50l-43 -327q-152 0 -264 -86.5t-146 -227.5l-92 -442h-395l221 1059h395z" />
    <glyph glyph-name="Rcommaaccent" unicode="&#x156;" horiz-adv-x="1476" 
d="M1421 997q0 -181 -102.5 -321.5t-271.5 -204.5l284 -471h-442l-256 424h-133l-90 -424h-398l293 1407h662q205 0 329.5 -113t124.5 -297zM629 1047l-56 -263h232q77 0 144 58t67 123q0 39 -34 60.5t-97 21.5h-256zM594 -47q71 0 114.5 -53.5t43.5 -139.5q0 -109 -70 -208
t-182 -179l-99 95q87 58 150 147q-70 0 -103.5 41t-33.5 108q0 76 54.5 132.5t125.5 56.5z" />
    <glyph glyph-name="rcommaaccent" unicode="&#x157;" horiz-adv-x="948" 
d="M575 891q70 92 162 142t197 50l-43 -327q-152 0 -264 -86.5t-146 -227.5l-92 -442h-395l221 1059h395zM354 -47q71 0 114.5 -53.5t43.5 -139.5q0 -109 -70 -208t-182 -179l-98 95q85 57 149 147q-70 0 -103.5 41t-33.5 108q0 76 54.5 132.5t125.5 56.5z" />
    <glyph glyph-name="Rcaron" unicode="&#x158;" horiz-adv-x="1476" 
d="M1106 1524h-318l-155 315h221l117 -137l184 137h240zM1421 997q0 -181 -102.5 -321.5t-271.5 -204.5l284 -471h-442l-256 424h-133l-90 -424h-398l293 1407h662q205 0 329.5 -113t124.5 -297zM629 1047l-56 -263h232q77 0 144 58t67 123q0 39 -34 60.5t-97 21.5h-256z
" />
    <glyph glyph-name="rcaron" unicode="&#x159;" horiz-adv-x="948" 
d="M766 1176h-317l-156 315h221l117 -137l184 137h240zM575 891q70 92 162 142t197 50l-43 -327q-152 0 -264 -86.5t-146 -227.5l-92 -442h-395l221 1059h395z" />
    <glyph glyph-name="Sacute" unicode="&#x15a;" horiz-adv-x="1325" 
d="M586 1524l299 336l338 -58l-369 -278h-268zM584 -25q-189 0 -355 66t-276 182l258 244q85 -81 191.5 -121.5t209.5 -40.5q111 0 173.5 42.5t62.5 94.5q0 28 -25.5 40t-125.5 37q-32 8 -50 13q-86 22 -130.5 35t-111 36.5t-100.5 49t-70.5 63t-51.5 88t-15 114.5
q0 220 180 367t467 147q162 0 304 -51t247 -150l-238 -262q-80 69 -175.5 101t-174.5 32q-95 0 -150 -43.5t-55 -93.5q0 -36 37.5 -52t165.5 -45q104 -24 176 -47t132 -53.5t95 -68.5t53.5 -89t18.5 -118q0 -153 -89 -272t-240.5 -182t-337.5 -63z" />
    <glyph glyph-name="sacute" unicode="&#x15b;" horiz-adv-x="1032" 
d="M397 1176l299 335l338 -57l-368 -278h-269zM430 -25q-144 0 -271.5 46t-215.5 124l178 222q62 -52 155.5 -84.5t169.5 -32.5q66 0 105 23.5t39 58.5q0 9 -5.5 15t-34 16.5t-83.5 23.5q-77 18 -115.5 28t-95.5 34t-84.5 51t-48.5 73t-21 107q0 117 67.5 210t180 143
t248.5 50q226 0 430 -147l-164 -225q-59 44 -134 74t-132 30q-58 0 -100.5 -27.5t-42.5 -58.5q0 -14 22 -24.5t98 -28.5q41 -10 62 -15t58 -15.5t57.5 -19t50.5 -23t47 -29.5t37 -36t30.5 -45t17.5 -55t7 -67q0 -180 -145.5 -288t-366.5 -108z" />
    <glyph glyph-name="Scedilla" unicode="&#x15e;" horiz-adv-x="1325" 
d="M776 868q104 -24 176 -47t132 -53.5t95 -68.5t53.5 -89t18.5 -118q0 -144 -79.5 -258.5t-214.5 -179.5t-306 -77l-43 -67q53 -11 84 -46.5t31 -86.5q0 -89 -69 -138t-177 -49q-117 0 -207 70l72 121q40 -37 96 -37q51 0 84 18.5t33 47.5q0 30 -29 30q-36 0 -73 -26
l-54 59l66 109q-155 19 -287 81.5t-225 159.5l258 244q85 -81 191.5 -121.5t209.5 -40.5q111 0 173.5 42.5t62.5 94.5q0 28 -25.5 40t-125.5 37q-32 8 -50 13q-86 22 -130.5 35t-111 36.5t-100.5 49t-70.5 63t-51.5 88t-15 114.5q0 220 180 367t467 147q162 0 304 -51
t247 -150l-238 -262q-80 69 -175.5 101t-174.5 32q-95 0 -150 -43.5t-55 -93.5q0 -36 37.5 -52t165.5 -45z" />
    <glyph glyph-name="scedilla" unicode="&#x15f;" horiz-adv-x="1032" 
d="M575 676q41 -10 62 -15t58 -15.5t57.5 -19t50.5 -23t47 -29.5t37 -36t30.5 -45t17.5 -55t7 -67q0 -165 -123 -269t-319 -122l-43 -70q53 -11 83.5 -46.5t30.5 -86.5q0 -89 -68.5 -138t-176.5 -49q-117 0 -207 70l71 121q40 -37 97 -37q51 0 83.5 18.5t32.5 47.5
q0 30 -28 30q-37 0 -74 -26l-53 59l67 111q-224 29 -372 161l178 222q62 -52 155.5 -84.5t169.5 -32.5q66 0 105 23.5t39 58.5q0 9 -5.5 15t-34 16.5t-83.5 23.5q-77 18 -115.5 28t-95.5 34t-84.5 51t-48.5 73t-21 107q0 117 67.5 210t180 143t248.5 50q226 0 430 -147
l-164 -225q-59 44 -134 74t-132 30q-58 0 -100.5 -27.5t-42.5 -58.5q0 -14 22 -24.5t98 -28.5z" />
    <glyph glyph-name="Scaron" unicode="&#x160;" horiz-adv-x="1325" 
d="M682 1524l-156 315h222l116 -137l185 137h239l-289 -315h-317zM584 -25q-189 0 -355 66t-276 182l258 244q85 -81 191.5 -121.5t209.5 -40.5q111 0 173.5 42.5t62.5 94.5q0 28 -25.5 40t-125.5 37q-32 8 -50 13q-86 22 -130.5 35t-111 36.5t-100.5 49t-70.5 63t-51.5 88
t-15 114.5q0 220 180 367t467 147q162 0 304 -51t247 -150l-238 -262q-80 69 -175.5 101t-174.5 32q-95 0 -150 -43.5t-55 -93.5q0 -36 37.5 -52t165.5 -45q104 -24 176 -47t132 -53.5t95 -68.5t53.5 -89t18.5 -118q0 -153 -89 -272t-240.5 -182t-337.5 -63z" />
    <glyph glyph-name="scaron" unicode="&#x161;" horiz-adv-x="1032" 
d="M494 1176l-156 315h221l117 -137l184 137h240l-289 -315h-317zM430 -25q-144 0 -271.5 46t-215.5 124l178 222q62 -52 155.5 -84.5t169.5 -32.5q66 0 105 23.5t39 58.5q0 9 -5.5 15t-34 16.5t-83.5 23.5q-77 18 -115.5 28t-95.5 34t-84.5 51t-48.5 73t-21 107
q0 117 67.5 210t180 143t248.5 50q226 0 430 -147l-164 -225q-59 44 -134 74t-132 30q-58 0 -100.5 -27.5t-42.5 -58.5q0 -14 22 -24.5t98 -28.5q41 -10 62 -15t58 -15.5t57.5 -19t50.5 -23t47 -29.5t37 -36t30.5 -45t17.5 -55t7 -67q0 -180 -145.5 -288t-366.5 -108z" />
    <glyph glyph-name="uni0162" unicode="&#x162;" horiz-adv-x="1320" 
d="M229 1407h1229l-74 -354h-415l-219 -1053h-99l-57 -90q53 -11 84 -46.5t31 -86.5q0 -89 -69 -138t-177 -49q-117 0 -207 70l72 121q40 -37 96 -37q51 0 84 18.5t33 47.5q0 30 -29 30q-37 0 -74 -26l-53 59l76 127h-109l219 1053h-415z" />
    <glyph glyph-name="uni0163" unicode="&#x163;" horiz-adv-x="860" 
d="M801 748h-209q-76 -358 -76 -390q0 -55 51 -55q31 0 65.5 14t51.5 29l31 -272q-60 -46 -121 -68l-62 -96q53 -11 84 -46.5t31 -86.5q0 -89 -69 -138t-177 -49q-116 0 -206 70l71 121q40 -37 96 -37q51 0 84 18.5t33 47.5q0 30 -28 30q-37 0 -74 -26l-53 59l63 104
q-118 13 -190 93.5t-72 199.5q0 37 14 110t76 368h-133l65 311h134l61 291h377l-62 -291h209z" />
    <glyph glyph-name="Tcaron" unicode="&#x164;" horiz-adv-x="1320" 
d="M715 1524l-156 315h221l117 -137l184 137h240l-289 -315h-317zM352 0l219 1053h-415l73 354h1229l-74 -354h-415l-219 -1053h-398z" />
    <glyph glyph-name="tcaron" unicode="&#x165;" horiz-adv-x="860" 
d="M1217 1432q71 0 114 -53.5t43 -139.5q0 -109 -70 -208t-182 -179l-98 94q85 57 150 148q-70 0 -104 41t-34 108q0 76 55 132.5t126 56.5zM719 1350l-62 -291h209l-65 -311h-209q-76 -358 -76 -390q0 -55 51 -55q31 0 65.5 14t51.5 29l31 -272q-56 -45 -133 -72t-152 -27
q-136 0 -220.5 82.5t-84.5 212.5q0 37 14 110t76 368h-133l65 311h134l61 291h377z" />
    <glyph glyph-name="Umacron" unicode="&#x16a;" horiz-adv-x="1558" 
d="M606 1522l45 217h756l-45 -217h-756zM688 -25q-120 0 -221.5 32.5t-172.5 92t-117.5 142.5t-56.5 183.5t11 215.5l160 766h397l-162 -778q-28 -134 24 -213.5t163 -79.5q127 0 231.5 94.5t134.5 231.5l154 745h397l-166 -799q-58 -284 -273.5 -458.5t-502.5 -174.5z" />
    <glyph glyph-name="umacron" unicode="&#x16b;" horiz-adv-x="1284" 
d="M1190 1391l-45 -217h-756l45 217h756zM895 1059h395l-221 -1059h-395l18 84q-118 -109 -293 -109q-153 0 -244.5 91.5t-91.5 236.5q0 15 1 30t3.5 32t8 47.5t12 62t19.5 92t25.5 120.5t34.5 164l44 208h377q-98 -466 -114.5 -546.5t-16.5 -102.5q0 -52 28 -79.5t78 -27.5
q75 0 137 53t74 125z" />
    <glyph glyph-name="Uring" unicode="&#x16e;" horiz-adv-x="1558" 
d="M985 1526q-89 0 -146 55.5t-57 140.5q0 119 94.5 209t210.5 90q89 0 146 -55.5t57 -140.5q0 -118 -94 -208.5t-211 -90.5zM1016 1673q46 0 84.5 37t38.5 84q0 34 -23.5 57t-58.5 23q-46 0 -84.5 -36t-38.5 -83q0 -36 23 -59t59 -23zM688 -25q-120 0 -221.5 32.5
t-172.5 92t-117.5 142.5t-56.5 183.5t11 215.5l160 766h397l-162 -778q-28 -134 24 -213.5t163 -79.5q127 0 231.5 94.5t134.5 231.5l154 745h397l-166 -799q-58 -284 -273.5 -458.5t-502.5 -174.5z" />
    <glyph glyph-name="uring" unicode="&#x16f;" horiz-adv-x="1284" 
d="M768 1178q-89 0 -146 55.5t-57 140.5q0 119 94.5 209t210.5 90q89 0 146 -55.5t57 -140.5q0 -118 -94 -208.5t-211 -90.5zM840 1526q-46 0 -84.5 -36t-38.5 -83q0 -36 23 -59t59 -23q46 0 84.5 37t38.5 84q0 34 -23.5 57t-58.5 23zM895 1059h395l-221 -1059h-395l18 84
q-118 -109 -293 -109q-153 0 -244.5 91.5t-91.5 236.5q0 15 1 30t3.5 32t8 47.5t12 62t19.5 92t25.5 120.5t34.5 164l44 208h377q-98 -466 -114.5 -546.5t-16.5 -102.5q0 -52 28 -79.5t78 -27.5q75 0 137 53t74 125z" />
    <glyph glyph-name="Uhungarumlaut" unicode="&#x170;" horiz-adv-x="1558" 
d="M430 1524l299 336l338 -58l-369 -278h-268zM958 1524l299 336l338 -58l-368 -278h-269zM688 -25q-120 0 -221.5 32.5t-172.5 92t-117.5 142.5t-56.5 183.5t11 215.5l160 766h397l-162 -778q-28 -134 24 -213.5t163 -79.5q127 0 231.5 94.5t134.5 231.5l154 745h397
l-166 -799q-58 -284 -273.5 -458.5t-502.5 -174.5z" />
    <glyph glyph-name="uhungarumlaut" unicode="&#x171;" horiz-adv-x="1284" 
d="M850 1454l-369 -278h-268l299 335zM1010 1176h-269l299 335l338 -57zM774 481l121 578h395l-221 -1059h-395l18 84q-118 -109 -293 -109q-153 0 -244.5 91.5t-91.5 236.5q0 15 1 30t3.5 32t8 47.5t12 62t19.5 92t25.5 120.5t34.5 164l44 208h377q-98 -466 -114.5 -546.5
t-16.5 -102.5q0 -52 28 -79.5t78 -27.5q75 0 137 53t74 125z" />
    <glyph glyph-name="Uogonek" unicode="&#x172;" horiz-adv-x="1558" 
d="M1233 1407h397l-166 -799q-58 -284 -273.5 -458.5t-502.5 -174.5q-29 0 -43 2q-39 -31 -39 -69q0 -43 41 -43q57 0 90 33l27 -191q-79 -61 -186 -61q-96 0 -151.5 54t-55.5 150q0 100 61 170q-183 72 -264 238t-37 383l160 766h397l-162 -778q-28 -134 24 -213.5
t163 -79.5q127 0 231.5 94.5t134.5 231.5z" />
    <glyph glyph-name="uogonek" unicode="&#x173;" horiz-adv-x="1284" 
d="M995 -135q57 0 90 33l27 -191q-79 -61 -186 -61q-96 0 -151.5 54t-55.5 150q0 88 45 150h-90l18 84q-118 -109 -293 -109q-153 0 -244.5 91.5t-91.5 236.5q0 15 1 30t3.5 32t8 47.5t12 62t19.5 92t25.5 120.5t34.5 164l44 208h377q-98 -466 -114.5 -546.5t-16.5 -102.5
q0 -52 28 -79.5t78 -27.5q75 0 137 53t74 125l121 578h395l-221 -1059q-46 0 -80.5 -27.5t-34.5 -64.5q0 -43 41 -43z" />
    <glyph glyph-name="Wcircumflex" unicode="&#x174;" horiz-adv-x="2203" 
d="M920 1524l286 315h318l157 -315h-221l-119 137l-182 -137h-239zM297 0l-98 1407h422v-813l444 813h428l98 -813l344 813h435l-682 -1407h-402l-119 813l-469 -813h-401z" />
    <glyph glyph-name="wcircumflex" unicode="&#x175;" horiz-adv-x="1734" 
d="M612 1176l287 315h318l157 -315h-221l-119 137l-182 -137h-240zM268 0l-143 1059h371l45 -529l270 529h324l43 -529l268 529h387l-582 -1059h-350l-27 545l-256 -545h-350z" />
    <glyph glyph-name="Ycircumflex" unicode="&#x176;" horiz-adv-x="1452" 
d="M510 1524l287 315h317l158 -315h-221l-119 137l-182 -137h-240zM412 0l102 463l-344 944h369l217 -600l444 600h447l-736 -944l-102 -463h-397z" />
    <glyph glyph-name="ycircumflex" unicode="&#x177;" horiz-adv-x="1243" 
d="M373 1176l286 315h318l158 -315h-222l-118 137l-183 -137h-239zM238 -369q-77 0 -167.5 27.5t-152.5 67.5l111 237q79 -51 135 -51q31 0 73 16.5t50 30.5l35 27l-201 1073h395l78 -653l344 653h405l-624 -1082q-99 -170 -223 -258t-258 -88z" />
    <glyph glyph-name="Ydieresis" unicode="&#x178;" horiz-adv-x="1452" 
d="M692 1526q-75 0 -120.5 47.5t-45.5 118.5q0 81 56.5 134.5t132.5 53.5q70 0 116 -49t46 -119q0 -78 -56.5 -132t-128.5 -54zM1153 1526q-74 0 -120 48t-46 120q0 79 57 132.5t132 53.5q71 0 116 -48.5t45 -117.5q0 -80 -55.5 -134t-128.5 -54zM412 0l102 463l-344 944
h369l217 -600l444 600h447l-736 -944l-102 -463h-397z" />
    <glyph glyph-name="Zacute" unicode="&#x179;" horiz-adv-x="1366" 
d="M657 1524l299 336l338 -58l-368 -278h-269zM-20 0l53 297l825 756h-647l74 354h1196l-58 -297l-819 -756h668l-74 -354h-1218z" />
    <glyph glyph-name="zacute" unicode="&#x17a;" horiz-adv-x="1118" 
d="M461 1176l299 335l338 -57l-369 -278h-268zM-37 0l51 272l566 459h-451l68 328h966l-55 -273l-563 -458h471l-70 -328h-983z" />
    <glyph glyph-name="Zdotaccent" unicode="&#x17b;" horiz-adv-x="1366" 
d="M934 1526q-75 0 -120.5 47.5t-45.5 118.5q0 81 56 134.5t132 53.5q70 0 116 -49t46 -119q0 -78 -56 -132t-128 -54zM-20 0l53 297l825 756h-647l74 354h1196l-58 -297l-819 -756h668l-74 -354h-1218z" />
    <glyph glyph-name="zdotaccent" unicode="&#x17c;" horiz-adv-x="1118" 
d="M737 1178q-75 0 -120.5 47t-45.5 118q0 81 56.5 135t132.5 54q70 0 116 -49t46 -119q0 -78 -56.5 -132t-128.5 -54zM-37 0l51 272l566 459h-451l68 328h966l-55 -273l-563 -458h471l-70 -328h-983z" />
    <glyph glyph-name="Zcaron" unicode="&#x17d;" horiz-adv-x="1366" 
d="M754 1524l-156 315h221l117 -137l184 137h240l-289 -315h-317zM-20 0l53 297l825 756h-647l74 354h1196l-58 -297l-819 -756h668l-74 -354h-1218z" />
    <glyph glyph-name="zcaron" unicode="&#x17e;" horiz-adv-x="1118" 
d="M557 1176l-156 315h222l116 -137l185 137h239l-289 -315h-317zM-37 0l51 272l566 459h-451l68 328h966l-55 -273l-563 -458h471l-70 -328h-983z" />
    <glyph glyph-name="uni0237" unicode="&#x237;" horiz-adv-x="622" 
d="M-29 -365q-68 0 -135 16.5t-110 39.5l71 272q23 -10 80 -10q48 0 90 38t51 87l205 981h395l-221 -1063q-33 -165 -150.5 -263t-275.5 -98z" />
    <glyph glyph-name="circumflex" unicode="&#x2c6;" horiz-adv-x="1019" 
d="M264 1176l287 315h317l158 -315h-221l-119 137l-182 -137h-240z" />
    <glyph glyph-name="caron" unicode="&#x2c7;" horiz-adv-x="1019" 
d="M485 1176l-155 315h221l117 -137l184 137h240l-289 -315h-318z" />
    <glyph glyph-name="breve" unicode="&#x2d8;" horiz-adv-x="958" 
d="M614 1178q-201 0 -319 145l182 152q73 -89 180 -89q110 0 217 89l121 -152q-177 -145 -381 -145z" />
    <glyph glyph-name="dotaccent" unicode="&#x2d9;" horiz-adv-x="612" 
d="M469 1178q-75 0 -120.5 47t-45.5 118q0 81 56.5 135t132.5 54q69 0 115 -49t46 -119q0 -78 -56 -132t-128 -54z" />
    <glyph glyph-name="ring" unicode="&#x2da;" horiz-adv-x="753" 
d="M512 1178q-89 0 -146 55.5t-57 140.5q0 119 94.5 209t210.5 90q89 0 146 -55.5t57 -140.5q0 -118 -94 -208.5t-211 -90.5zM543 1325q46 0 84.5 37t38.5 84q0 34 -23.5 57t-58.5 23q-46 0 -84.5 -36t-38.5 -83q0 -36 23 -59t59 -23z" />
    <glyph glyph-name="ogonek" unicode="&#x2db;" horiz-adv-x="688" 
d="M201 -354q-96 0 -151.5 54t-55.5 150q0 152 137 236l213 -86q-46 0 -80.5 -27.5t-34.5 -64.5q0 -43 41 -43q57 0 90 33l27 -191q-79 -61 -186 -61z" />
    <glyph glyph-name="tilde" unicode="&#x2dc;" horiz-adv-x="901" 
d="M752 1169q-55 0 -109.5 21t-92.5 42t-54 21q-77 0 -119 -100l-176 55q46 146 111.5 210.5t168.5 64.5q54 0 108 -21t92.5 -42t53.5 -21q38 0 69.5 27.5t49.5 72.5l178 -57q-45 -145 -111.5 -209t-168.5 -64z" />
    <glyph glyph-name="hungarumlaut" unicode="&#x2dd;" horiz-adv-x="1366" 
d="M264 1176l299 335l338 -57l-369 -278h-268zM793 1176l299 335l338 -57l-369 -278h-268z" />
    <glyph glyph-name="uni0326" unicode="&#x326;" horiz-adv-x="0" 
d="M-563 -627l-99 95q87 58 150 147q-70 0 -103.5 41t-33.5 108q0 76 54.5 132.5t125.5 56.5t114.5 -53.5t43.5 -139.5q0 -109 -70 -208t-182 -179z" />
    <glyph glyph-name="Wgrave" unicode="&#x1e80;" horiz-adv-x="2203" 
d="M1163 1524l-254 278l342 58l160 -336h-248zM297 0l-98 1407h422v-813l444 813h428l98 -813l344 813h435l-682 -1407h-402l-119 813l-469 -813h-401z" />
    <glyph glyph-name="wgrave" unicode="&#x1e81;" horiz-adv-x="1734" 
d="M862 1176l-254 278l342 57l160 -335h-248zM268 0l-143 1059h371l45 -529l270 529h324l43 -529l268 529h387l-582 -1059h-350l-27 545l-256 -545h-350z" />
    <glyph glyph-name="Wacute" unicode="&#x1e82;" horiz-adv-x="2203" 
d="M1182 1524l299 336l338 -58l-369 -278h-268zM297 0l-98 1407h422v-813l444 813h428l98 -813l344 813h435l-682 -1407h-402l-119 813l-469 -813h-401z" />
    <glyph glyph-name="wacute" unicode="&#x1e83;" horiz-adv-x="1734" 
d="M860 1176l299 335l338 -57l-369 -278h-268zM268 0l-143 1059h371l45 -529l270 529h324l43 -529l268 529h387l-582 -1059h-350l-27 545l-256 -545h-350z" />
    <glyph glyph-name="Wdieresis" unicode="&#x1e84;" horiz-adv-x="2203" 
d="M1102 1526q-75 0 -120.5 47.5t-45.5 118.5q0 81 56 134.5t132 53.5q70 0 116 -49t46 -119q0 -78 -56 -132t-128 -54zM1563 1526q-74 0 -120 48t-46 120q0 79 56.5 132.5t131.5 53.5q71 0 116.5 -48.5t45.5 -117.5q0 -80 -55.5 -134t-128.5 -54zM297 0l-98 1407h422v-813
l444 813h428l98 -813l344 813h435l-682 -1407h-402l-119 813l-469 -813h-401z" />
    <glyph glyph-name="wdieresis" unicode="&#x1e85;" horiz-adv-x="1734" 
d="M795 1178q-75 0 -120.5 47t-45.5 118q0 81 56 135t132 54q70 0 116 -49t46 -119q0 -78 -56 -132t-128 -54zM1255 1178q-74 0 -119.5 48t-45.5 120q0 79 56.5 132.5t131.5 53.5q71 0 116.5 -48.5t45.5 -117.5q0 -79 -56 -133.5t-129 -54.5zM268 0l-143 1059h371l45 -529
l270 529h324l43 -529l268 529h387l-582 -1059h-350l-27 545l-256 -545h-350z" />
    <glyph glyph-name="uni1EB8" unicode="&#x1eb8;" horiz-adv-x="1333" 
d="M1364 1053h-735l-31 -158h668l-74 -354h-670l-37 -187h734l-74 -354h-1133l293 1407h1133zM541 -43q69 0 115 -49t46 -119q0 -78 -56 -132t-128 -54q-75 0 -120.5 47.5t-45.5 118.5q0 81 56.5 134.5t132.5 53.5z" />
    <glyph glyph-name="uni1EB9" unicode="&#x1eb9;" horiz-adv-x="1228" 
d="M1116 795q0 -179 -138.5 -273.5t-385.5 -85.5h-213q0 -77 40.5 -121.5t112.5 -44.5q129 0 269 99l190 -240q-84 -70 -210 -112t-242 -42q-225 0 -358.5 125.5t-133.5 329.5q0 134 51 254.5t138 208t208.5 139t257.5 51.5q182 0 298 -80.5t116 -207.5zM692 788
q-72 0 -136.5 -39.5t-109.5 -105.5h189q75 0 118.5 24.5t45.5 67.5q0 23 -30.5 38t-76.5 15zM408 -131q69 0 115 -49t46 -119q0 -78 -56 -132t-128 -54q-75 0 -120.5 47.5t-45.5 118.5q0 81 56.5 134.5t132.5 53.5z" />
    <glyph glyph-name="uni1EBC" unicode="&#x1ebc;" horiz-adv-x="1333" 
d="M807 1602q-76 0 -119 -101l-176 55q46 146 112 210.5t169 64.5q54 0 108 -21t92.5 -42t53.5 -21q38 0 69 27.5t49 72.5l178 -57q-45 -145 -111.5 -208.5t-168.5 -63.5q-55 0 -109.5 21t-92.5 42t-54 21zM1364 1053h-735l-31 -158h668l-74 -354h-670l-37 -187h734
l-74 -354h-1133l293 1407h1133z" />
    <glyph glyph-name="uni1EBD" unicode="&#x1ebd;" horiz-adv-x="1146" 
d="M641 1253q-77 0 -119 -100l-176 55q46 146 112 210.5t169 64.5q54 0 108 -21t92.5 -42t53.5 -21q38 0 69 27.5t49 72.5l179 -57q-45 -145 -112 -209t-169 -64q-55 0 -109.5 21t-92.5 42t-54 21zM702 1083q182 0 298 -80.5t116 -207.5q0 -179 -138.5 -273.5t-385.5 -85.5
h-213q0 -77 40.5 -121.5t112.5 -44.5q129 0 269 99l190 -240q-84 -70 -210 -112t-242 -42q-225 0 -358.5 125.5t-133.5 329.5q0 134 51 254.5t138 208t208.5 139t257.5 51.5zM635 643q75 0 118.5 24.5t45.5 67.5q0 23 -30.5 38t-76.5 15q-72 0 -136.5 -39.5t-109.5 -105.5
h189z" />
    <glyph glyph-name="Ygrave" unicode="&#x1ef2;" horiz-adv-x="1452" 
d="M864 1524l-254 278l342 58l160 -336h-248zM412 0l102 463l-344 944h369l217 -600l444 600h447l-736 -944l-102 -463h-397z" />
    <glyph glyph-name="ygrave" unicode="&#x1ef3;" horiz-adv-x="1243" 
d="M727 1176l-254 278l342 57l160 -335h-248zM238 -369q-77 0 -167.5 27.5t-152.5 67.5l111 237q79 -51 135 -51q31 0 73 16.5t50 30.5l35 27l-201 1073h395l78 -653l344 653h405l-624 -1082q-99 -170 -223 -258t-258 -88z" />
    <glyph glyph-name="endash" unicode="&#x2013;" horiz-adv-x="1163" 
d="M53 410l68 319h1005l-67 -319h-1006z" />
    <glyph glyph-name="emdash" unicode="&#x2014;" horiz-adv-x="1787" 
d="M53 410l68 319h1630l-68 -319h-1630z" />
    <glyph glyph-name="quoteleft" unicode="&#x2018;" horiz-adv-x="638" 
d="M514 1452l129 -119q-119 -80 -197 -198q79 0 133 -54.5t54 -140.5q0 -104 -79 -184t-177 -80q-94 0 -149.5 68.5t-55.5 179.5q0 149 94.5 283t247.5 245z" />
    <glyph glyph-name="quoteright" unicode="&#x2019;" horiz-adv-x="638" 
d="M346 668l-129 118q117 79 197 199q-79 0 -133 54.5t-54 140.5q0 104 79 184t177 80q94 0 149.5 -68.5t55.5 -179.5q0 -149 -94.5 -283t-247.5 -245z" />
    <glyph glyph-name="quotedblleft" unicode="&#x201c;" horiz-adv-x="1253" 
d="M510 1434l129 -119q-117 -79 -197 -199q80 0 133.5 -54t53.5 -140q0 -105 -79 -185t-177 -80q-94 0 -149.5 68.5t-55.5 179.5q0 149 94.5 283.5t247.5 245.5zM1124 1434l129 -119q-116 -78 -196 -199q79 0 132.5 -54t53.5 -140q0 -105 -79 -185t-177 -80
q-94 0 -149.5 68.5t-55.5 179.5q0 149 94.5 283.5t247.5 245.5z" />
    <glyph glyph-name="quotedblright" unicode="&#x201d;" horiz-adv-x="1253" 
d="M346 668l-129 118q117 79 197 199q-79 0 -133 54.5t-54 140.5q0 104 79 184t177 80q94 0 149.5 -68.5t55.5 -179.5q0 -149 -94.5 -283t-247.5 -245zM961 668l-130 118q117 79 197 199q-79 0 -132.5 54.5t-53.5 140.5q0 104 79 184t177 80q94 0 149.5 -68.5t55.5 -179.5
q0 -149 -94.5 -283t-247.5 -245z" />
    <glyph glyph-name="ellipsis" unicode="&#x2026;" horiz-adv-x="1873" 
d="M236 -25q-95 0 -155.5 61.5t-60.5 153.5q0 108 80 183.5t185 75.5q89 0 148 -61.5t59 -149.5q0 -106 -78 -184.5t-178 -78.5zM850 -25q-95 0 -155 61.5t-60 153.5q0 108 79.5 183.5t184.5 75.5q89 0 148 -61.5t59 -149.5q0 -106 -78 -184.5t-178 -78.5zM1464 -25
q-95 0 -155 61.5t-60 153.5q0 108 79.5 183.5t184.5 75.5q89 0 148 -61.5t59 -149.5q0 -106 -78 -184.5t-178 -78.5z" />
    <glyph glyph-name="perthousand" unicode="&#x2030;" horiz-adv-x="2578" 
d="M489 692q-147 0 -233 85t-86 220q0 175 121.5 299.5t298.5 124.5q151 0 237 -86t86 -221q0 -114 -55.5 -211t-153 -154t-215.5 -57zM141 0l1282 1407h281l-1282 -1407h-281zM485 911q76 0 130.5 68t54.5 145q0 37 -19.5 56.5t-54.5 19.5q-76 0 -129 -68t-53 -145
q0 -37 19 -56.5t52 -19.5zM1251 -23q-150 0 -236.5 87t-86.5 221q0 173 123.5 298.5t300.5 125.5q148 0 233.5 -87t85.5 -223q0 -172 -122.5 -297t-297.5 -125zM2058 -23q-150 0 -236.5 87t-86.5 221q0 173 123.5 298.5t300.5 125.5q148 0 233.5 -87t85.5 -223
q0 -172 -122.5 -297t-297.5 -125zM1245 199q76 0 130.5 68t54.5 143q0 38 -20 57.5t-54 19.5q-78 0 -131.5 -67.5t-53.5 -145.5q0 -75 74 -75zM2052 199q76 0 130 68t54 143q0 38 -19.5 57.5t-53.5 19.5q-78 0 -131.5 -67.5t-53.5 -145.5q0 -75 74 -75z" />
    <glyph glyph-name="Euro" unicode="&#x20ac;" horiz-adv-x="1456" 
d="M772 336q79 0 171.5 44t156.5 112l252 -279q-118 -105 -287.5 -171.5t-323.5 -66.5q-155 0 -290.5 68.5t-226 190t-115.5 272.5h-136l33 158h96q2 37 17 98h-92l32 158h115q106 222 330 367t477 145q175 0 321.5 -71.5t235.5 -186.5l-328 -234q-35 60 -99 95.5t-148 35.5
q-90 0 -176 -40.5t-154 -110.5h381l-33 -158h-449q-21 -58 -26 -98h455l-33 -158h-404q30 -79 98.5 -124.5t149.5 -45.5z" />
    <glyph glyph-name="minus" unicode="&#x2212;" horiz-adv-x="1247" 
d="M113 530l63 306h1022l-63 -306h-1022z" />
    <glyph glyph-name="a.alt" horiz-adv-x="1202" 
d="M707 1083q188 0 308 -101.5t120 -270.5q0 -11 -0.5 -20.5t-3 -26t-5 -32t-9 -47.5t-12.5 -62.5t-18 -87t-23.5 -111.5t-30.5 -145t-38 -179h-379l13 59q-119 -84 -264 -84q-160 0 -261.5 84t-101.5 217q0 116 73 206.5t187.5 137t245.5 46.5q117 0 233 -58q13 62 13 66
q0 96 -168 96q-136 0 -275 -68l-98 263q258 118 494 118zM684 350l4 -6l12 57q-54 25 -137 25q-70 0 -127 -46t-57 -99q0 -24 22.5 -38t61.5 -14q81 0 145 36.5t76 84.5z" />
    <glyph glyph-name="aacute.alt" horiz-adv-x="1202" 
d="M1147 1454l-369 -278h-268l299 335zM707 1083q188 0 308 -101.5t120 -270.5q0 -11 -0.5 -20.5t-3 -26t-5 -32t-9 -47.5t-12.5 -62.5t-18 -87t-23.5 -111.5t-30.5 -145t-38 -179h-379l13 59q-119 -84 -264 -84q-160 0 -261.5 84t-101.5 217q0 116 73 206.5t187.5 137
t245.5 46.5q117 0 233 -58q13 62 13 66q0 96 -168 96q-136 0 -275 -68l-98 263q258 118 494 118zM684 350l4 -6l12 57q-54 25 -137 25q-70 0 -127 -46t-57 -99q0 -24 22.5 -38t61.5 -14q81 0 145 36.5t76 84.5z" />
    <glyph glyph-name="abreve.alt" horiz-adv-x="1202" 
d="M762 1178q-202 0 -320 145l183 152q73 -89 180 -89q110 0 217 89l121 -152q-177 -145 -381 -145zM707 1083q188 0 308 -101.5t120 -270.5q0 -11 -0.5 -20.5t-3 -26t-5 -32t-9 -47.5t-12.5 -62.5t-18 -87t-23.5 -111.5t-30.5 -145t-38 -179h-379l13 59q-119 -84 -264 -84
q-160 0 -261.5 84t-101.5 217q0 116 73 206.5t187.5 137t245.5 46.5q117 0 233 -58q13 62 13 66q0 96 -168 96q-136 0 -275 -68l-98 263q258 118 494 118zM684 350l4 -6l12 57q-54 25 -137 25q-70 0 -127 -46t-57 -99q0 -24 22.5 -38t61.5 -14q81 0 145 36.5t76 84.5z" />
    <glyph glyph-name="acircumflex.alt" horiz-adv-x="1202" 
d="M797 1313l-183 -137h-239l287 315h317l158 -315h-222zM707 1083q188 0 308 -101.5t120 -270.5q0 -11 -0.5 -20.5t-3 -26t-5 -32t-9 -47.5t-12.5 -62.5t-18 -87t-23.5 -111.5t-30.5 -145t-38 -179h-379l13 59q-119 -84 -264 -84q-160 0 -261.5 84t-101.5 217
q0 116 73 206.5t187.5 137t245.5 46.5q117 0 233 -58q13 62 13 66q0 96 -168 96q-136 0 -275 -68l-98 263q258 118 494 118zM684 350l4 -6l12 57q-54 25 -137 25q-70 0 -127 -46t-57 -99q0 -24 22.5 -38t61.5 -14q81 0 145 36.5t76 84.5z" />
    <glyph glyph-name="adieresis.alt" horiz-adv-x="1202" 
d="M557 1178q-75 0 -120.5 47t-45.5 118q0 81 56.5 135t132.5 54q69 0 115 -49t46 -119q0 -78 -56 -132t-128 -54zM1040 1532q71 0 116.5 -48.5t45.5 -117.5q0 -80 -55.5 -134t-128.5 -54q-74 0 -120 48t-46 120q0 79 56.5 132.5t131.5 53.5zM707 1083q188 0 308 -101.5
t120 -270.5q0 -11 -0.5 -20.5t-3 -26t-5 -32t-9 -47.5t-12.5 -62.5t-18 -87t-23.5 -111.5t-30.5 -145t-38 -179h-379l13 59q-119 -84 -264 -84q-160 0 -261.5 84t-101.5 217q0 116 73 206.5t187.5 137t245.5 46.5q117 0 233 -58q13 62 13 66q0 96 -168 96q-136 0 -275 -68
l-98 263q258 118 494 118zM684 350l4 -6l12 57q-54 25 -137 25q-70 0 -127 -46t-57 -99q0 -24 22.5 -38t61.5 -14q81 0 145 36.5t76 84.5z" />
    <glyph glyph-name="agrave.alt" horiz-adv-x="1202" 
d="M977 1176h-248l-254 278l342 57zM707 1083q188 0 308 -101.5t120 -270.5q0 -11 -0.5 -20.5t-3 -26t-5 -32t-9 -47.5t-12.5 -62.5t-18 -87t-23.5 -111.5t-30.5 -145t-38 -179h-379l13 59q-119 -84 -264 -84q-160 0 -261.5 84t-101.5 217q0 116 73 206.5t187.5 137
t245.5 46.5q117 0 233 -58q13 62 13 66q0 96 -168 96q-136 0 -275 -68l-98 263q258 118 494 118zM684 350l4 -6l12 57q-54 25 -137 25q-70 0 -127 -46t-57 -99q0 -24 22.5 -38t61.5 -14q81 0 145 36.5t76 84.5z" />
    <glyph glyph-name="amacron.alt" horiz-adv-x="1202" 
d="M426 1391h756l-45 -217h-756zM707 1083q188 0 308 -101.5t120 -270.5q0 -11 -0.5 -20.5t-3 -26t-5 -32t-9 -47.5t-12.5 -62.5t-18 -87t-23.5 -111.5t-30.5 -145t-38 -179h-379l13 59q-119 -84 -264 -84q-160 0 -261.5 84t-101.5 217q0 116 73 206.5t187.5 137t245.5 46.5
q117 0 233 -58q13 62 13 66q0 96 -168 96q-136 0 -275 -68l-98 263q258 118 494 118zM684 350l4 -6l12 57q-54 25 -137 25q-70 0 -127 -46t-57 -99q0 -24 22.5 -38t61.5 -14q81 0 145 36.5t76 84.5z" />
    <glyph glyph-name="aogonek.alt" horiz-adv-x="1202" 
d="M936 -135q57 0 90 33l27 -191q-79 -61 -187 -61q-96 0 -151.5 54t-55.5 150q0 86 46 150h-89l13 59q-119 -84 -264 -84q-160 0 -261.5 84t-101.5 217q0 116 73 206.5t187.5 137t245.5 46.5q117 0 233 -58q13 62 13 66q0 96 -168 96q-136 0 -275 -68l-98 263
q258 118 494 118q188 0 308 -101.5t120 -270.5q0 -11 -0.5 -20.5t-3 -26t-5 -32t-8.5 -47t-12.5 -62t-18 -86t-23 -110.5t-30.5 -143.5t-37 -177.5l13 -6q-46 0 -80.5 -27.5t-34.5 -64.5q0 -43 41 -43zM684 350l4 -6l12 57q-54 25 -137 25q-70 0 -127 -46t-57 -99
q0 -24 22.5 -38t61.5 -14q81 0 145 36.5t76 84.5z" />
    <glyph glyph-name="aring.alt" horiz-adv-x="1202" 
d="M760 1178q-89 0 -146 55.5t-57 140.5q0 119 94.5 209t210.5 90q89 0 146 -55.5t57 -140.5q0 -118 -94 -208.5t-211 -90.5zM831 1526q-46 0 -84 -36t-38 -83q0 -36 23 -59t59 -23q46 0 84 37t38 84q0 34 -23.5 57t-58.5 23zM707 1083q188 0 308 -101.5t120 -270.5
q0 -11 -0.5 -20.5t-3 -26t-5 -32t-9 -47.5t-12.5 -62.5t-18 -87t-23.5 -111.5t-30.5 -145t-38 -179h-379l13 59q-119 -84 -264 -84q-160 0 -261.5 84t-101.5 217q0 116 73 206.5t187.5 137t245.5 46.5q117 0 233 -58q13 62 13 66q0 96 -168 96q-136 0 -275 -68l-98 263
q258 118 494 118zM684 350l4 -6l12 57q-54 25 -137 25q-70 0 -127 -46t-57 -99q0 -24 22.5 -38t61.5 -14q81 0 145 36.5t76 84.5z" />
    <glyph glyph-name="atilde.alt" horiz-adv-x="1202" 
d="M670 1253q-77 0 -119 -100l-176 55q46 146 111.5 210.5t168.5 64.5q54 0 108 -21t92.5 -42t53.5 -21q38 0 69.5 27.5t49.5 72.5l178 -57q-45 -145 -111.5 -209t-168.5 -64q-55 0 -109.5 21t-92.5 42t-54 21zM707 1083q188 0 308 -101.5t120 -270.5q0 -11 -0.5 -20.5
t-3 -26t-5 -32t-9 -47.5t-12.5 -62.5t-18 -87t-23.5 -111.5t-30.5 -145t-38 -179h-379l13 59q-119 -84 -264 -84q-160 0 -261.5 84t-101.5 217q0 116 73 206.5t187.5 137t245.5 46.5q117 0 233 -58q13 62 13 66q0 96 -168 96q-136 0 -275 -68l-98 263q258 118 494 118z
M684 350l4 -6l12 57q-54 25 -137 25q-70 0 -127 -46t-57 -99q0 -24 22.5 -38t61.5 -14q81 0 145 36.5t76 84.5z" />
    <glyph glyph-name="ascender" 
d="M-4 0l297 1432h395l-297 -1432h-395z" />
    <glyph glyph-name="descender" 
d="M-78 -352l293 1411h395l-293 -1411h-395z" />
    </font>
</defs>
</svg>
